  0
SECTION
  2
HEADER
  9
$ACADVER
  1
AC1015
  9
$ACADMAINTVER
 70
     6
  9
$DWGCODEPAGE
  3
ANSI_936
  9
$INSBASE
 10
0.0
 20
0.0
 30
0.0
  9
$EXTMIN
 10
-10.0
 20
-10.0
 30
0.0
  9
$EXTMAX
 10
430.0
 20
307.0
 30
0.0
  9
$LIMMIN
 10
0.0
 20
0.0
  9
$LIMMAX
 10
0.0
 20
0.0
  9
$ORTHOMODE
 70
     0
  9
$REGENMODE
 70
     1
  9
$FILLMODE
 70
     1
  9
$QTEXTMODE
 70
     0
  9
$MIRRTEXT
 70
     1
  9
$LTSCALE
 40
1.0
  9
$ATTMODE
 70
     1
  9
$TEXTSIZE
 40
0.2
  9
$TRACEWID
 40
0.05
  9
$TEXTSTYLE
  7
Standard
  9
$CLAYER
  8
0
  9
$CELTYPE
  6
Continuous
  9
$CECOLOR
 62
   256
  9
$CELTSCALE
 40
1.0
  9
$DISPSILH
 70
     0
  9
$DIMSCALE
 40
1.0
  9
$DIMASZ
 40
0.18
  9
$DIMEXO
 40
0.0625
  9
$DIMDLI
 40
0.38
  9
$DIMRND
 40
0.0
  9
$DIMDLE
 40
0.0
  9
$DIMEXE
 40
0.18
  9
$DIMTP
 40
0.0
  9
$DIMTM
 40
0.0
  9
$DIMTXT
 40
0.18
  9
$DIMCEN
 40
0.09
  9
$DIMTSZ
 40
0.0
  9
$DIMTOL
 70
     0
  9
$DIMLIM
 70
     0
  9
$DIMTIH
 70
     1
  9
$DIMTOH
 70
     1
  9
$DIMSE1
 70
     0
  9
$DIMSE2
 70
     0
  9
$DIMTAD
 70
     0
  9
$DIMZIN
 70
     0
  9
$DIMBLK
  1

  9
$DIMASO
 70
     1
  9
$DIMSHO
 70
     1
  9
$DIMPOST
  1

  9
$DIMAPOST
  1

  9
$DIMALT
 70
     0
  9
$DIMALTD
 70
     2
  9
$DIMALTF
 40
25.4
  9
$DIMLFAC
 40
1.0
  9
$DIMTOFL
 70
     0
  9
$DIMTVP
 40
0.0
  9
$DIMTIX
 70
     0
  9
$DIMSOXD
 70
     0
  9
$DIMSAH
 70
     0
  9
$DIMBLK1
  1

  9
$DIMBLK2
  1

  9
$DIMSTYLE
  2
Standard
  9
$DIMCLRD
 70
     0
  9
$DIMCLRE
 70
     0
  9
$DIMCLRT
 70
     0
  9
$DIMTFAC
 40
1.0
  9
$DIMGAP
 40
0.09
  9
$DIMJUST
 70
     0
  9
$DIMSD1
 70
     0
  9
$DIMSD2
 70
     0
  9
$DIMTOLJ
 70
     1
  9
$DIMTZIN
 70
     0
  9
$DIMALTZ
 70
     0
  9
$DIMALTTZ
 70
     0
  9
$DIMUPT
 70
     0
  9
$DIMDEC
 70
     4
  9
$DIMTDEC
 70
     4
  9
$DIMALTU
 70
     2
  9
$DIMALTTD
 70
     2
  9
$DIMTXSTY
  7
Standard
  9
$DIMAUNIT
 70
     0
  9
$DIMADEC
 70
     0
  9
$DIMALTRND
 40
0.0
  9
$DIMAZIN
 70
     0
  9
$DIMDSEP
 70
     0
  9
$DIMATFIT
 70
     3
  9
$DIMFRAC
 70
     0
  9
$DIMLDRBLK
  1

  9
$DIMLUNIT
 70
     2
  9
$DIMLWD
 70
     0
  9
$DIMLWE
 70
     0
  9
$DIMTMOVE
 70
     0
  9
$LUNITS
 70
     2
  9
$LUPREC
 70
     4
  9
$SKETCHINC
 40
0.1
  9
$FILLETRAD
 40
0.0
  9
$AUNITS
 70
     0
  9
$AUPREC
 70
     0
  9
$MENU
  1
acad
  9
$ELEVATION
 40
0.0
  9
$PELEVATION
 40
0.0
  9
$THICKNESS
 40
0.0
  9
$LIMCHECK
 70
     0
  9
$CHAMFERA
 40
0.0
  9
$CHAMFERB
 40
0.0
  9
$CHAMFERC
 40
0.0
  9
$CHAMFERD
 40
0.0
  9
$SKPOLY
 70
     0
  9
$TDCREATE
 40
0.000000000
  9
$TDUCREATE
 40
0.000000000
  9
$TDUPDATE
 40
0.000000000
  9
$TDUUPDATE
 40
0.000000000
  9
$TDINDWG
 40
0.0000000000
  9
$TDUSRTIMER
 40
0.0000000000
  9
$USRTIMER
 70
     1
  9
$ANGBASE
 50
0.0
  9
$ANGDIR
 70
     0
  9
$PDMODE
 70
     0
  9
$PDSIZE
 40
0.0
  9
$PLINEWID
 40
0.0
  9
$SPLFRAME
 70
     0
  9
$SPLINETYPE
 70
     6
  9
$SPLINESEGS
 70
     8
  9
$HANDSEED
  5
517
  9
$SURFTAB1
 70
     6
  9
$SURFTAB2
 70
     6
  9
$SURFTYPE
 70
     6
  9
$SURFU
 70
     6
  9
$SURFV
 70
     6
  9
$UCSBASE
  2

  9
$UCSNAME
  2

  9
$UCSORG
 10
0.0
 20
0.0
 30
0.0
  9
$UCSXDIR
 10
1.0
 20
0.0
 30
0.0
  9
$UCSYDIR
 10
0.0
 20
1.0
 30
0.0
  9
$UCSORTHOREF
  2

  9
$UCSORTHOVIEW
 70
     0
  9
$UCSORGTOP
 10
0.0
 20
0.0
 30
0.0
  9
$UCSORGBOTTOM
 10
0.0
 20
0.0
 30
0.0
  9
$UCSORGLEFT
 10
0.0
 20
0.0
 30
0.0
  9
$UCSORGRIGHT
 10
0.0
 20
0.0
 30
0.0
  9
$UCSORGFRONT
 10
0.0
 20
0.0
 30
0.0
  9
$UCSORGBACK
 10
0.0
 20
0.0
 30
0.0
  9
$PUCSBASE
  2

  9
$PUCSNAME
  2

  9
$PUCSORG
 10
0.0
 20
0.0
 30
0.0
  9
$PUCSXDIR
 10
1.0
 20
0.0
 30
0.0
  9
$PUCSYDIR
 10
0.0
 20
1.0
 30
0.0
  9
$PUCSORTHOREF
  2

  9
$PUCSORTHOVIEW
 70
     0
  9
$PUCSORGTOP
 10
0.0
 20
0.0
 30
0.0
  9
$PUCSORGBOTTOM
 10
0.0
 20
0.0
 30
0.0
  9
$PUCSORGLEFT
 10
0.0
 20
0.0
 30
0.0
  9
$PUCSORGRIGHT
 10
0.0
 20
0.0
 30
0.0
  9
$PUCSORGFRONT
 10
0.0
 20
0.0
 30
0.0
  9
$PUCSORGBACK
 10
0.0
 20
0.0
 30
0.0
  9
$USERI1
 70
     0
  9
$USERI2
 70
     0
  9
$USERI3
 70
     0
  9
$USERI4
 70
     0
  9
$USERI5
 70
     0
  9
$USERR1
 40
0.0
  9
$USERR2
 40
0.0
  9
$USERR3
 40
0.0
  9
$USERR4
 40
0.0
  9
$USERR5
 40
0.0
  9
$WORLDVIEW
 70
     1
  9
$SHADEDGE
 70
     3
  9
$SHADEDIF
 70
    70
  9
$TILEMODE
 70
     1
  9
$MAXACTVP
 70
    16
  9
$PINSBASE
 10
0.0
 20
0.0
 30
0.0
  9
$PLIMCHECK
 70
     0
  9
$PEXTMIN
 10
0.0
 20
0.0
 30
0.0
  9
$PEXTMAX
 10
440.0
 20
317.0
 30
0.0
  9
$PLIMMIN
 10
0.0
 20
0.0
  9
$PLIMMAX
 10
440.0
 20
317.0
  9
$UNITMODE
 70
     0
  9
$VISRETAIN
 70
     0
  9
$PLINEGEN
 70
     1
  9
$PSLTSCALE
 70
     0
  9
$TREEDEPTH
 70
  3020
  9
$CMLSTYLE
  2
Standard
  9
$CMLJUST
 70
     0
  9
$CMLSCALE
 40
1.0
  9
$PROXYGRAPHICS
 70
     1
  9
$MEASUREMENT
 70
     0
  9
$CELWEIGHT
370
     0
  9
$ENDCAPS
280
     0
  9
$JOINSTYLE
280
     0
  9
$LWDISPLAY
290
     0
  9
$INSUNITS
 70
     0
  9
$HYPERLINKBASE
  1

  9
$STYLESHEET
  1

  9
$XEDIT
290
     1
  9
$CEPSNTYPE
380
     0
  9
$PSTYLEMODE
290
     1
  9
$FINGERPRINTGUID
  2

  9
$VERSIONGUID
  2

  9
$EXTNAMES
290
     1
  9
$PSVPSCALE
 40
0.0
  0
ENDSEC
  0
SECTION
  2
CLASSES
  0
CLASS
  1
LWPOLYLINE
  2
AcDbPolyline
  3
AutoCAD 2000
 90
        0
280
     0
281
     1
  0
CLASS
  1
IMAGE
  2
AcDbRasterImage
  3
ISM
 90
      127
280
     0
281
     1
  0
CLASS
  1
OLE2FRAME
  2
AcDbOle2Frame
  3
AutoCAD 2000
 90
        0
280
     0
281
     1
  0
CLASS
  1
HATCH
  2
AcDbHatch
  3
AutoCAD 2000
 90
        0
280
     0
281
     1
  0
CLASS
  1
DICTIONARYVAR
  2
AcDbDictionaryVar
  3
AutoCAD 2000
 90
        0
280
     0
281
     0
  0
CLASS
  1
RASTERVARIABLES
  2
AcDbRasterVariables
  3
ISM
 90
        0
280
     0
281
     0
  0
CLASS
  1
IMAGEDEF
  2
AcDbRasterImageDef
  3
ISM
 90
        0
280
     0
281
     0
  0
CLASS
  1
IMAGEDEF_REACTOR
  2
AcDbRasterImageDefReactor
  3
ISM
 90
        1
280
     0
281
     0
  0
CLASS
  1
IDBUFFER
  2
AcDbIdBuffer
  3
AutoCAD 2000
 90
        0
280
     0
281
     0
  0
CLASS
  1
SPATIAL_FILTER
  2
AcDbSpatialFilter
  3
AutoCAD 2000
 90
        0
280
     0
281
     0
  0
CLASS
  1
XRECORD
  2
AcDbXrecord
  3
AutoCAD 2000
 90
        0
280
     0
281
     0
  0
CLASS
  1
SORTENTSTABLE
  2
AcDbSortentsTable
  3
AutoCAD 2000
 90
        0
280
     0
281
     0
  0
CLASS
  1
LAYER_INDEX
  2
AcDbLayerIndex
  3
AutoCAD 2000
 90
        0
280
     0
281
     0
  0
CLASS
  1
SPATIAL_INDEX
  2
AcDbSpatialIndex
  3
AutoCAD 2000
 90
        0
280
     0
281
     0
  0
CLASS
  1
OBJECT_PTR
  2
CAseDLPNTableRecord
  3
"ASE-LPNTableRecord"
 90
        1
280
     0
281
     0
  0
CLASS
  1
LAYOUT
  2
AcDbLayout
  3
AutoCAD 2000
 90
        0
280
     0
281
     0
  0
CLASS
  1
PLOTSETTINGS
  2
AcDbPlotSettings
  3
AutoCAD 2000
 90
        0
280
     0
281
     0
  0
CLASS
  1
ACDBDICTIONARYWDFLT
  2
AcDbDictionaryWithDefault
  3
AutoCAD 2000
 90
        0
280
     0
281
     0
  0
CLASS
  1
ACDBPLACEHOLDER
  2
AcDbPlaceHolder
  3
AutoCAD 2000
 90
        0
280
     0
281
     0
  0
CLASS
  1
VBA_PROJECT
  2
AcDbVbaProject
  3
acadvba
 90
        0
280
     0
281
     0
  0
CLASS
  1
WIPEOUT
  2
AcDbWipeout
  3
WipeOut|AutoCAD Express Tool|expresstools@autodesk.com
 90
      127
280
     0
281
     1
  0
CLASS
  1
WIPEOUTVARIABLES
  2
AcDbWipeoutVariables
  3
WipeOut|AutoCAD Express Tool|expresstools@autodesk.com
 90
        0
280
     0
281
     0
  0
CLASS
  1
RTEXT
  2
RText
  3
RText|AutoCAD Express Tool|expresstools@autodesk.com
 90
        0
280
     0
281
     1
  0
CLASS
  1
ARCALIGNEDTEXT
  2
AcDbArcAlignedText
  3
ATEXT|AutoCAD Express Tool|expresstools@autodesk.com
 90
        0
280
     0
281
     1
  0
CLASS
  1
KmSymbl
  2
KmSymbl
  3
KMCAD2005
 90
        0
280
     0
281
     1
  0
CLASS
  1
KmYinChuBZ
  2
KmYinChuBZ
  3
KMCAD2005
 90
        0
280
     0
281
     1
  0
CLASS
  1
KmRough
  2
KmRough
  3
KMCAD2005
 90
        0
280
     0
281
     1
  0
CLASS
  1
KmPouQie
  2
KmPouQie
  3
KMCAD2005
 90
        0
280
     0
281
     1
  0
CLASS
  1
KmDaoJiao
  2
KmDaoJiao
  3
KMCAD2005
 90
        0
280
     0
281
     1
  0
CLASS
  1
KmTolerance
  2
KmTolerance
  3
KMCAD2005
 90
        0
280
     0
281
     1
  0
CLASS
  1
KmBiaoGao
  2
KmBiaoGao
  3
KMCAD2005
 90
        0
280
     0
281
     1
  0
CLASS
  1
KmWeld
  2
KmWeld
  3
KMCAD2005
 90
        0
280
     0
281
     1
  0
CLASS
  1
KmWZDJ
  2
KmWZDJ
  3
KMCAD2005
 90
        0
280
     0
281
     1
  0
CLASS
  1
KmWZYJ
  2
KmWZYJ
  3
KMCAD2005
 90
        0
280
     0
281
     1
  0
CLASS
  1
KmXieDu
  2
KmXieDu
  3
KMCAD2005
 90
        0
280
     0
281
     1
  0
CLASS
  1
KmZhuiDu
  2
KmZhuiDu
  3
KMCAD2005
 90
        0
280
     0
281
     1
  0
CLASS
  1
KmDXBZ
  2
KmDXBZ
  3
KMCAD2005
 90
        0
280
     0
281
     1
  0
CLASS
  1
KmNormSymbl
  2
KmNormSymbl
  3
KMCAD2005
 90
        0
280
     0
281
     1
  0
CLASS
  1
KmBiaoShi
  2
KmBiaoShi
  3
KMCAD2005
 90
        0
280
     0
281
     1
  0
ENDSEC
  0
SECTION
  2
TABLES
  0
TABLE
  2
VPORT
  5
7
100
AcDbSymbolTable
 70
     1
  0
VPORT
  5
15
100
AcDbSymbolTableRecord
100
AcDbViewportTableRecord
  2
*ACTIVE
 70
     0
 10
0.0
 20
0.0
 11
1.0
 21
1.0
 12
210.0
 22
148.5
 13
0.0
 23
0.0
 14
1.0
 24
1.0
 15
0.0
 25
0.0
 16
0.0
 26
0.0
 36
1.0
 17
0.0
 27
0.0
 37
0.0
 40
317.0
 41
1.388013
 42
50.0
 43
0.0
 44
0.0
 50
0.0
 51
0.0
 71
     0
 72
   100
 73
     1
 74
     1
 75
     0
 76
     0
 77
     0
 78
     0
281
     0
 65
     0
110
0.0
120
0.0
130
0.0
111
1.0
121
0.0
131
0.0
112
0.0
122
1.0
132
0.0
345
0
346
0
 79
     0
146
0.0
  0
ENDTAB
  0
TABLE
  2
LTYPE
  5
4
100
AcDbSymbolTable
 70
    18
  0
LTYPE
  5
11
100
AcDbSymbolTableRecord
100
AcDbLinetypeTableRecord
  2
ByBlock
 70
    64
  3

 72
    65
 73
     0
 40
0.0
  0
LTYPE
  5
12
100
AcDbSymbolTableRecord
100
AcDbLinetypeTableRecord
  2
ByLayer
 70
    64
  3

 72
    65
 73
     0
 40
0.0
  0
LTYPE
  5
13
100
AcDbSymbolTableRecord
100
AcDbLinetypeTableRecord
  2
Continuous
 70
    64
  3
Solid line
 72
    65
 73
     0
 40
0.0
  0
LTYPE
  5
24
100
AcDbSymbolTableRecord
100
AcDbLinetypeTableRecord
  2
KM_SOLID
 70
    64
  3
开目实线
 72
    65
 73
     0
 40
0.0
  0
LTYPE
  5
25
100
AcDbSymbolTableRecord
100
AcDbLinetypeTableRecord
  2
KM_DASH
 70
    64
  3
开目虚线
 72
    65
 73
     2
 40
7.0
 49
5.0
 74
     0
 49
-2.0
 74
     0
  0
LTYPE
  5
26
100
AcDbSymbolTableRecord
100
AcDbLinetypeTableRecord
  2
KM_DOT
 70
    64
  3
开目点线
 72
    65
 73
     2
 40
4.0
 49
2.0
 74
     0
 49
-2.0
 74
     0
  0
LTYPE
  5
27
100
AcDbSymbolTableRecord
100
AcDbLinetypeTableRecord
  2
KM_SPACE
 70
    64
  3
开目间隔线
 72
    65
 73
     2
 40
10.0
 49
5.0
 74
     0
 49
-7.0
 74
     0
  0
LTYPE
  5
28
100
AcDbSymbolTableRecord
100
AcDbLinetypeTableRecord
  2
KM_LONGDASH_SHORTDASH
 70
    64
  3
开目长画短画线
 72
    65
 73
     4
 40
17.0
 49
10.0
 74
     0
 49
-2.0
 74
     0
 49
3.0
 74
     0
 49
-2.0
 74
     0
  0
LTYPE
  5
29
100
AcDbSymbolTableRecord
100
AcDbLinetypeTableRecord
  2
KM_LONGDASH_2SHORTDASH
 70
    64
  3
开目长画双短画线
 72
    65
 73
     6
 40
22.0
 49
10.0
 74
     0
 49
-2.0
 74
     0
 49
3.0
 74
     0
 49
-2.0
 74
     0
 49
3.0
 74
     0
 49
-2.0
 74
     0
  0
LTYPE
  5
2A
100
AcDbSymbolTableRecord
100
AcDbLinetypeTableRecord
  2
KM_SHORTDASH_DOT
 70
    64
  3
开目短画点线
 72
    65
 73
     4
 40
10.0
 49
5.0
 74
     0
 49
-2.0
 74
     0
 49
1.0
 74
     0
 49
-2.0
 74
     0
  0
LTYPE
  5
2B
100
AcDbSymbolTableRecord
100
AcDbLinetypeTableRecord
  2
KM_2SHORTDASH_DOT
 70
    64
  3
开目双短画点线
 72
    65
 73
     6
 40
17.0
 49
5.0
 74
     0
 49
-2.0
 74
     0
 49
5.0
 74
     0
 49
-2.0
 74
     0
 49
1.0
 74
     0
 49
-2.0
 74
     0
  0
LTYPE
  5
2C
100
AcDbSymbolTableRecord
100
AcDbLinetypeTableRecord
  2
KM_POINT
 70
    64
  3
开目点划线
 72
    65
 73
     4
 40
15.0
 49
10.0
 74
     0
 49
-2.0
 74
     0
 49
1.0
 74
     0
 49
-2.0
 74
     0
  0
LTYPE
  5
2D
100
AcDbSymbolTableRecord
100
AcDbLinetypeTableRecord
  2
KM_SHORTDASH_2DOT
 70
    64
  3
开目短画双点线
 72
    65
 73
     6
 40
13.0
 49
5.0
 74
     0
 49
-2.0
 74
     0
 49
1.0
 74
     0
 49
-2.0
 74
     0
 49
1.0
 74
     0
 49
-2.0
 74
     0
  0
LTYPE
  5
2E
100
AcDbSymbolTableRecord
100
AcDbLinetypeTableRecord
  2
KM_2SHORTDASH_2DOT
 70
    64
  3
开目双短画双点线
 72
    65
 73
     8
 40
20.0
 49
5.0
 74
     0
 49
-2.0
 74
     0
 49
5.0
 74
     0
 49
-2.0
 74
     0
 49
1.0
 74
     0
 49
-2.0
 74
     0
 49
1.0
 74
     0
 49
-2.0
 74
     0
  0
LTYPE
  5
2F
100
AcDbSymbolTableRecord
100
AcDbLinetypeTableRecord
  2
KM_POINT_POINT
 70
    64
  3
开目双点划线
 72
    65
 73
     6
 40
18.0
 49
10.0
 74
     0
 49
-2.0
 74
     0
 49
1.0
 74
     0
 49
-2.0
 74
     0
 49
1.0
 74
     0
 49
-2.0
 74
     0
  0
LTYPE
  5
30
100
AcDbSymbolTableRecord
100
AcDbLinetypeTableRecord
  2
KM_SHORTDASH_3DOT
 70
    64
  3
开目短画三点线
 72
    65
 73
     8
 40
16.0
 49
5.0
 74
     0
 49
-2.0
 74
     0
 49
1.0
 74
     0
 49
-2.0
 74
     0
 49
1.0
 74
     0
 49
-2.0
 74
     0
 49
1.0
 74
     0
 49
-2.0
 74
     0
  0
LTYPE
  5
31
100
AcDbSymbolTableRecord
100
AcDbLinetypeTableRecord
  2
KM_2SHORTDASH_3DOT
 70
    64
  3
开目双点画三点线
 72
    65
 73
    10
 40
23.0
 49
5.0
 74
     0
 49
-2.0
 74
     0
 49
5.0
 74
     0
 49
-2.0
 74
     0
 49
1.0
 74
     0
 49
-2.0
 74
     0
 49
1.0
 74
     0
 49
-2.0
 74
     0
 49
1.0
 74
     0
 49
-2.0
 74
     0
  0
LTYPE
  5
32
100
AcDbSymbolTableRecord
100
AcDbLinetypeTableRecord
  2
KM_3DOT
 70
    64
  3
开目三点线
 72
    65
 73
     8
 40
21.0
 49
10.0
 74
     0
 49
-2.0
 74
     0
 49
1.0
 74
     0
 49
-2.0
 74
     0
 49
1.0
 74
     0
 49
-2.0
 74
     0
 49
1.0
 74
     0
 49
-2.0
 74
     0
  0
ENDTAB
  0
TABLE
  2
LAYER
  5
2
100
AcDbSymbolTable
 70
    38
  0
LAYER
  5
14
100
AcDbSymbolTableRecord
100
AcDbLayerTableRecord
  2
0
 70
     0
 62
     7
  6
Continuous
290
     1
370
    -3
390
1D
  0
LAYER
  5
33
100
AcDbSymbolTableRecord
100
AcDbLayerTableRecord
  2
图层
 70
     0
 62
     7
  6
KM_SOLID
290
     1
370
    50
390
1D
  0
LAYER
  5
34
100
AcDbSymbolTableRecord
100
AcDbLayerTableRecord
  2
0
 70
     0
 62
   255
  6
KM_SOLID
290
     1
370
    13
390
1D
  0
LAYER
  5
35
100
AcDbSymbolTableRecord
100
AcDbLayerTableRecord
  2
图层0352
 70
     0
 62
   255
  6
KM_SOLID
290
     1
370
    50
390
1D
  0
LAYER
  5
36
100
AcDbSymbolTableRecord
100
AcDbLayerTableRecord
  2
DEFAULT0951
 70
     0
 62
   255
  6
KM_DASH
290
     1
370
    13
390
1D
  0
LAYER
  5
37
100
AcDbSymbolTableRecord
100
AcDbLayerTableRecord
  2
DEFAULT0952
 70
     0
 62
     8
  6
KM_DASH
290
     1
370
    13
390
1D
  0
LAYER
  5
38
100
AcDbSymbolTableRecord
100
AcDbLayerTableRecord
  2
DEFAULT0953
 70
     0
 62
   255
  6
KM_DASH
290
     1
370
    13
390
1D
  0
LAYER
  5
39
100
AcDbSymbolTableRecord
100
AcDbLayerTableRecord
  2
01095ALL095DTM095PLN
 70
     0
 62
   255
  6
KM_SOLID
290
     1
370
    13
390
1D
  0
LAYER
  5
3A
100
AcDbSymbolTableRecord
100
AcDbLayerTableRecord
  2
01095095ASM095ALL095DTM095PLN
 70
     0
 62
   255
  6
KM_SOLID
290
     1
370
    13
390
1D
  0
LAYER
  5
3B
100
AcDbSymbolTableRecord
100
AcDbLayerTableRecord
  2
01095095ASM095DEF095DTM095PLN
 70
     0
 62
   255
  6
KM_SOLID
290
     1
370
    13
390
1D
  0
LAYER
  5
3C
100
AcDbSymbolTableRecord
100
AcDbLayerTableRecord
  2
01095095095PRT095ALL095DTM095PLN
 70
     0
 62
   255
  6
KM_SOLID
290
     1
370
    13
390
1D
  0
LAYER
  5
3D
100
AcDbSymbolTableRecord
100
AcDbLayerTableRecord
  2
01095095095PRT095DEF095DTM095PLN
 70
     0
 62
   255
  6
KM_SOLID
290
     1
370
    13
390
1D
  0
LAYER
  5
3E
100
AcDbSymbolTableRecord
100
AcDbLayerTableRecord
  2
02095ALL095AXES
 70
     0
 62
   255
  6
KM_SOLID
290
     1
370
    13
390
1D
  0
LAYER
  5
3F
100
AcDbSymbolTableRecord
100
AcDbLayerTableRecord
  2
02095095ASM095ALL095AXES
 70
     0
 62
   255
  6
KM_SOLID
290
     1
370
    13
390
1D
  0
LAYER
  5
40
100
AcDbSymbolTableRecord
100
AcDbLayerTableRecord
  2
02095095095PRT095ALL095AXES
 70
     0
 62
   255
  6
KM_SOLID
290
     1
370
    13
390
1D
  0
LAYER
  5
41
100
AcDbSymbolTableRecord
100
AcDbLayerTableRecord
  2
03095ALL095CURVES
 70
     0
 62
   255
  6
KM_SOLID
290
     1
370
    13
390
1D
  0
LAYER
  5
42
100
AcDbSymbolTableRecord
100
AcDbLayerTableRecord
  2
03095095ASM095ALL095CURVES
 70
     0
 62
   255
  6
KM_SOLID
290
     1
370
    13
390
1D
  0
LAYER
  5
43
100
AcDbSymbolTableRecord
100
AcDbLayerTableRecord
  2
03095095095PRT095ALL095CURVES
 70
     0
 62
   255
  6
KM_SOLID
290
     1
370
    13
390
1D
  0
LAYER
  5
44
100
AcDbSymbolTableRecord
100
AcDbLayerTableRecord
  2
04095ALL095DTM095PNT
 70
     0
 62
   255
  6
KM_SOLID
290
     1
370
    13
390
1D
  0
LAYER
  5
45
100
AcDbSymbolTableRecord
100
AcDbLayerTableRecord
  2
04095095ASM095ALL095DTM095PNT
 70
     0
 62
   255
  6
KM_SOLID
290
     1
370
    13
390
1D
  0
LAYER
  5
46
100
AcDbSymbolTableRecord
100
AcDbLayerTableRecord
  2
04095095095PRT095ALL095DTM095PNT
 70
     0
 62
   255
  6
KM_SOLID
290
     1
370
    13
390
1D
  0
LAYER
  5
47
100
AcDbSymbolTableRecord
100
AcDbLayerTableRecord
  2
05095ALL095DTM095CSYS
 70
     0
 62
   255
  6
KM_SOLID
290
     1
370
    13
390
1D
  0
LAYER
  5
48
100
AcDbSymbolTableRecord
100
AcDbLayerTableRecord
  2
05095095ASM095ALL095DTM095CSYS
 70
     0
 62
   255
  6
KM_SOLID
290
     1
370
    13
390
1D
  0
LAYER
  5
49
100
AcDbSymbolTableRecord
100
AcDbLayerTableRecord
  2
05095095ASM095DEF095DTM095CSYS
 70
     0
 62
   255
  6
KM_SOLID
290
     1
370
    13
390
1D
  0
LAYER
  5
4A
100
AcDbSymbolTableRecord
100
AcDbLayerTableRecord
  2
05095095095PRT095ALL095DTM095CSYS
 70
     0
 62
   255
  6
KM_SOLID
290
     1
370
    13
390
1D
  0
LAYER
  5
4B
100
AcDbSymbolTableRecord
100
AcDbLayerTableRecord
  2
05095095095PRT095DEF095DTM095CSYS
 70
     0
 62
   255
  6
KM_SOLID
290
     1
370
    13
390
1D
  0
LAYER
  5
4C
100
AcDbSymbolTableRecord
100
AcDbLayerTableRecord
  2
06095ALL095SURFS
 70
     0
 62
   255
  6
KM_SOLID
290
     1
370
    13
390
1D
  0
LAYER
  5
4D
100
AcDbSymbolTableRecord
100
AcDbLayerTableRecord
  2
06095095ASM095ALL095SURFS
 70
     0
 62
   255
  6
KM_SOLID
290
     1
370
    13
390
1D
  0
LAYER
  5
4E
100
AcDbSymbolTableRecord
100
AcDbLayerTableRecord
  2
06095095095PRT095ALL095SURFS
 70
     0
 62
   255
  6
KM_SOLID
290
     1
370
    13
390
1D
  0
LAYER
  5
4F
100
AcDbSymbolTableRecord
100
AcDbLayerTableRecord
  2
07095095ASM095ALL095SKELETONS
 70
     0
 62
   255
  6
KM_SOLID
290
     1
370
    13
390
1D
  0
LAYER
  5
50
100
AcDbSymbolTableRecord
100
AcDbLayerTableRecord
  2
0095COMPONENTS
 70
     0
 62
   255
  6
KM_SOLID
290
     1
370
    13
390
1D
  0
LAYER
  5
51
100
AcDbSymbolTableRecord
100
AcDbLayerTableRecord
  2
1095ALL095PLANES
 70
     0
 62
   255
  6
KM_SOLID
290
     1
370
    13
390
1D
  0
LAYER
  5
52
100
AcDbSymbolTableRecord
100
AcDbLayerTableRecord
  2
2095ALL095NOTES
 70
     0
 62
   255
  6
KM_SOLID
290
     1
370
    13
390
1D
  0
LAYER
  5
53
100
AcDbSymbolTableRecord
100
AcDbLayerTableRecord
  2
3095ALL095AXES
 70
     0
 62
   255
  6
KM_SOLID
290
     1
370
    13
390
1D
  0
LAYER
  5
54
100
AcDbSymbolTableRecord
100
AcDbLayerTableRecord
  2
3095ALL095SYMBOLS
 70
     0
 62
   255
  6
KM_SOLID
290
     1
370
    13
390
1D
  0
LAYER
  5
55
100
AcDbSymbolTableRecord
100
AcDbLayerTableRecord
  2
4095ALL095POINTS
 70
     0
 62
   255
  6
KM_SOLID
290
     1
370
    13
390
1D
  0
LAYER
  5
56
100
AcDbSymbolTableRecord
100
AcDbLayerTableRecord
  2
5095ALL095CURVES
 70
     0
 62
   255
  6
KM_SOLID
290
     1
370
    13
390
1D
  0
LAYER
  5
57
100
AcDbSymbolTableRecord
100
AcDbLayerTableRecord
  2
DATUM
 70
     0
 62
   255
  6
KM_SOLID
290
     1
370
    13
390
1D
  0
ENDTAB
  0
TABLE
  2
STYLE
  5
3
100
AcDbSymbolTable
 70
    23
  0
STYLE
  5
17
100
AcDbSymbolTableRecord
100
AcDbTextStyleTableRecord
  2
Standard
 70
     0
 40
0.0
 41
1.0
 50
0.0
 71
     0
 42
0.0
  3
txt
  4

  0
STYLE
  5
58
100
AcDbSymbolTableRecord
100
AcDbTextStyleTableRecord
  2
标准字
 70
     0
 40
3.5
 41
1.0
 50
0.0
 71
     0
 42
0.0
  3
romans.shx
  4
bzdft.shx
  0
STYLE
  5
59
100
AcDbSymbolTableRecord
100
AcDbTextStyleTableRecord
  2
国标宋体
 70
     0
 40
3.5
 41
1.0
 50
0.0
 71
     0
 42
0.0
  3
仿宋_GB2312
  4

  0
STYLE
  5
5A
100
AcDbSymbolTableRecord
100
AcDbTextStyleTableRecord
  2
序号标注
 70
     0
 40
5.0
 41
1.0
 50
0.0
 71
     0
 42
0.0
  3
romans.shx
  4
bzdft.shx
  0
STYLE
  5
5B
100
AcDbSymbolTableRecord
100
AcDbTextStyleTableRecord
  2
Standard035CONV1
 70
     0
 40
5.0
 41
1.0
 50
0.0
 71
     0
 42
0.0
  3
txt.shx
  4
bzdft.shx
  0
STYLE
  5
5C
100
AcDbSymbolTableRecord
100
AcDbTextStyleTableRecord
  2
标准字035CONV2
 70
     0
 40
3.5
 41
1.0
 50
0.0
 71
     0
 42
0.0
  3
romans.shx
  4
bzdft.shx
  0
STYLE
  5
5D
100
AcDbSymbolTableRecord
100
AcDbTextStyleTableRecord
  2
国标宋体035CONV3
 70
     0
 40
3.5
 41
1.0
 50
0.0
 71
     0
 42
0.0
  3
romans.shx
  4
bzdft.shx
  0
STYLE
  5
5E
100
AcDbSymbolTableRecord
100
AcDbTextStyleTableRecord
  2
序号标注035CONV4
 70
     0
 40
5.0
 41
1.0
 50
0.0
 71
     0
 42
0.0
  3
romans.shx
  4
bzdft.shx
  0
STYLE
  5
5F
100
AcDbSymbolTableRecord
100
AcDbTextStyleTableRecord
  2
STANDARD035CONV1035CONV5
 70
     0
 40
5.0
 41
0.85
 50
0.0
 71
     0
 42
0.0
  3
txt.shx
  4
bzdft.shx
  0
STYLE
  5
60
100
AcDbSymbolTableRecord
100
AcDbTextStyleTableRecord
  2
TEXTSTYLE0951035CONV2035CONV6
 70
     0
 40
5.0
 41
0.8
 50
0.0
 71
     0
 42
0.0
  3
gdt.shx
  4
bzdft.shx
  0
STYLE
  5
61
100
AcDbSymbolTableRecord
100
AcDbTextStyleTableRecord
  2
1035CONV7
 70
     0
 40
5.0
 41
1.0
 50
0.0
 71
     0
 42
0.0
  3
romans.shx
  4
bzdft.shx
  0
STYLE
  5
62
100
AcDbSymbolTableRecord
100
AcDbTextStyleTableRecord
  2
2035CONV8
 70
     0
 40
5.0
 41
1.0
 50
0.0
 71
     0
 42
0.0
  3
romans.shx
  4
bzdft.shx
  0
STYLE
  5
63
100
AcDbSymbolTableRecord
100
AcDbTextStyleTableRecord
  2
3035CONV9
 70
     0
 40
5.0
 41
1.0
 50
0.0
 71
     0
 42
0.0
  3
romans.shx
  4
bzdft.shx
  0
STYLE
  5
64
100
AcDbSymbolTableRecord
100
AcDbTextStyleTableRecord
  2
4035CONV10
 70
     0
 40
5.0
 41
1.0
 50
0.0
 71
     0
 42
0.0
  3
romans.shx
  4
bzdft.shx
  0
STYLE
  5
7E
100
AcDbSymbolTableRecord
100
AcDbTextStyleTableRecord
  2
1
 70
     0
 40
0.0
 41
1.0
 50
0.0
 71
     0
 42
5.0
  3
romans.shx
  4
bzdft.shx
  0
STYLE
  5
87
100
AcDbSymbolTableRecord
100
AcDbTextStyleTableRecord
  2
2
 70
     0
 40
0.0
 41
1.0
 50
0.0
 71
     0
 42
5.0
  3
romans.shx
  4
bzdft.shx
  0
STYLE
  5
90
100
AcDbSymbolTableRecord
100
AcDbTextStyleTableRecord
  2
3
 70
     0
 40
0.0
 41
1.0
 50
0.0
 71
     0
 42
5.0
  3
romans.shx
  4
bzdft.shx
  0
STYLE
  5
99
100
AcDbSymbolTableRecord
100
AcDbTextStyleTableRecord
  2
4
 70
     0
 40
0.0
 41
1.0
 50
0.0
 71
     0
 42
5.0
  3
romans.shx
  4
bzdft.shx
  0
STYLE
  5
4C8
100
AcDbSymbolTableRecord
100
AcDbTextStyleTableRecord
  2
5
 70
     0
 40
0.0
 41
1.0
 50
0.0
 71
     0
 42
5.0
  3
romans.shx
  4
bzdft.shx
  0
STYLE
  5
4D3
100
AcDbSymbolTableRecord
100
AcDbTextStyleTableRecord
  2
6
 70
     0
 40
0.0
 41
1.0
 50
0.0
 71
     0
 42
5.0
  3
romans.shx
  4
bzdft.shx
  0
STYLE
  5
4DE
100
AcDbSymbolTableRecord
100
AcDbTextStyleTableRecord
  2
7
 70
     0
 40
0.0
 41
1.0
 50
0.0
 71
     0
 42
5.0
  3
romans.shx
  4
bzdft.shx
  0
STYLE
  5
4E9
100
AcDbSymbolTableRecord
100
AcDbTextStyleTableRecord
  2
8
 70
     0
 40
0.0
 41
1.0
 50
0.0
 71
     0
 42
5.0
  3
romans.shx
  4
bzdft.shx
  0
STYLE
  5
4F4
100
AcDbSymbolTableRecord
100
AcDbTextStyleTableRecord
  2
9
 70
     0
 40
0.0
 41
2.0
 50
0.0
 71
     0
 42
5.0
  3
romans.shx
  4
bzdft.shx
  0
ENDTAB
  0
TABLE
  2
VIEW
  5
5
100
AcDbSymbolTable
 70
     0
  0
ENDTAB
  0
TABLE
  2
UCS
  5
6
100
AcDbSymbolTable
 70
     0
  0
ENDTAB
  0
TABLE
  2
APPID
  5
8
100
AcDbSymbolTable
 70
     1
  0
APPID
  5
16
100
AcDbSymbolTableRecord
100
AcDbRegAppTableRecord
  2
ACAD
 70
     0
  0
ENDTAB
  0
TABLE
  2
DIMSTYLE
  5
9
100
AcDbSymbolTable
 70
    15
100
AcDbDimStyleTable
 71
     0
  0
DIMSTYLE
105
18
100
AcDbSymbolTableRecord
100
AcDbDimStyleTableRecord
  2
Standard
 70
     0
  3

  4

 40
1.0
 41
0.18
 42
0.0625
 43
0.38
 44
0.18
 45
0.0
 46
0.0
 47
0.0
 48
0.0
 71
     0
 72
     0
 73
     1
 74
     1
 75
     0
 76
     0
 77
     0
 78
     0
 79
     0
140
0.18
141
0.09
142
0.0
143
25.4
144
1.0
145
0.0
146
1.0
147
0.09
148
0.0
170
     0
171
     2
172
     0
173
     0
174
     0
175
     0
176
     0
177
     0
178
     0
179
     0
271
     4
272
     4
273
     2
274
     2
275
     0
276
     0
277
     2
278
    46
279
     0
280
     0
281
     0
282
     0
283
     1
284
     0
285
     0
286
     0
288
     0
289
     3
340
17
341
0
342
0
343
0
344
0
371
    -2
372
    -2
  0
DIMSTYLE
105
65
100
AcDbSymbolTableRecord
100
AcDbDimStyleTableRecord
  2
ISO25
 70
     0
  3

  4

 40
1.0
 41
2.5
 42
0.0625
 43
8.0
 44
1.25
 45
0.0
 46
0.0
 47
0.0
 48
0.0
 71
     0
 72
     0
 73
     0
 74
     0
 75
     0
 76
     0
 77
     1
 78
     8
 79
     0
140
2.5
141
2.5
142
0.0
143
0.03937
144
1.0
145
0.0
146
0.7
147
0.625
148
0.0
170
     0
171
     4
172
     1
173
     0
174
     0
175
     0
176
     5
177
     5
178
     5
179
     0
271
     4
272
     4
273
     8
274
     4
275
     0
276
     0
277
     6
278
    46
279
     0
280
     0
281
     0
282
     0
283
     1
284
     8
285
     0
286
     0
288
     0
289
     2
340
58
341
0
342
0
343
0
344
0
371
    -2
372
    -2
  0
DIMSTYLE
105
66
100
AcDbSymbolTableRecord
100
AcDbDimStyleTableRecord
  2
DS045GB
 70
     0
  3

  4

 40
1.0
 41
4.0
 42
0.0
 43
8.0
 44
3.0
 45
0.0
 46
0.0
 47
0.0
 48
0.0
 71
     0
 72
     0
 73
     0
 74
     0
 75
     0
 76
     0
 77
     1
 78
     8
 79
     2
140
3.5
141
2.5
142
0.0
143
0.03937
144
1.0
145
0.0
146
0.7
147
0.625
148
0.0
170
     0
171
     4
172
     1
173
     0
174
     0
175
     0
176
     5
177
     5
178
     5
179
     2
271
     2
272
     3
273
     2
274
     3
275
     1
276
     0
277
     2
278
    46
279
     0
280
     0
281
     0
282
     0
283
     0
284
     8
285
     0
286
     0
288
     0
289
     2
340
58
341
0
342
0
343
0
344
0
371
    25
372
    25
  0
DIMSTYLE
105
67
100
AcDbSymbolTableRecord
100
AcDbDimStyleTableRecord
  2
DS045COSERIAL
 70
     0
  3

  4

 40
1.0
 41
4.0
 42
0.0
 43
8.0
 44
3.0
 45
0.0
 46
0.0
 47
0.0
 48
0.0
 71
     0
 72
     0
 73
     0
 74
     0
 75
     0
 76
     0
 77
     0
 78
     8
 79
     2
140
3.5
141
2.5
142
0.0
143
0.03937
144
1.0
145
0.0
146
0.7
147
0.625
148
0.0
170
     0
171
     4
172
     1
173
     0
174
     0
175
     0
176
     5
177
     5
178
     5
179
     2
271
     2
272
     3
273
     2
274
     3
275
     1
276
     0
277
     2
278
    46
279
     0
280
     4
281
     0
282
     0
283
     0
284
     8
285
     0
286
     0
288
     0
289
     2
340
58
341
0
342
0
343
0
344
0
371
    25
372
    25
  0
DIMSTYLE
105
68
100
AcDbSymbolTableRecord
100
AcDbDimStyleTableRecord
  2
DS045GESERIAL
 70
     0
  3

  4

 40
1.0
 41
4.0
 42
0.0
 43
8.0
 44
3.0
 45
0.0
 46
0.0
 47
0.0
 48
0.0
 71
     0
 72
     0
 73
     0
 74
     0
 75
     0
 76
     0
 77
     1
 78
     8
 79
     2
140
3.5
141
2.5
142
0.0
143
0.03937
144
1.0
145
0.0
146
0.7
147
0.625
148
0.0
170
     0
171
     4
172
     1
173
     0
174
     0
175
     0
176
     5
177
     5
178
     5
179
     2
271
     2
272
     3
273
     2
274
     3
275
     1
276
     0
277
     2
278
    46
279
     0
280
     0
281
     0
282
     0
283
     0
284
     8
285
     0
286
     0
288
     0
289
     2
340
58
341
0
342
0
343
0
344
0
371
    25
372
    25
  0
DIMSTYLE
105
69
100
AcDbSymbolTableRecord
100
AcDbDimStyleTableRecord
  2
DS045ANGLE
 70
     0
  3

  4

 40
1.0
 41
4.0
 42
0.0
 43
8.0
 44
3.0
 45
0.0
 46
0.0
 47
0.0
 48
0.0
 71
     0
 72
     0
 73
     1
 74
     1
 75
     0
 76
     0
 77
     1
 78
     8
 79
     2
140
3.5
141
2.5
142
0.0
143
0.03937
144
1.0
145
0.0
146
0.7
147
0.625
148
0.0
170
     0
171
     4
172
     1
173
     0
174
     0
175
     0
176
     5
177
     5
178
     5
179
     2
271
     2
272
     3
273
     2
274
     3
275
     1
276
     0
277
     2
278
    46
279
     0
280
     0
281
     0
282
     0
283
     0
284
     8
285
     0
286
     0
288
     0
289
     2
340
58
341
0
342
0
343
0
344
0
371
    25
372
    25
  0
DIMSTYLE
105
6A
100
AcDbSymbolTableRecord
100
AcDbDimStyleTableRecord
  2
DS045KM
 70
     0
  3

  4

 40
1.0
 41
4.0
 42
0.0
 43
8.0
 44
3.0
 45
0.0
 46
0.0
 47
0.0
 48
0.0
 71
     0
 72
     0
 73
     0
 74
     0
 75
     0
 76
     0
 77
     1
 78
     8
 79
     2
140
3.5
141
2.5
142
0.0
143
0.03937
144
1.0
145
0.0
146
0.7
147
0.625
148
0.0
170
     0
171
     4
172
     1
173
     0
174
     0
175
     0
176
     5
177
     5
178
     5
179
     2
271
     2
272
     3
273
     2
274
     3
275
     0
276
     0
277
     2
278
    46
279
     0
280
     0
281
     0
282
     0
283
     0
284
     8
285
     0
286
     0
288
     1
289
     2
340
59
341
0
342
0
343
0
344
0
371
    25
372
    25
  0
DIMSTYLE
105
6B
100
AcDbSymbolTableRecord
100
AcDbDimStyleTableRecord
  2
Standard
 70
     0
  3

  4

 40
1.0
 41
0.18
 42
0.0625
 43
0.38
 44
0.18
 45
0.0
 46
0.0
 47
0.0
 48
0.0
 71
     0
 72
     0
 73
     1
 74
     1
 75
     0
 76
     0
 77
     0
 78
     0
 79
     0
140
0.18
141
0.09
142
0.0
143
25.4
144
1.0
145
0.0
146
1.0
147
0.09
148
0.0
170
     0
171
     2
172
     0
173
     0
174
     0
175
     0
176
     0
177
     0
178
     0
179
     0
271
     4
272
     4
273
     2
274
     2
275
     0
276
     0
277
     2
278
    46
279
     0
280
     0
281
     0
282
     0
283
     1
284
     0
285
     0
286
     0
288
     0
289
     3
340
5B
341
0
342
0
343
0
344
0
371
    -2
372
    -2
  0
DIMSTYLE
105
6C
100
AcDbSymbolTableRecord
100
AcDbDimStyleTableRecord
  2
ISO250
 70
     0
  3

  4

 40
1.0
 41
2.5
 42
0.0625
 43
8.0
 44
1.25
 45
0.0
 46
0.0
 47
0.0
 48
0.0
 71
     0
 72
     0
 73
     0
 74
     0
 75
     0
 76
     0
 77
     1
 78
     8
 79
     0
140
2.5
141
2.5
142
0.0
143
0.03937
144
1.0
145
0.0
146
0.7
147
0.625
148
0.0
170
     0
171
     4
172
     1
173
     0
174
     0
175
     0
176
     5
177
     5
178
     5
179
     0
271
     4
272
     4
273
     8
274
     4
275
     0
276
     0
277
     6
278
    46
279
     0
280
     0
281
     0
282
     0
283
     1
284
     8
285
     0
286
     0
288
     0
289
     3
340
5C
341
0
342
0
343
0
344
0
371
    -2
372
    -2
  0
DIMSTYLE
105
6D
100
AcDbSymbolTableRecord
100
AcDbDimStyleTableRecord
  2
DS045GB
 70
     0
  3

  4

 40
1.0
 41
4.0
 42
0.0
 43
8.0
 44
3.0
 45
0.0
 46
0.0
 47
0.0
 48
0.0
 71
     0
 72
     0
 73
     0
 74
     0
 75
     0
 76
     0
 77
     1
 78
     8
 79
     2
140
3.5
141
2.5
142
0.0
143
0.03937
144
1.0
145
0.0
146
0.7
147
0.625
148
0.0
170
     0
171
     4
172
     1
173
     0
174
     0
175
     0
176
     5
177
     5
178
     5
179
     2
271
     2
272
     3
273
     2
274
     3
275
     1
276
     0
277
     2
278
    46
279
     0
280
     0
281
     0
282
     0
283
     0
284
     8
285
     0
286
     0
288
     0
289
     3
340
5C
341
0
342
0
343
0
344
0
371
    25
372
    25
  0
DIMSTYLE
105
6E
100
AcDbSymbolTableRecord
100
AcDbDimStyleTableRecord
  2
DS045COSERIAL
 70
     0
  3

  4

 40
1.0
 41
4.0
 42
0.0
 43
8.0
 44
3.0
 45
0.0
 46
0.0
 47
0.0
 48
0.0
 71
     0
 72
     0
 73
     0
 74
     0
 75
     0
 76
     0
 77
     0
 78
     8
 79
     2
140
3.5
141
2.5
142
0.0
143
0.03937
144
1.0
145
0.0
146
0.7
147
0.625
148
0.0
170
     0
171
     4
172
     1
173
     0
174
     0
175
     0
176
     5
177
     5
178
     5
179
     2
271
     2
272
     3
273
     2
274
     3
275
     1
276
     0
277
     2
278
    46
279
     0
280
     4
281
     0
282
     0
283
     0
284
     8
285
     0
286
     0
288
     0
289
     3
340
5C
341
0
342
0
343
0
344
0
371
    25
372
    25
  0
DIMSTYLE
105
6F
100
AcDbSymbolTableRecord
100
AcDbDimStyleTableRecord
  2
DS045GESERIAL
 70
     0
  3

  4

 40
1.0
 41
4.0
 42
0.0
 43
8.0
 44
3.0
 45
0.0
 46
0.0
 47
0.0
 48
0.0
 71
     0
 72
     0
 73
     0
 74
     0
 75
     0
 76
     0
 77
     1
 78
     8
 79
     2
140
3.5
141
2.5
142
0.0
143
0.03937
144
1.0
145
0.0
146
0.7
147
0.625
148
0.0
170
     0
171
     4
172
     1
173
     0
174
     0
175
     0
176
     5
177
     5
178
     5
179
     2
271
     2
272
     3
273
     2
274
     3
275
     1
276
     0
277
     2
278
    46
279
     0
280
     0
281
     0
282
     0
283
     0
284
     8
285
     0
286
     0
288
     0
289
     3
340
5C
341
0
342
0
343
0
344
0
371
    25
372
    25
  0
DIMSTYLE
105
70
100
AcDbSymbolTableRecord
100
AcDbDimStyleTableRecord
  2
DS045ANGLE
 70
     0
  3

  4

 40
1.0
 41
4.0
 42
0.0
 43
8.0
 44
3.0
 45
0.0
 46
0.0
 47
0.0
 48
0.0
 71
     0
 72
     0
 73
     1
 74
     1
 75
     0
 76
     0
 77
     1
 78
     8
 79
     2
140
3.5
141
2.5
142
0.0
143
0.03937
144
1.0
145
0.0
146
0.7
147
0.625
148
0.0
170
     0
171
     4
172
     1
173
     0
174
     0
175
     0
176
     5
177
     5
178
     5
179
     2
271
     2
272
     3
273
     2
274
     3
275
     1
276
     0
277
     2
278
    46
279
     0
280
     0
281
     0
282
     0
283
     0
284
     8
285
     0
286
     0
288
     0
289
     3
340
5C
341
0
342
0
343
0
344
0
371
    25
372
    25
  0
DIMSTYLE
105
71
100
AcDbSymbolTableRecord
100
AcDbDimStyleTableRecord
  2
DS045KM
 70
     0
  3

  4

 40
1.0
 41
4.0
 42
0.0
 43
8.0
 44
3.0
 45
0.0
 46
0.0
 47
0.0
 48
0.0
 71
     0
 72
     0
 73
     0
 74
     0
 75
     0
 76
     0
 77
     1
 78
     8
 79
     2
140
3.5
141
2.5
142
0.0
143
0.03937
144
1.0
145
0.0
146
0.7
147
0.625
148
0.0
170
     0
171
     4
172
     1
173
     0
174
     0
175
     0
176
     5
177
     5
178
     5
179
     2
271
     2
272
     3
273
     2
274
     3
275
     0
276
     0
277
     2
278
    46
279
     0
280
     0
281
     0
282
     0
283
     0
284
     8
285
     0
286
     0
288
     1
289
     3
340
5D
341
0
342
0
343
0
344
0
371
    25
372
    25
  0
DIMSTYLE
105
72
100
AcDbSymbolTableRecord
100
AcDbDimStyleTableRecord
  2
STANDARD
 70
     0
  3

  4

 40
1.0
 41
3.5
 42
0.0625
 43
0.38
 44
0.18
 45
0.0
 46
0.0
 47
0.01
 48
0.01
 71
     1
 72
     0
 73
     0
 74
     0
 75
     0
 76
     0
 77
     1
 78
     8
 79
     0
140
3.5
141
0.09
142
0.0
143
25.4
144
1.0
145
0.0
146
1.0
147
0.09
148
0.0
170
     0
171
     2
172
     0
173
     0
174
     0
175
     0
176
     0
177
     0
178
     0
179
     0
271
     2
272
     2
273
     2
274
     2
275
     0
276
     0
277
     2
278
    46
279
     0
280
     0
281
     0
282
     0
283
     1
284
     8
285
     0
286
     0
288
     0
289
     3
340
5C
341
0
342
0
343
0
344
0
371
    -2
372
    -2
  0
ENDTAB
  0
TABLE
  2
BLOCK_RECORD
  5
1
100
AcDbSymbolTable
 70
    11
  0
BLOCK_RECORD
  5
A
100
AcDbSymbolTableRecord
100
AcDbBlockTableRecord
  2
*MODEL_SPACE
340
20
  0
BLOCK_RECORD
  5
B
100
AcDbSymbolTableRecord
100
AcDbBlockTableRecord
  2
*PAPER_SPACE
340
21
  0
BLOCK_RECORD
  5
73
100
AcDbSymbolTableRecord
100
AcDbBlockTableRecord
  2
KmSimpleDim1
340
0
  0
BLOCK_RECORD
  5
74
100
AcDbSymbolTableRecord
100
AcDbBlockTableRecord
  2
KmSimpleDim2
340
0
  0
BLOCK_RECORD
  5
75
100
AcDbSymbolTableRecord
100
AcDbBlockTableRecord
  2
KmSimpleDim3
340
0
  0
BLOCK_RECORD
  5
76
100
AcDbSymbolTableRecord
100
AcDbBlockTableRecord
  2
KmSimpleDim4
340
0
  0
BLOCK_RECORD
  5
77
100
AcDbSymbolTableRecord
100
AcDbBlockTableRecord
  2
KmLegend
340
0
102
{BLKREFS
331
4F8
102
}
  0
BLOCK_RECORD
  5
4C1
100
AcDbSymbolTableRecord
100
AcDbBlockTableRecord
  2
KmSimpleDim1
340
0
  0
BLOCK_RECORD
  5
4CC
100
AcDbSymbolTableRecord
100
AcDbBlockTableRecord
  2
KmSimpleDim2
340
0
  0
BLOCK_RECORD
  5
4D7
100
AcDbSymbolTableRecord
100
AcDbBlockTableRecord
  2
KmSimpleDim3
340
0
  0
BLOCK_RECORD
  5
4E2
100
AcDbSymbolTableRecord
100
AcDbBlockTableRecord
  2
KmSimpleDim4
340
0
  0
BLOCK_RECORD
  5
4ED
100
AcDbSymbolTableRecord
100
AcDbBlockTableRecord
  2
KmSimpleDim5
340
0
  0
BLOCK_RECORD
  5
50B
100
AcDbSymbolTableRecord
100
AcDbBlockTableRecord
  2
KmLegend
340
0
102
{BLKREFS
331
516
102
}
  0
ENDTAB
  0
ENDSEC
  0
SECTION
  2
BLOCKS
  0
BLOCK
  5
D
100
AcDbEntity
  8
0
390
0
100
AcDbBlockBegin
  2
*MODEL_SPACE
 70
     0
 10
0.0
 20
0.0
 30
0.0
  3
*MODEL_SPACE
  1

  0
ENDBLK
  5
E
100
AcDbEntity
  8
0
390
0
100
AcDbBlockEnd
  0
BLOCK
  5
F
100
AcDbEntity
 67
     1
  8
0
390
0
100
AcDbBlockBegin
  2
*PAPER_SPACE
 70
     0
 10
0.0
 20
0.0
 30
0.0
  3
*PAPER_SPACE
  1

  0
ENDBLK
  5
10
100
AcDbEntity
 67
     1
  8
0
390
0
100
AcDbBlockEnd
  0
BLOCK
  5
78
100
AcDbEntity
  8
0
390
0
100
AcDbBlockBegin
  2
KmSimpleDim1
 70
     0
 10
0.0
 20
0.0
 30
0.0
  3

  1

  0
LINE
  5
79
100
AcDbEntity
  8
0
370
    25
390
0
  6
KM_SOLID
 62
     1
100
AcDbLine
 10
93.214798
 20
125.0
 30
0.0
 11
170.214798
 21
125.0
 31
0.0
  0
LINE
  5
7A
100
AcDbEntity
  8
0
370
    25
390
0
  6
KM_SOLID
 62
     1
100
AcDbLine
 10
89.214798
 20
140.454371
 30
0.0
 11
89.214798
 21
122.0
 31
0.0
  0
LINE
  5
7B
100
AcDbEntity
  8
0
370
    25
390
0
  6
KM_SOLID
 62
     1
100
AcDbLine
 10
174.214798
 20
138.754371
 30
0.0
 11
174.214798
 21
122.0
 31
0.0
  0
SOLID
  5
7C
100
AcDbEntity
  8
0
390
0
 62
     1
100
AcDbTrace
 10
93.214798
 20
124.5
 30
0.0
 11
93.214798
 21
125.5
 31
0.0
 12
89.214798
 22
125.0
 32
0.0
 13
89.214798
 23
125.0
 33
0.0
  0
SOLID
  5
7D
100
AcDbEntity
  8
0
390
0
 62
     1
100
AcDbTrace
 10
170.214798
 20
125.5
 30
0.0
 11
170.214798
 21
124.5
 31
0.0
 12
174.214798
 22
125.0
 32
0.0
 13
174.214798
 23
125.0
 33
0.0
  0
MTEXT
  5
7F
100
AcDbEntity
  8
0
390
0
 62
     2
100
AcDbMText
 10
130.048131
 20
129.125
 30
0.0
 40
3.5
 41
0.0
 71
     1
 72
     1
  1
{\W0.50;85}
  7
1
 73
     1
 44
1.0
  0
ENDBLK
  5
80
100
AcDbEntity
  8
0
390
0
100
AcDbBlockEnd
  0
BLOCK
  5
81
100
AcDbEntity
  8
0
390
0
100
AcDbBlockBegin
  2
KmSimpleDim2
 70
     0
 10
0.0
 20
0.0
 30
0.0
  3

  1

  0
LINE
  5
82
100
AcDbEntity
  8
0
370
    25
390
0
  6
KM_SOLID
 62
     1
100
AcDbLine
 10
72.0
 20
142.754371
 30
0.0
 11
72.0
 21
205.041371
 31
0.0
  0
LINE
  5
83
100
AcDbEntity
  8
0
370
    25
390
0
  6
KM_SOLID
 62
     1
100
AcDbLine
 10
99.214798
 20
138.754371
 30
0.0
 11
69.0
 21
138.754371
 31
0.0
  0
LINE
  5
84
100
AcDbEntity
  8
0
370
    25
390
0
  6
KM_SOLID
 62
     1
100
AcDbLine
 10
121.514798
 20
209.041371
 30
0.0
 11
69.0
 21
209.041371
 31
0.0
  0
SOLID
  5
85
100
AcDbEntity
  8
0
390
0
 62
     1
100
AcDbTrace
 10
72.5
 20
142.754371
 30
0.0
 11
71.5
 21
142.754371
 31
0.0
 12
72.0
 22
138.754371
 32
0.0
 13
72.0
 23
138.754371
 33
0.0
  0
SOLID
  5
86
100
AcDbEntity
  8
0
390
0
 62
     1
100
AcDbTrace
 10
71.5
 20
205.041371
 30
0.0
 11
72.5
 21
205.041371
 31
0.0
 12
72.0
 22
209.041371
 32
0.0
 13
72.0
 23
209.041371
 33
0.0
  0
MTEXT
  5
88
100
AcDbEntity
  8
0
390
0
 62
     2
100
AcDbMText
 10
67.875
 20
170.981204
 30
0.0
 40
3.5
 41
0.0
 71
     1
 72
     1
  1
{\W0.50;71.6}
  7
2
 11
0.0
 21
1.0
 31
0.0
 73
     1
 44
1.0
  0
ENDBLK
  5
89
100
AcDbEntity
  8
0
390
0
100
AcDbBlockEnd
  0
BLOCK
  5
8A
100
AcDbEntity
  8
0
390
0
100
AcDbBlockBegin
  2
KmSimpleDim3
 70
     0
 10
0.0
 20
0.0
 30
0.0
  3

  1

  0
LINE
  5
8B
100
AcDbEntity
  8
0
370
    25
390
0
  6
KM_SOLID
 62
     1
100
AcDbLine
 10
111.214798
 20
223.0
 30
0.0
 11
148.214798
 21
223.0
 31
0.0
  0
LINE
  5
8C
100
AcDbEntity
  8
0
370
    25
390
0
  6
KM_SOLID
 62
     1
100
AcDbLine
 10
107.214798
 20
202.254371
 30
0.0
 11
107.214798
 21
226.0
 31
0.0
  0
LINE
  5
8D
100
AcDbEntity
  8
0
370
    25
390
0
  6
KM_SOLID
 62
     1
100
AcDbLine
 10
152.214798
 20
202.254371
 30
0.0
 11
152.214798
 21
226.0
 31
0.0
  0
SOLID
  5
8E
100
AcDbEntity
  8
0
390
0
 62
     1
100
AcDbTrace
 10
111.214798
 20
222.5
 30
0.0
 11
111.214798
 21
223.5
 31
0.0
 12
107.214798
 22
223.0
 32
0.0
 13
107.214798
 23
223.0
 33
0.0
  0
SOLID
  5
8F
100
AcDbEntity
  8
0
390
0
 62
     1
100
AcDbTrace
 10
148.214798
 20
223.5
 30
0.0
 11
148.214798
 21
222.5
 31
0.0
 12
152.214798
 22
223.0
 32
0.0
 13
152.214798
 23
223.0
 33
0.0
  0
MTEXT
  5
91
100
AcDbEntity
  8
0
390
0
 62
     2
100
AcDbMText
 10
128.048131
 20
227.125
 30
0.0
 40
3.5
 41
0.0
 71
     1
 72
     1
  1
{\W0.50;45}
  7
3
 73
     1
 44
1.0
  0
ENDBLK
  5
92
100
AcDbEntity
  8
0
390
0
100
AcDbBlockEnd
  0
BLOCK
  5
93
100
AcDbEntity
  8
0
390
0
100
AcDbBlockBegin
  2
KmSimpleDim4
 70
     0
 10
0.0
 20
0.0
 30
0.0
  3

  1

  0
LINE
  5
94
100
AcDbEntity
  8
0
370
    25
390
0
  6
KM_SOLID
 62
     1
100
AcDbLine
 10
246.486443
 20
235.0
 30
0.0
 11
256.286443
 21
235.0
 31
0.0
  0
LINE
  5
95
100
AcDbEntity
  8
0
370
    25
390
0
  6
KM_SOLID
 62
     1
100
AcDbLine
 10
242.486443
 20
223.340767
 30
0.0
 11
242.486443
 21
238.0
 31
0.0
  0
LINE
  5
96
100
AcDbEntity
  8
0
370
    25
390
0
  6
KM_SOLID
 62
     1
100
AcDbLine
 10
260.286443
 20
223.340767
 30
0.0
 11
260.286443
 21
238.0
 31
0.0
  0
SOLID
  5
97
100
AcDbEntity
  8
0
390
0
 62
     1
100
AcDbTrace
 10
246.486443
 20
234.5
 30
0.0
 11
246.486443
 21
235.5
 31
0.0
 12
242.486443
 22
235.0
 32
0.0
 13
242.486443
 23
235.0
 33
0.0
  0
SOLID
  5
98
100
AcDbEntity
  8
0
390
0
 62
     1
100
AcDbTrace
 10
256.286443
 20
235.5
 30
0.0
 11
256.286443
 21
234.5
 31
0.0
 12
260.286443
 22
235.0
 32
0.0
 13
260.286443
 23
235.0
 33
0.0
  0
MTEXT
  5
9A
100
AcDbEntity
  8
0
390
0
 62
     2
100
AcDbMText
 10
249.719777
 20
239.125
 30
0.0
 40
3.5
 41
0.0
 71
     1
 72
     1
  1
{\W0.50;18}
  7
4
 73
     1
 44
1.0
  0
ENDBLK
  5
9B
100
AcDbEntity
  8
0
390
0
100
AcDbBlockEnd
  0
BLOCK
  5
9C
100
AcDbEntity
  8
0
390
0
100
AcDbBlockBegin
  2
KmLegend
 70
     0
 10
0.0
 20
0.0
 30
0.0
  3

  1

  0
LINE
  5
9D
100
AcDbEntity
  8
0
370
   100
390
0
  6
KM_SOLID
 62
   255
100
AcDbLine
 10
20.0
 20
0.0
 30
0.0
 11
20.0
 21
297.0
 31
0.0
  0
LINE
  5
9E
100
AcDbEntity
  8
0
370
   100
390
0
  6
KM_SOLID
 62
   255
100
AcDbLine
 10
20.0
 20
297.0
 30
0.0
 11
420.0
 21
297.0
 31
0.0
  0
LINE
  5
9F
100
AcDbEntity
  8
0
370
   100
390
0
  6
KM_SOLID
 62
   255
100
AcDbLine
 10
420.0
 20
297.0
 30
0.0
 11
420.0
 21
0.0
 31
0.0
  0
LINE
  5
A0
100
AcDbEntity
  8
0
370
   100
390
0
  6
KM_SOLID
 62
   255
100
AcDbLine
 10
420.0
 20
0.0
 30
0.0
 11
20.0
 21
0.0
 31
0.0
  0
LINE
  5
A1
100
AcDbEntity
  8
0
370
    35
390
0
  6
KM_SOLID
 62
   255
100
AcDbLine
 10
-5.0
 20
-5.0
 30
0.0
 11
-5.0
 21
302.0
 31
0.0
  0
LINE
  5
A2
100
AcDbEntity
  8
0
370
    35
390
0
  6
KM_SOLID
 62
   255
100
AcDbLine
 10
-5.0
 20
302.0
 30
0.0
 11
425.0
 21
302.0
 31
0.0
  0
LINE
  5
A3
100
AcDbEntity
  8
0
370
    35
390
0
  6
KM_SOLID
 62
   255
100
AcDbLine
 10
425.0
 20
302.0
 30
0.0
 11
425.0
 21
-5.0
 31
0.0
  0
LINE
  5
A4
100
AcDbEntity
  8
0
370
    35
390
0
  6
KM_SOLID
 62
   255
100
AcDbLine
 10
425.0
 20
-5.0
 30
0.0
 11
-5.0
 21
-5.0
 31
0.0
  0
ENDBLK
  5
A5
100
AcDbEntity
  8
0
390
0
100
AcDbBlockEnd
  0
BLOCK
  5
4C2
100
AcDbEntity
  8
0
390
0
100
AcDbBlockBegin
  2
KmSimpleDim1
 70
     0
 10
0.0
 20
0.0
 30
0.0
  3

  1

  0
LINE
  5
4C3
100
AcDbEntity
  8
图层0352
370
    25
390
0
  6
KM_SOLID
 62
     1
100
AcDbLine
 10
93.214798
 20
125.0
 30
0.0
 11
170.214798
 21
125.0
 31
0.0
  0
LINE
  5
4C4
100
AcDbEntity
  8
图层0352
370
    25
390
0
  6
KM_SOLID
 62
     1
100
AcDbLine
 10
89.214798
 20
140.454371
 30
0.0
 11
89.214798
 21
122.0
 31
0.0
  0
LINE
  5
4C5
100
AcDbEntity
  8
图层0352
370
    25
390
0
  6
KM_SOLID
 62
     1
100
AcDbLine
 10
174.214798
 20
138.754371
 30
0.0
 11
174.214798
 21
122.0
 31
0.0
  0
SOLID
  5
4C6
100
AcDbEntity
  8
图层0352
370
    35
390
0
  6
KM_SOLID
 62
     1
100
AcDbTrace
 10
93.214798
 20
124.5
 30
0.0
 11
93.214798
 21
125.5
 31
0.0
 12
89.214798
 22
125.0
 32
0.0
 13
89.214798
 23
125.0
 33
0.0
  0
SOLID
  5
4C7
100
AcDbEntity
  8
图层0352
370
    35
390
0
  6
KM_SOLID
 62
     1
100
AcDbTrace
 10
170.214798
 20
125.5
 30
0.0
 11
170.214798
 21
124.5
 31
0.0
 12
174.214798
 22
125.0
 32
0.0
 13
174.214798
 23
125.0
 33
0.0
  0
MTEXT
  5
4C9
100
AcDbEntity
  8
图层0352
370
    35
390
0
  6
KM_SOLID
 62
     2
100
AcDbMText
 10
130.048131
 20
129.125
 30
0.0
 40
3.5
 41
0.0
 71
     1
 72
     1
  1
{\W0.50;85}
  7
5
 73
     1
 44
1.0
  0
ENDBLK
  5
4CA
100
AcDbEntity
  8
0
390
0
100
AcDbBlockEnd
  0
BLOCK
  5
4CD
100
AcDbEntity
  8
0
390
0
100
AcDbBlockBegin
  2
KmSimpleDim2
 70
     0
 10
0.0
 20
0.0
 30
0.0
  3

  1

  0
LINE
  5
4CE
100
AcDbEntity
  8
图层0352
370
    25
390
0
  6
KM_SOLID
 62
     1
100
AcDbLine
 10
72.0
 20
142.754371
 30
0.0
 11
72.0
 21
205.041371
 31
0.0
  0
LINE
  5
4CF
100
AcDbEntity
  8
图层0352
370
    25
390
0
  6
KM_SOLID
 62
     1
100
AcDbLine
 10
99.214798
 20
138.754371
 30
0.0
 11
69.0
 21
138.754371
 31
0.0
  0
LINE
  5
4D0
100
AcDbEntity
  8
图层0352
370
    25
390
0
  6
KM_SOLID
 62
     1
100
AcDbLine
 10
121.514798
 20
209.041371
 30
0.0
 11
69.0
 21
209.041371
 31
0.0
  0
SOLID
  5
4D1
100
AcDbEntity
  8
图层0352
370
    35
390
0
  6
KM_SOLID
 62
     1
100
AcDbTrace
 10
72.5
 20
142.754371
 30
0.0
 11
71.5
 21
142.754371
 31
0.0
 12
72.0
 22
138.754371
 32
0.0
 13
72.0
 23
138.754371
 33
0.0
  0
SOLID
  5
4D2
100
AcDbEntity
  8
图层0352
370
    35
390
0
  6
KM_SOLID
 62
     1
100
AcDbTrace
 10
71.5
 20
205.041371
 30
0.0
 11
72.5
 21
205.041371
 31
0.0
 12
72.0
 22
209.041371
 32
0.0
 13
72.0
 23
209.041371
 33
0.0
  0
MTEXT
  5
4D4
100
AcDbEntity
  8
图层0352
370
    35
390
0
  6
KM_SOLID
 62
     2
100
AcDbMText
 10
67.875
 20
170.981204
 30
0.0
 40
3.5
 41
0.0
 71
     1
 72
     1
  1
{\W0.50;71.6}
  7
6
 11
0.0
 21
1.0
 31
0.0
 73
     1
 44
1.0
  0
ENDBLK
  5
4D5
100
AcDbEntity
  8
0
390
0
100
AcDbBlockEnd
  0
BLOCK
  5
4D8
100
AcDbEntity
  8
0
390
0
100
AcDbBlockBegin
  2
KmSimpleDim3
 70
     0
 10
0.0
 20
0.0
 30
0.0
  3

  1

  0
LINE
  5
4D9
100
AcDbEntity
  8
图层0352
370
    25
390
0
  6
KM_SOLID
 62
     1
100
AcDbLine
 10
111.214798
 20
223.0
 30
0.0
 11
148.214798
 21
223.0
 31
0.0
  0
LINE
  5
4DA
100
AcDbEntity
  8
图层0352
370
    25
390
0
  6
KM_SOLID
 62
     1
100
AcDbLine
 10
107.214798
 20
202.254371
 30
0.0
 11
107.214798
 21
226.0
 31
0.0
  0
LINE
  5
4DB
100
AcDbEntity
  8
图层0352
370
    25
390
0
  6
KM_SOLID
 62
     1
100
AcDbLine
 10
152.214798
 20
202.254371
 30
0.0
 11
152.214798
 21
226.0
 31
0.0
  0
SOLID
  5
4DC
100
AcDbEntity
  8
图层0352
370
    35
390
0
  6
KM_SOLID
 62
     1
100
AcDbTrace
 10
111.214798
 20
222.5
 30
0.0
 11
111.214798
 21
223.5
 31
0.0
 12
107.214798
 22
223.0
 32
0.0
 13
107.214798
 23
223.0
 33
0.0
  0
SOLID
  5
4DD
100
AcDbEntity
  8
图层0352
370
    35
390
0
  6
KM_SOLID
 62
     1
100
AcDbTrace
 10
148.214798
 20
223.5
 30
0.0
 11
148.214798
 21
222.5
 31
0.0
 12
152.214798
 22
223.0
 32
0.0
 13
152.214798
 23
223.0
 33
0.0
  0
MTEXT
  5
4DF
100
AcDbEntity
  8
图层0352
370
    35
390
0
  6
KM_SOLID
 62
     2
100
AcDbMText
 10
128.048131
 20
227.125
 30
0.0
 40
3.5
 41
0.0
 71
     1
 72
     1
  1
{\W0.50;45}
  7
7
 73
     1
 44
1.0
  0
ENDBLK
  5
4E0
100
AcDbEntity
  8
0
390
0
100
AcDbBlockEnd
  0
BLOCK
  5
4E3
100
AcDbEntity
  8
0
390
0
100
AcDbBlockBegin
  2
KmSimpleDim4
 70
     0
 10
0.0
 20
0.0
 30
0.0
  3

  1

  0
LINE
  5
4E4
100
AcDbEntity
  8
图层0352
370
    25
390
0
  6
KM_SOLID
 62
     1
100
AcDbLine
 10
246.486443
 20
235.0
 30
0.0
 11
256.286443
 21
235.0
 31
0.0
  0
LINE
  5
4E5
100
AcDbEntity
  8
图层0352
370
    25
390
0
  6
KM_SOLID
 62
     1
100
AcDbLine
 10
242.486443
 20
223.340767
 30
0.0
 11
242.486443
 21
238.0
 31
0.0
  0
LINE
  5
4E6
100
AcDbEntity
  8
图层0352
370
    25
390
0
  6
KM_SOLID
 62
     1
100
AcDbLine
 10
260.286443
 20
223.340767
 30
0.0
 11
260.286443
 21
238.0
 31
0.0
  0
SOLID
  5
4E7
100
AcDbEntity
  8
图层0352
370
    35
390
0
  6
KM_SOLID
 62
     1
100
AcDbTrace
 10
246.486443
 20
234.5
 30
0.0
 11
246.486443
 21
235.5
 31
0.0
 12
242.486443
 22
235.0
 32
0.0
 13
242.486443
 23
235.0
 33
0.0
  0
SOLID
  5
4E8
100
AcDbEntity
  8
图层0352
370
    35
390
0
  6
KM_SOLID
 62
     1
100
AcDbTrace
 10
256.286443
 20
235.5
 30
0.0
 11
256.286443
 21
234.5
 31
0.0
 12
260.286443
 22
235.0
 32
0.0
 13
260.286443
 23
235.0
 33
0.0
  0
MTEXT
  5
4EA
100
AcDbEntity
  8
图层0352
370
    35
390
0
  6
KM_SOLID
 62
     2
100
AcDbMText
 10
249.719777
 20
239.125
 30
0.0
 40
3.5
 41
0.0
 71
     1
 72
     1
  1
{\W0.50;18}
  7
8
 73
     1
 44
1.0
  0
ENDBLK
  5
4EB
100
AcDbEntity
  8
0
390
0
100
AcDbBlockEnd
  0
BLOCK
  5
4EE
100
AcDbEntity
  8
0
390
0
100
AcDbBlockBegin
  2
KmSimpleDim5
 70
     0
 10
0.0
 20
0.0
 30
0.0
  3

  1

  0
LINE
  5
4EF
100
AcDbEntity
  8
图层0352
370
    25
390
0
  6
KM_SOLID
 62
     1
100
AcDbLine
 10
116.214798
 20
132.0
 30
0.0
 11
143.414798
 21
132.0
 31
0.0
  0
LINE
  5
4F0
100
AcDbEntity
  8
图层0352
370
    25
390
0
  6
KM_SOLID
 62
     1
100
AcDbLine
 10
112.214798
 20
143.554371
 30
0.0
 11
112.214798
 21
129.0
 31
0.0
  0
LINE
  5
4F1
100
AcDbEntity
  8
图层0352
370
    25
390
0
  6
KM_SOLID
 62
     1
100
AcDbLine
 10
147.414798
 20
140.954371
 30
0.0
 11
147.414798
 21
129.0
 31
0.0
  0
SOLID
  5
4F2
100
AcDbEntity
  8
图层0352
370
    35
390
0
  6
KM_SOLID
 62
     1
100
AcDbTrace
 10
116.214798
 20
131.5
 30
0.0
 11
116.214798
 21
132.5
 31
0.0
 12
112.214798
 22
132.0
 32
0.0
 13
112.214798
 23
132.0
 33
0.0
  0
SOLID
  5
4F3
100
AcDbEntity
  8
图层0352
370
    35
390
0
  6
KM_SOLID
 62
     1
100
AcDbTrace
 10
143.414798
 20
132.5
 30
0.0
 11
143.414798
 21
131.5
 31
0.0
 12
147.414798
 22
132.0
 32
0.0
 13
147.414798
 23
132.0
 33
0.0
  0
MTEXT
  5
4F5
100
AcDbEntity
  8
图层0352
370
    35
390
0
  6
KM_SOLID
 62
     2
100
AcDbMText
 10
123.981465
 20
136.125
 30
0.0
 40
3.5
 41
0.0
 71
     1
 72
     1
  1
{\W1.00;34.5}
  7
9
 73
     1
 44
1.0
  0
ENDBLK
  5
4F6
100
AcDbEntity
  8
0
390
0
100
AcDbBlockEnd
  0
BLOCK
  5
50C
100
AcDbEntity
  8
0
390
0
100
AcDbBlockBegin
  2
KmLegend
 70
     0
 10
0.0
 20
0.0
 30
0.0
  3

  1

  0
LINE
  5
50D
100
AcDbEntity
  8
0
370
   100
390
0
  6
KM_SOLID
 62
   255
100
AcDbLine
 10
15.0
 20
-5.0
 30
0.0
 11
15.0
 21
302.0
 31
0.0
  0
LINE
  5
50E
100
AcDbEntity
  8
0
370
   100
390
0
  6
KM_SOLID
 62
   255
100
AcDbLine
 10
15.0
 20
302.0
 30
0.0
 11
425.0
 21
302.0
 31
0.0
  0
LINE
  5
50F
100
AcDbEntity
  8
0
370
   100
390
0
  6
KM_SOLID
 62
   255
100
AcDbLine
 10
425.0
 20
302.0
 30
0.0
 11
425.0
 21
-5.0
 31
0.0
  0
LINE
  5
510
100
AcDbEntity
  8
0
370
   100
390
0
  6
KM_SOLID
 62
   255
100
AcDbLine
 10
425.0
 20
-5.0
 30
0.0
 11
15.0
 21
-5.0
 31
0.0
  0
LINE
  5
511
100
AcDbEntity
  8
0
370
    35
390
0
  6
KM_SOLID
 62
   255
100
AcDbLine
 10
-10.0
 20
-10.0
 30
0.0
 11
-10.0
 21
307.0
 31
0.0
  0
LINE
  5
512
100
AcDbEntity
  8
0
370
    35
390
0
  6
KM_SOLID
 62
   255
100
AcDbLine
 10
-10.0
 20
307.0
 30
0.0
 11
430.0
 21
307.0
 31
0.0
  0
LINE
  5
513
100
AcDbEntity
  8
0
370
    35
390
0
  6
KM_SOLID
 62
   255
100
AcDbLine
 10
430.0
 20
307.0
 30
0.0
 11
430.0
 21
-10.0
 31
0.0
  0
LINE
  5
514
100
AcDbEntity
  8
0
370
    35
390
0
  6
KM_SOLID
 62
   255
100
AcDbLine
 10
430.0
 20
-10.0
 30
0.0
 11
-10.0
 21
-10.0
 31
0.0
  0
ENDBLK
  5
515
100
AcDbEntity
  8
0
390
0
100
AcDbBlockEnd
  0
ENDSEC
  0
SECTION
  2
ENTITIES
  0
LINE
  5
A6
100
AcDbEntity
  8
0
390
0
  6
KM_SOLID
 62
   255
100
AcDbLine
 10
0.0
 20
0.0
 30
0.0
 11
0.0
 21
297.0
 31
0.0
  0
LINE
  5
A7
100
AcDbEntity
  8
0
390
0
  6
KM_SOLID
 62
   255
100
AcDbLine
 10
0.0
 20
0.0
 30
0.0
 11
420.0
 21
0.0
 31
0.0
  0
LINE
  5
A8
100
AcDbEntity
  8
0
390
0
  6
KM_SOLID
 62
   255
100
AcDbLine
 10
0.0
 20
297.0
 30
0.0
 11
420.0
 21
297.0
 31
0.0
  0
LINE
  5
A9
100
AcDbEntity
  8
0
390
0
  6
KM_SOLID
 62
   255
100
AcDbLine
 10
420.0
 20
0.0
 30
0.0
 11
420.0
 21
297.0
 31
0.0
  0
LINE
  5
AA
100
AcDbEntity
  8
0095COMPONENTS
390
0
  6
KM_SOLID
 62
   255
100
AcDbLine
 10
89.214798
 20
140.454371
 30
0.0
 11
89.214798
 21
168.754371
 31
0.0
  0
LINE
  5
AB
100
AcDbEntity
  8
0095COMPONENTS
390
0
  6
KM_SOLID
 62
   255
100
AcDbLine
 10
89.714798
 20
152.254371
 30
0.0
 11
89.714798
 21
166.254371
 31
0.0
  0
LINE
  5
AC
100
AcDbEntity
  8
0095COMPONENTS
390
0
  6
KM_SOLID
 62
   255
100
AcDbLine
 10
91.114798
 20
169.254371
 30
0.0
 11
91.114798
 21
169.354371
 31
0.0
  0
LINE
  5
AD
100
AcDbEntity
  8
0095COMPONENTS
390
0
  6
KM_SOLID
 62
   255
100
AcDbLine
 10
91.174372
 20
169.254371
 30
0.0
 11
91.174372
 21
169.354371
 31
0.0
  0
LINE
  5
AE
100
AcDbEntity
  8
0095COMPONENTS
390
0
  6
KM_SOLID
 62
   255
100
AcDbLine
 10
91.293521
 20
169.254371
 30
0.0
 11
91.293521
 21
169.354371
 31
0.0
  0
LINE
  5
AF
100
AcDbEntity
  8
0095COMPONENTS
390
0
  6
KM_SOLID
 62
   255
100
AcDbLine
 10
91.531819
 20
169.254371
 30
0.0
 11
91.531819
 21
169.354371
 31
0.0
  0
LINE
  5
B0
100
AcDbEntity
  8
0095COMPONENTS
390
0
  6
KM_SOLID
 62
   255
100
AcDbLine
 10
89.214798
 20
140.454371
 30
0.0
 11
99.214798
 21
138.754371
 31
0.0
  0
LINE
  5
B1
100
AcDbEntity
  8
0095COMPONENTS
390
0
  6
KM_SOLID
 62
   255
100
AcDbLine
 10
91.770117
 20
169.254371
 30
0.0
 11
91.770117
 21
169.354371
 31
0.0
  0
LINE
  5
B2
100
AcDbEntity
  8
0095COMPONENTS
390
0
  6
KM_SOLID
 62
   255
100
AcDbLine
 10
91.889266
 20
169.254371
 30
0.0
 11
91.889266
 21
169.354371
 31
0.0
  0
LINE
  5
B3
100
AcDbEntity
  8
0095COMPONENTS
390
0
  6
KM_SOLID
 62
   255
100
AcDbLine
 10
92.127564
 20
169.254371
 30
0.0
 11
92.127564
 21
169.354371
 31
0.0
  0
LINE
  5
B4
100
AcDbEntity
  8
0095COMPONENTS
390
0
  6
KM_SOLID
 62
   255
100
AcDbLine
 10
92.246713
 20
169.254371
 30
0.0
 11
92.246713
 21
169.354371
 31
0.0
  0
LINE
  5
B5
100
AcDbEntity
  8
0095COMPONENTS
390
0
  6
KM_SOLID
 62
   255
100
AcDbLine
 10
92.365861
 20
169.254371
 30
0.0
 11
92.365861
 21
169.354371
 31
0.0
  0
LINE
  5
B6
100
AcDbEntity
  8
0095COMPONENTS
390
0
  6
KM_SOLID
 62
   255
100
AcDbLine
 10
92.604159
 20
169.254371
 30
0.0
 11
92.604159
 21
169.354371
 31
0.0
  0
LINE
  5
B7
100
AcDbEntity
  8
0095COMPONENTS
390
0
  6
KM_SOLID
 62
   255
100
AcDbLine
 10
92.663734
 20
169.254371
 30
0.0
 11
92.663734
 21
169.354371
 31
0.0
  0
LINE
  5
B8
100
AcDbEntity
  8
0095COMPONENTS
390
0
  6
KM_SOLID
 62
   255
100
AcDbLine
 10
92.782883
 20
169.254371
 30
0.0
 11
92.782883
 21
169.354371
 31
0.0
  0
LINE
  5
B9
100
AcDbEntity
  8
0095COMPONENTS
390
0
  6
KM_SOLID
 62
   255
100
AcDbLine
 10
93.021181
 20
169.254371
 30
0.0
 11
93.021181
 21
169.354371
 31
0.0
  0
LINE
  5
BA
100
AcDbEntity
  8
0095COMPONENTS
390
0
  6
KM_SOLID
 62
   255
100
AcDbLine
 10
93.259478
 20
169.254371
 30
0.0
 11
93.259478
 21
169.354371
 31
0.0
  0
LINE
  5
BB
100
AcDbEntity
  8
0095COMPONENTS
390
0
  6
KM_SOLID
 62
   255
100
AcDbLine
 10
93.438202
 20
169.254371
 30
0.0
 11
93.438202
 21
169.354371
 31
0.0
  0
LINE
  5
BC
100
AcDbEntity
  8
0095COMPONENTS
390
0
  6
KM_SOLID
 62
   255
100
AcDbLine
 10
93.616925
 20
169.254371
 30
0.0
 11
93.616925
 21
169.354371
 31
0.0
  0
LINE
  5
BD
100
AcDbEntity
  8
0095COMPONENTS
390
0
  6
KM_SOLID
 62
   255
100
AcDbLine
 10
93.736074
 20
169.254371
 30
0.0
 11
93.736074
 21
169.354371
 31
0.0
  0
LINE
  5
BE
100
AcDbEntity
  8
0095COMPONENTS
390
0
  6
KM_SOLID
 62
   255
100
AcDbLine
 10
93.855223
 20
169.254371
 30
0.0
 11
93.855223
 21
169.354371
 31
0.0
  0
LINE
  5
BF
100
AcDbEntity
  8
0095COMPONENTS
390
0
  6
KM_SOLID
 62
   255
100
AcDbLine
 10
93.914798
 20
169.254371
 30
0.0
 11
93.914798
 21
169.354371
 31
0.0
  0
LINE
  5
C0
100
AcDbEntity
  8
0095COMPONENTS
390
0
  6
KM_SOLID
 62
   255
100
AcDbLine
 10
98.214798
 20
169.254371
 30
0.0
 11
98.214798
 21
187.754371
 31
0.0
  0
LINE
  5
C1
100
AcDbEntity
  8
0095COMPONENTS
390
0
  6
KM_SOLID
 62
   255
100
AcDbLine
 10
98.714798
 20
173.254371
 30
0.0
 11
98.714798
 21
184.754371
 31
0.0
  0
LINE
  5
C2
100
AcDbEntity
  8
0095COMPONENTS
390
0
  6
KM_SOLID
 62
   255
100
AcDbLine
 10
149.214798
 20
140.754371
 30
0.0
 11
150.714798
 21
141.054371
 31
0.0
  0
LINE
  5
C3
100
AcDbEntity
  8
0095COMPONENTS
390
0
  6
KM_SOLID
 62
   255
100
AcDbLine
 10
174.214798
 20
138.754371
 30
0.0
 11
172.109981
 21
138.754371
 31
0.0
  0
LINE
  5
C4
100
AcDbEntity
  8
0095COMPONENTS
390
0
  6
KM_SOLID
 62
   255
100
AcDbLine
 10
99.214798
 20
138.754371
 30
0.0
 11
104.214798
 21
138.754371
 31
0.0
  0
LINE
  5
C5
100
AcDbEntity
  8
0095COMPONENTS
390
0
  6
KM_SOLID
 62
   255
100
AcDbLine
 10
149.615798
 20
138.754371
 30
0.0
 11
170.214798
 21
138.754371
 31
0.0
  0
LINE
  5
C6
100
AcDbEntity
  8
0095COMPONENTS
390
0
  6
KM_SOLID
 62
   255
100
AcDbLine
 10
147.414798
 20
140.954371
 30
0.0
 11
150.214798
 21
140.954371
 31
0.0
  0
LINE
  5
C7
100
AcDbEntity
  8
0095COMPONENTS
390
0
  6
KM_SOLID
 62
   255
100
AcDbLine
 10
170.214798
 20
140.954371
 30
0.0
 11
172.109981
 21
140.954371
 31
0.0
  0
LINE
  5
C8
100
AcDbEntity
  8
0095COMPONENTS
390
0
  6
KM_SOLID
 62
   255
100
AcDbLine
 10
103.293594
 20
151.350131
 30
0.0
 11
106.423409
 21
149.158611
 31
0.0
  0
LINE
  5
C9
100
AcDbEntity
  8
0095COMPONENTS
390
0
  6
KM_SOLID
 62
   255
100
AcDbLine
 10
114.414798
 20
141.754371
 30
0.0
 11
112.214798
 21
143.554371
 31
0.0
  0
LINE
  5
CA
100
AcDbEntity
  8
0095COMPONENTS
390
0
  6
KM_SOLID
 62
   255
100
AcDbLine
 10
100.114798
 20
188.254371
 30
0.0
 11
100.114798
 21
188.354371
 31
0.0
  0
LINE
  5
CB
100
AcDbEntity
  8
0095COMPONENTS
390
0
  6
KM_SOLID
 62
   255
100
AcDbLine
 10
100.41267
 20
188.254371
 30
0.0
 11
100.41267
 21
188.354371
 31
0.0
  0
LINE
  5
CC
100
AcDbEntity
  8
0095COMPONENTS
390
0
  6
KM_SOLID
 62
   255
100
AcDbLine
 10
104.214798
 20
138.754371
 30
0.0
 11
114.414798
 21
140.754371
 31
0.0
  0
LINE
  5
CD
100
AcDbEntity
  8
0095COMPONENTS
390
0
  6
KM_SOLID
 62
   255
100
AcDbLine
 10
150.714798
 20
142.554371
 30
0.0
 11
148.214798
 21
142.554371
 31
0.0
  0
LINE
  5
CE
100
AcDbEntity
  8
0095COMPONENTS
390
0
  6
KM_SOLID
 62
   255
100
AcDbLine
 10
112.214798
 20
144.254371
 30
0.0
 11
148.214798
 21
144.254371
 31
0.0
  0
LINE
  5
CF
100
AcDbEntity
  8
0095COMPONENTS
390
0
  6
KM_SOLID
 62
   255
100
AcDbLine
 10
170.214798
 20
144.254371
 30
0.0
 11
174.214798
 21
144.254371
 31
0.0
  0
LINE
  5
D0
100
AcDbEntity
  8
0095COMPONENTS
390
0
  6
KM_SOLID
 62
   255
100
AcDbLine
 10
89.214798
 20
166.754371
 30
0.0
 11
89.914798
 21
166.254371
 31
0.0
  0
LINE
  5
D1
100
AcDbEntity
  8
0095COMPONENTS
390
0
  6
KM_SOLID
 62
   255
100
AcDbLine
 10
102.914798
 20
188.254371
 30
0.0
 11
102.914798
 21
188.354371
 31
0.0
  0
LINE
  5
D2
100
AcDbEntity
  8
0095COMPONENTS
390
0
  6
KM_SOLID
 62
   255
100
AcDbLine
 10
98.214798
 20
187.754371
 30
0.0
 11
99.214798
 21
188.254371
 31
0.0
  0
LINE
  5
D3
100
AcDbEntity
  8
0095COMPONENTS
390
0
  6
KM_SOLID
 62
   255
100
AcDbLine
 10
109.291292
 20
148.254371
 30
0.0
 11
148.138304
 21
148.254371
 31
0.0
  0
LINE
  5
D4
100
AcDbEntity
  8
0095COMPONENTS
390
0
  6
KM_SOLID
 62
   255
100
AcDbLine
 10
107.214798
 20
202.254371
 30
0.0
 11
107.214798
 21
188.254371
 31
0.0
  0
LINE
  5
D5
100
AcDbEntity
  8
0095COMPONENTS
390
0
  6
KM_SOLID
 62
   255
100
AcDbLine
 10
107.914798
 20
188.254371
 30
0.0
 11
107.914798
 21
202.454371
 31
0.0
  0
LINE
  5
D6
100
AcDbEntity
  8
0095COMPONENTS
390
0
  6
KM_SOLID
 62
   255
100
AcDbLine
 10
108.014798
 20
188.254371
 30
0.0
 11
108.014798
 21
202.454371
 31
0.0
  0
LINE
  5
D7
100
AcDbEntity
  8
0095COMPONENTS
390
0
  6
KM_SOLID
 62
   255
100
AcDbLine
 10
98.714798
 20
173.254371
 30
0.0
 11
98.214798
 21
172.749444
 31
0.0
  0
LINE
  5
D8
100
AcDbEntity
  8
0095COMPONENTS
390
0
  6
KM_SOLID
 62
   255
100
AcDbLine
 10
89.214798
 20
152.254371
 30
0.0
 11
100.425712
 21
152.254371
 31
0.0
  0
LINE
  5
D9
100
AcDbEntity
  8
0095COMPONENTS
390
0
  6
KM_SOLID
 62
   255
100
AcDbLine
 10
157.003884
 20
152.254371
 30
0.0
 11
170.214798
 21
152.254371
 31
0.0
  0
LINE
  5
DA
100
AcDbEntity
  8
0095COMPONENTS
390
0
  6
KM_SOLID
 62
   255
100
AcDbLine
 10
112.214798
 20
143.554371
 30
0.0
 11
112.214798
 21
144.254371
 31
0.0
  0
LINE
  5
DB
100
AcDbEntity
  8
0095COMPONENTS
390
0
  6
KM_SOLID
 62
   255
100
AcDbLine
 10
113.714798
 20
191.254371
 30
0.0
 11
113.714798
 21
168.254371
 31
0.0
  0
LINE
  5
DC
100
AcDbEntity
  8
0095COMPONENTS
390
0
  6
KM_SOLID
 62
     4
100
AcDbLine
 10
139.953925
 20
154.594632
 30
0.0
 11
143.219886
 21
155.471267
 31
0.0
  0
LINE
  5
DD
100
AcDbEntity
  8
0095COMPONENTS
390
0
  6
KM_SOLID
 62
     4
100
AcDbLine
 10
143.956115
 20
155.698664
 30
0.0
 11
144.217595
 21
155.768849
 31
0.0
  0
LINE
  5
DE
100
AcDbEntity
  8
0095COMPONENTS
390
0
  6
KM_SOLID
 62
     4
100
AcDbLine
 10
142.563586
 20
155.6462
 30
0.0
 11
143.875666
 21
155.998383
 31
0.0
  0
LINE
  5
DF
100
AcDbEntity
  8
0095COMPONENTS
390
0
  6
KM_SOLID
 62
     4
100
AcDbLine
 10
139.380175
 20
155.041926
 30
0.0
 11
139.727771
 21
155.135227
 31
0.0
  0
LINE
  5
E0
100
AcDbEntity
  8
0095COMPONENTS
390
0
  6
KM_SOLID
 62
     4
100
AcDbLine
 10
134.133642
 20
153.874111
 30
0.0
 11
139.319975
 21
155.266204
 31
0.0
  0
LINE
  5
E1
100
AcDbEntity
  8
0095COMPONENTS
390
0
  6
KM_SOLID
 62
     4
100
AcDbLine
 10
142.443677
 20
156.131556
 30
0.0
 11
144.007566
 21
156.551328
 31
0.0
  0
LINE
  5
E2
100
AcDbEntity
  8
0095COMPONENTS
390
0
  6
KM_SOLID
 62
     4
100
AcDbLine
 10
146.768237
 20
158.146794
 30
0.0
 11
146.640577
 21
158.115544
 31
0.0
  0
LINE
  5
E3
100
AcDbEntity
  8
0095COMPONENTS
390
0
  6
KM_SOLID
 62
     4
100
AcDbLine
 10
146.832066
 20
159.053044
 30
0.0
 11
146.959726
 21
159.084294
 31
0.0
  0
LINE
  5
E4
100
AcDbEntity
  8
0095COMPONENTS
390
0
  6
KM_SOLID
 62
     4
100
AcDbLine
 10
133.831751
 20
152.95429
 30
0.0
 11
132.806642
 21
152.724654
 31
0.0
  0
LINE
  5
E5
100
AcDbEntity
  8
0095COMPONENTS
390
0
  6
KM_SOLID
 62
     4
100
AcDbLine
 10
143.726907
 20
156.437732
 30
0.0
 11
143.623912
 21
156.419421
 31
0.0
  0
LINE
  5
E6
100
AcDbEntity
  8
0095COMPONENTS
390
0
  6
KM_SOLID
 62
     4
100
AcDbLine
 10
139.643534
 20
153.404363
 30
0.0
 11
139.86356
 21
153.434358
 31
0.0
  0
LINE
  5
E7
100
AcDbEntity
  8
0095COMPONENTS
390
0
  6
KM_SOLID
 62
     4
100
AcDbLine
 10
130.915996
 20
152.724654
 30
0.0
 11
132.806642
 21
152.724654
 31
0.0
  0
LINE
  5
E8
100
AcDbEntity
  8
0095COMPONENTS
390
0
  6
KM_SOLID
 62
     4
100
AcDbLine
 10
134.94355
 20
152.754371
 30
0.0
 11
138.553614
 21
152.754371
 31
0.0
  0
LINE
  5
E9
100
AcDbEntity
  8
0095COMPONENTS
390
0
  6
KM_SOLID
 62
     4
100
AcDbLine
 10
135.093527
 20
152.904254
 30
0.0
 11
138.403584
 21
152.904254
 31
0.0
  0
LINE
  5
EA
100
AcDbEntity
  8
0095COMPONENTS
390
0
  6
KM_SOLID
 62
     4
100
AcDbLine
 10
132.903591
 20
153.064322
 30
0.0
 11
133.710196
 21
153.064322
 31
0.0
  0
LINE
  5
EB
100
AcDbEntity
  8
0095COMPONENTS
390
0
  6
KM_SOLID
 62
     4
100
AcDbLine
 10
139.633562
 20
153.064322
 30
0.0
 11
142.733554
 21
153.064322
 31
0.0
  0
LINE
  5
EC
100
AcDbEntity
  8
0095COMPONENTS
390
0
  6
KM_SOLID
 62
     4
100
AcDbLine
 10
142.913556
 20
153.064322
 30
0.0
 11
143.183556
 21
153.064322
 31
0.0
  0
LINE
  5
ED
100
AcDbEntity
  8
0095COMPONENTS
390
0
  6
KM_SOLID
 62
     4
100
AcDbLine
 10
142.733554
 20
153.404294
 30
0.0
 11
142.913556
 21
153.404294
 31
0.0
  0
LINE
  5
EE
100
AcDbEntity
  8
0095COMPONENTS
390
0
  6
KM_SOLID
 62
     4
100
AcDbLine
 10
144.413556
 20
153.504294
 30
0.0
 11
147.28618
 21
153.504294
 31
0.0
  0
LINE
  5
EF
100
AcDbEntity
  8
0095COMPONENTS
390
0
  6
KM_SOLID
 62
     4
100
AcDbLine
 10
139.493556
 20
153.654234
 30
0.0
 11
139.86356
 21
153.654234
 31
0.0
  0
LINE
  5
F0
100
AcDbEntity
  8
0095COMPONENTS
390
0
  6
KM_SOLID
 62
     4
100
AcDbLine
 10
134.133642
 20
153.724228
 30
0.0
 11
134.543614
 21
153.724228
 31
0.0
  0
LINE
  5
F1
100
AcDbEntity
  8
0095COMPONENTS
390
0
  6
KM_SOLID
 62
     4
100
AcDbLine
 10
138.95355
 20
153.724228
 30
0.0
 11
139.363522
 21
153.724228
 31
0.0
  0
LINE
  5
F2
100
AcDbEntity
  8
0095COMPONENTS
390
0
  6
KM_SOLID
 62
     4
100
AcDbLine
 10
134.133642
 20
153.874111
 30
0.0
 11
139.493556
 21
153.874111
 31
0.0
  0
LINE
  5
F3
100
AcDbEntity
  8
0095COMPONENTS
390
0
  6
KM_SOLID
 62
     4
100
AcDbLine
 10
142.733554
 20
153.874111
 30
0.0
 11
143.183556
 21
153.874111
 31
0.0
  0
LINE
  5
F4
100
AcDbEntity
  8
0095COMPONENTS
390
0
  6
KM_SOLID
 62
     4
100
AcDbLine
 10
146.002279
 20
154.584294
 30
0.0
 11
145.74696
 21
154.584294
 31
0.0
  0
LINE
  5
F5
100
AcDbEntity
  8
0095COMPONENTS
390
0
  6
KM_SOLID
 62
     4
100
AcDbLine
 10
147.023556
 20
154.771794
 30
0.0
 11
145.778875
 21
154.771794
 31
0.0
  0
LINE
  5
F6
100
AcDbEntity
  8
0095COMPONENTS
390
0
  6
KM_SOLID
 62
     4
100
AcDbLine
 10
145.523556
 20
154.959294
 30
0.0
 11
147.023556
 21
154.959294
 31
0.0
  0
LINE
  5
F7
100
AcDbEntity
  8
0095COMPONENTS
390
0
  6
KM_SOLID
 62
     4
100
AcDbLine
 10
130.714798
 20
153.474233
 30
0.0
 11
132.903591
 21
153.064322
 31
0.0
  0
LINE
  5
F8
100
AcDbEntity
  8
0095COMPONENTS
390
0
  6
KM_SOLID
 62
     4
100
AcDbLine
 10
134.605486
 20
153.62432
 30
0.0
 11
134.171099
 21
153.734561
 31
0.0
  0
LINE
  5
F9
100
AcDbEntity
  8
0095COMPONENTS
390
0
  6
KM_SOLID
 62
   255
100
AcDbLine
 10
114.414798
 20
140.754371
 30
0.0
 11
114.414798
 21
141.754371
 31
0.0
  0
LINE
  5
FA
100
AcDbEntity
  8
0095COMPONENTS
390
0
  6
KM_SOLID
 62
   255
100
AcDbLine
 10
89.214798
 20
168.754371
 30
0.0
 11
90.214798
 21
169.254371
 31
0.0
  0
LINE
  5
FB
100
AcDbEntity
  8
0095COMPONENTS
390
0
  6
KM_SOLID
 62
     4
100
AcDbLine
 10
146.576747
 20
162.928044
 30
0.0
 11
146.800151
 21
162.990543
 31
0.0
  0
LINE
  5
FC
100
AcDbEntity
  8
0095COMPONENTS
390
0
  6
KM_SOLID
 62
     4
100
AcDbLine
 10
146.768237
 20
161.709294
 30
0.0
 11
146.640577
 21
161.678043
 31
0.0
  0
LINE
  5
FD
100
AcDbEntity
  8
0095COMPONENTS
390
0
  6
KM_SOLID
 62
     4
100
AcDbLine
 10
147.023556
 20
156.709293
 30
0.0
 11
145.523556
 21
156.709293
 31
0.0
  0
LINE
  5
FE
100
AcDbEntity
  8
0095COMPONENTS
390
0
  6
KM_SOLID
 62
     4
100
AcDbLine
 10
145.68313
 20
156.896793
 30
0.0
 11
146.161854
 21
156.896793
 31
0.0
  0
LINE
  5
FF
100
AcDbEntity
  8
0095COMPONENTS
390
0
  6
KM_SOLID
 62
     4
100
AcDbLine
 10
146.353343
 20
156.896793
 30
0.0
 11
147.023556
 21
156.896793
 31
0.0
  0
LINE
  5
100
100
AcDbEntity
  8
0095COMPONENTS
390
0
  6
KM_SOLID
 62
     4
100
AcDbLine
 10
145.970364
 20
157.678044
 30
0.0
 11
145.874619
 21
157.678044
 31
0.0
  0
LINE
  5
101
100
AcDbEntity
  8
0095COMPONENTS
390
0
  6
KM_SOLID
 62
     4
100
AcDbLine
 10
145.874619
 20
157.865544
 30
0.0
 11
146.002279
 21
157.865544
 31
0.0
  0
LINE
  5
102
100
AcDbEntity
  8
0095COMPONENTS
390
0
  6
KM_SOLID
 62
     4
100
AcDbLine
 10
146.640577
 20
158.115544
 30
0.0
 11
146.002279
 21
158.115544
 31
0.0
  0
LINE
  5
103
100
AcDbEntity
  8
0095COMPONENTS
390
0
  6
KM_SOLID
 62
     4
100
AcDbLine
 10
146.002279
 20
158.271793
 30
0.0
 11
146.640577
 21
158.271793
 31
0.0
  0
LINE
  5
104
100
AcDbEntity
  8
0095COMPONENTS
390
0
  6
KM_SOLID
 62
     4
100
AcDbLine
 10
146.704407
 20
158.896794
 30
0.0
 11
146.002279
 21
158.896794
 31
0.0
  0
LINE
  5
105
100
AcDbEntity
  8
0095COMPONENTS
390
0
  6
KM_SOLID
 62
     4
100
AcDbLine
 10
146.002279
 20
159.053044
 30
0.0
 11
146.832066
 21
159.053044
 31
0.0
  0
LINE
  5
106
100
AcDbEntity
  8
0095COMPONENTS
390
0
  6
KM_SOLID
 62
     4
100
AcDbLine
 10
147.023556
 20
159.365544
 30
0.0
 11
145.523556
 21
159.365544
 31
0.0
  0
LINE
  5
107
100
AcDbEntity
  8
0095COMPONENTS
390
0
  6
KM_SOLID
 62
     4
100
AcDbLine
 10
145.523556
 20
159.521794
 30
0.0
 11
147.023556
 21
159.521794
 31
0.0
  0
LINE
  5
108
100
AcDbEntity
  8
0095COMPONENTS
390
0
  6
KM_SOLID
 62
     4
100
AcDbLine
 10
134.503576
 20
153.517038
 30
0.0
 11
134.133642
 21
153.724228
 31
0.0
  0
LINE
  5
109
100
AcDbEntity
  8
0095COMPONENTS
390
0
  6
KM_SOLID
 62
   255
100
AcDbLine
 10
98.214798
 20
185.259298
 30
0.0
 11
98.714798
 21
184.754371
 31
0.0
  0
LINE
  5
10A
100
AcDbEntity
  8
0095COMPONENTS
390
0
  6
KM_SOLID
 62
   255
100
AcDbLine
 10
118.914798
 20
202.754371
 30
0.0
 11
118.914798
 21
204.682944
 31
0.0
  0
LINE
  5
10B
100
AcDbEntity
  8
0095COMPONENTS
390
0
  6
KM_SOLID
 62
   255
100
AcDbLine
 10
119.014798
 20
204.687041
 30
0.0
 11
119.014798
 21
206.541371
 31
0.0
  0
LINE
  5
10C
100
AcDbEntity
  8
0095COMPONENTS
390
0
  6
KM_SOLID
 62
   255
100
AcDbLine
 10
119.514798
 20
204.707526
 30
0.0
 11
119.514798
 21
206.541371
 31
0.0
  0
LINE
  5
10D
100
AcDbEntity
  8
0095COMPONENTS
390
0
  6
KM_SOLID
 62
   255
100
AcDbLine
 10
120.690465
 20
184.454371
 30
0.0
 11
120.690465
 21
179.454371
 31
0.0
  0
LINE
  5
10E
100
AcDbEntity
  8
0095COMPONENTS
390
0
  6
KM_SOLID
 62
     4
100
AcDbLine
 10
131.744961
 20
159.984591
 30
0.0
 11
129.79545
 21
159.461312
 31
0.0
  0
LINE
  5
10F
100
AcDbEntity
  8
0095COMPONENTS
390
0
  6
KM_SOLID
 62
     4
100
AcDbLine
 10
140.363368
 20
162.304671
 30
0.0
 11
138.162094
 21
161.713814
 31
0.0
  0
LINE
  5
110
100
AcDbEntity
  8
0095COMPONENTS
390
0
  6
KM_SOLID
 62
     4
100
AcDbLine
 10
131.493889
 20
162.369267
 30
0.0
 11
137.217369
 21
163.905539
 31
0.0
  0
LINE
  5
111
100
AcDbEntity
  8
0095COMPONENTS
390
0
  6
KM_SOLID
 62
     4
100
AcDbLine
 10
146.002279
 20
164.334294
 30
0.0
 11
146.704407
 21
164.521794
 31
0.0
  0
LINE
  5
112
100
AcDbEntity
  8
0095COMPONENTS
390
0
  6
KM_SOLID
 62
     4
100
AcDbLine
 10
146.576747
 20
163.084293
 30
0.0
 11
146.704407
 21
163.115544
 31
0.0
  0
LINE
  5
113
100
AcDbEntity
  8
0095COMPONENTS
390
0
  6
KM_SOLID
 62
     4
100
AcDbLine
 10
146.449088
 20
163.771794
 30
0.0
 11
146.321428
 21
163.740543
 31
0.0
  0
LINE
  5
114
100
AcDbEntity
  8
0095COMPONENTS
390
0
  6
KM_SOLID
 62
     4
100
AcDbLine
 10
146.449088
 20
163.928043
 30
0.0
 11
146.321428
 21
163.896794
 31
0.0
  0
LINE
  5
115
100
AcDbEntity
  8
0095COMPONENTS
390
0
  6
KM_SOLID
 62
     4
100
AcDbLine
 10
147.023556
 20
164.428044
 30
0.0
 11
146.002279
 21
164.178044
 31
0.0
  0
LINE
  5
116
100
AcDbEntity
  8
0095COMPONENTS
390
0
  6
KM_SOLID
 62
     4
100
AcDbLine
 10
147.023556
 20
164.928044
 30
0.0
 11
146.321428
 21
164.771793
 31
0.0
  0
LINE
  5
117
100
AcDbEntity
  8
0095COMPONENTS
390
0
  6
KM_SOLID
 62
     4
100
AcDbLine
 10
146.002279
 20
164.834294
 30
0.0
 11
146.704407
 21
164.990544
 31
0.0
  0
LINE
  5
118
100
AcDbEntity
  8
0095COMPONENTS
390
0
  6
KM_SOLID
 62
     4
100
AcDbLine
 10
143.222567
 20
162.400672
 30
0.0
 11
142.044634
 21
162.19125
 31
0.0
  0
LINE
  5
119
100
AcDbEntity
  8
0095COMPONENTS
390
0
  6
KM_SOLID
 62
     4
100
AcDbLine
 10
143.062899
 20
163.298757
 30
0.0
 11
141.884966
 21
163.089335
 31
0.0
  0
LINE
  5
11A
100
AcDbEntity
  8
0095COMPONENTS
390
0
  6
KM_SOLID
 62
     4
100
AcDbLine
 10
147.023556
 20
159.771793
 30
0.0
 11
145.523556
 21
159.771793
 31
0.0
  0
LINE
  5
11B
100
AcDbEntity
  8
0095COMPONENTS
390
0
  6
KM_SOLID
 62
     4
100
AcDbLine
 10
145.523556
 20
159.928044
 30
0.0
 11
147.023556
 21
159.928044
 31
0.0
  0
LINE
  5
11C
100
AcDbEntity
  8
0095COMPONENTS
390
0
  6
KM_SOLID
 62
     4
100
AcDbLine
 10
142.233559
 20
160.394285
 30
0.0
 11
140.063541
 21
160.394285
 31
0.0
  0
LINE
  5
11D
100
AcDbEntity
  8
0095COMPONENTS
390
0
  6
KM_SOLID
 62
     4
100
AcDbLine
 10
133.383571
 20
160.394285
 30
0.0
 11
131.114762
 21
160.394285
 31
0.0
  0
LINE
  5
11E
100
AcDbEntity
  8
0095COMPONENTS
390
0
  6
KM_SOLID
 62
     4
100
AcDbLine
 10
146.640577
 20
161.678043
 30
0.0
 11
146.385258
 21
161.678043
 31
0.0
  0
LINE
  5
11F
100
AcDbEntity
  8
0095COMPONENTS
390
0
  6
KM_SOLID
 62
     4
100
AcDbLine
 10
146.608662
 20
161.834294
 30
0.0
 11
146.417173
 21
161.834294
 31
0.0
  0
LINE
  5
120
100
AcDbEntity
  8
0095COMPONENTS
390
0
  6
KM_SOLID
 62
     4
100
AcDbLine
 10
147.023556
 20
162.521793
 30
0.0
 11
146.832066
 21
162.521793
 31
0.0
  0
LINE
  5
121
100
AcDbEntity
  8
0095COMPONENTS
390
0
  6
KM_SOLID
 62
     4
100
AcDbLine
 10
146.193768
 20
162.521793
 30
0.0
 11
145.523556
 21
162.521793
 31
0.0
  0
LINE
  5
122
100
AcDbEntity
  8
0095COMPONENTS
390
0
  6
KM_SOLID
 62
     4
100
AcDbLine
 10
146.353343
 20
162.521793
 30
0.0
 11
146.672492
 21
162.521793
 31
0.0
  0
LINE
  5
123
100
AcDbEntity
  8
0095COMPONENTS
390
0
  6
KM_SOLID
 62
     4
100
AcDbLine
 10
145.523556
 20
162.678044
 30
0.0
 11
147.023556
 21
162.678044
 31
0.0
  0
LINE
  5
124
100
AcDbEntity
  8
0095COMPONENTS
390
0
  6
KM_SOLID
 62
     4
100
AcDbLine
 10
133.783535
 20
162.794272
 30
0.0
 11
139.663576
 21
162.794272
 31
0.0
  0
LINE
  5
125
100
AcDbEntity
  8
0095COMPONENTS
390
0
  6
KM_SOLID
 62
     4
100
AcDbLine
 10
146.449088
 20
162.928044
 30
0.0
 11
146.576747
 21
162.928044
 31
0.0
  0
LINE
  5
126
100
AcDbEntity
  8
0095COMPONENTS
390
0
  6
KM_SOLID
 62
     4
100
AcDbLine
 10
146.449088
 20
163.084293
 30
0.0
 11
146.576747
 21
163.084293
 31
0.0
  0
LINE
  5
127
100
AcDbEntity
  8
0095COMPONENTS
390
0
  6
KM_SOLID
 62
     4
100
AcDbLine
 10
146.066109
 20
157.646794
 30
0.0
 11
145.970364
 21
157.678044
 31
0.0
  0
LINE
  5
128
100
AcDbEntity
  8
0095COMPONENTS
390
0
  6
KM_SOLID
 62
     4
100
AcDbLine
 10
146.002279
 20
157.865544
 30
0.0
 11
146.098024
 21
157.834294
 31
0.0
  0
LINE
  5
129
100
AcDbEntity
  8
0095COMPONENTS
390
0
  6
KM_SOLID
 62
     4
100
AcDbLine
 10
139.953925
 20
154.594632
 30
0.0
 11
139.58821
 21
154.80586
 31
0.0
  0
LINE
  5
12A
100
AcDbEntity
  8
0095COMPONENTS
390
0
  6
KM_SOLID
 62
   255
100
AcDbLine
 10
145.914798
 20
142.455371
 30
0.0
 11
147.414798
 21
140.955371
 31
0.0
  0
LINE
  5
12B
100
AcDbEntity
  8
0095COMPONENTS
390
0
  6
KM_SOLID
 62
   255
100
AcDbLine
 10
149.615798
 20
138.754371
 30
0.0
 11
147.415798
 21
140.954371
 31
0.0
  0
LINE
  5
12C
100
AcDbEntity
  8
0095COMPONENTS
390
0
  6
KM_SOLID
 62
   255
100
AcDbLine
 10
148.414798
 20
140.954371
 30
0.0
 11
147.414798
 21
141.954371
 31
0.0
  0
LINE
  5
12D
100
AcDbEntity
  8
0095COMPONENTS
390
0
  6
KM_SOLID
 62
   255
100
AcDbLine
 10
149.214798
 20
140.754371
 30
0.0
 11
151.214798
 21
138.754371
 31
0.0
  0
LINE
  5
12E
100
AcDbEntity
  8
0095COMPONENTS
390
0
  6
KM_SOLID
 62
   255
100
AcDbLine
 10
121.822828
 20
179.454371
 30
0.0
 11
121.822828
 21
181.304371
 31
0.0
  0
LINE
  5
12F
100
AcDbEntity
  8
0095COMPONENTS
390
0
  6
KM_SOLID
 62
   255
100
AcDbLine
 10
121.822828
 20
182.591871
 30
0.0
 11
121.822828
 21
184.454371
 31
0.0
  0
LINE
  5
130
100
AcDbEntity
  8
0095COMPONENTS
390
0
  6
KM_SOLID
 62
   255
100
AcDbLine
 10
124.333719
 20
184.454371
 30
0.0
 11
124.333719
 21
182.591871
 31
0.0
  0
LINE
  5
131
100
AcDbEntity
  8
0095COMPONENTS
390
0
  6
KM_SOLID
 62
   255
100
AcDbLine
 10
124.333719
 20
181.304371
 30
0.0
 11
124.333719
 21
179.454371
 31
0.0
  0
LINE
  5
132
100
AcDbEntity
  8
0095COMPONENTS
390
0
  6
KM_SOLID
 62
     4
100
AcDbLine
 10
146.417173
 20
166.303044
 30
0.0
 11
146.257598
 21
166.271793
 31
0.0
  0
LINE
  5
133
100
AcDbEntity
  8
0095COMPONENTS
390
0
  6
KM_SOLID
 62
     4
100
AcDbLine
 10
146.257598
 20
166.428044
 30
0.0
 11
146.417173
 21
166.459293
 31
0.0
  0
LINE
  5
134
100
AcDbEntity
  8
0095COMPONENTS
390
0
  6
KM_SOLID
 62
     4
100
AcDbLine
 10
146.576747
 20
163.771794
 30
0.0
 11
146.449088
 21
163.771794
 31
0.0
  0
LINE
  5
135
100
AcDbEntity
  8
0095COMPONENTS
390
0
  6
KM_SOLID
 62
     4
100
AcDbLine
 10
146.576747
 20
163.928043
 30
0.0
 11
146.449088
 21
163.928043
 31
0.0
  0
LINE
  5
136
100
AcDbEntity
  8
0095COMPONENTS
390
0
  6
KM_SOLID
 62
     4
100
AcDbLine
 10
130.30313
 20
165.554294
 30
0.0
 11
130.143556
 21
165.554294
 31
0.0
  0
LINE
  5
137
100
AcDbEntity
  8
0095COMPONENTS
390
0
  6
KM_SOLID
 62
     4
100
AcDbLine
 10
147.023556
 20
165.584294
 30
0.0
 11
146.002279
 21
165.584294
 31
0.0
  0
LINE
  5
138
100
AcDbEntity
  8
0095COMPONENTS
390
0
  6
KM_SOLID
 62
     4
100
AcDbLine
 10
146.002279
 20
165.740544
 30
0.0
 11
146.161854
 21
165.740544
 31
0.0
  0
LINE
  5
139
100
AcDbEntity
  8
0095COMPONENTS
390
0
  6
KM_SOLID
 62
     4
100
AcDbLine
 10
146.289513
 20
165.740544
 30
0.0
 11
147.023556
 21
165.740544
 31
0.0
  0
LINE
  5
13A
100
AcDbEntity
  8
0095COMPONENTS
390
0
  6
KM_SOLID
 62
     4
100
AcDbLine
 10
131.643556
 20
165.954294
 30
0.0
 11
130.30313
 21
165.954294
 31
0.0
  0
LINE
  5
13B
100
AcDbEntity
  8
0095COMPONENTS
390
0
  6
KM_SOLID
 62
     4
100
AcDbLine
 10
130.30313
 20
166.104294
 30
0.0
 11
131.643556
 21
166.104294
 31
0.0
  0
LINE
  5
13C
100
AcDbEntity
  8
0095COMPONENTS
390
0
  6
KM_SOLID
 62
   255
100
AcDbLine
 10
89.214798
 20
166.254371
 30
0.0
 11
111.714798
 21
166.254371
 31
0.0
  0
LINE
  5
13D
100
AcDbEntity
  8
0095COMPONENTS
390
0
  6
KM_SOLID
 62
   255
100
AcDbLine
 10
155.752957
 20
166.254371
 30
0.0
 11
170.214798
 21
166.254371
 31
0.0
  0
LINE
  5
13E
100
AcDbEntity
  8
0095COMPONENTS
390
0
  6
KM_SOLID
 62
     4
100
AcDbLine
 10
147.023556
 20
166.303044
 30
0.0
 11
146.417173
 21
166.303044
 31
0.0
  0
LINE
  5
13F
100
AcDbEntity
  8
0095COMPONENTS
390
0
  6
KM_SOLID
 62
     4
100
AcDbLine
 10
146.417173
 20
166.459293
 30
0.0
 11
147.023556
 21
166.459293
 31
0.0
  0
LINE
  5
140
100
AcDbEntity
  8
0095COMPONENTS
390
0
  6
KM_SOLID
 62
     4
100
AcDbLine
 10
130.143556
 20
166.504294
 30
0.0
 11
130.30313
 21
166.504294
 31
0.0
  0
LINE
  5
141
100
AcDbEntity
  8
0095COMPONENTS
390
0
  6
KM_SOLID
 62
     4
100
AcDbLine
 10
131.643556
 20
166.704293
 30
0.0
 11
130.622279
 21
166.704293
 31
0.0
  0
LINE
  5
142
100
AcDbEntity
  8
0095COMPONENTS
390
0
  6
KM_SOLID
 62
     4
100
AcDbLine
 10
130.30313
 20
166.704293
 30
0.0
 11
130.143556
 21
166.704293
 31
0.0
  0
LINE
  5
143
100
AcDbEntity
  8
0095COMPONENTS
390
0
  6
KM_SOLID
 62
     4
100
AcDbLine
 10
130.143556
 20
166.829294
 30
0.0
 11
130.30313
 21
166.829294
 31
0.0
  0
LINE
  5
144
100
AcDbEntity
  8
0095COMPONENTS
390
0
  6
KM_SOLID
 62
     4
100
AcDbLine
 10
130.622279
 20
166.829294
 30
0.0
 11
131.643556
 21
166.829294
 31
0.0
  0
LINE
  5
145
100
AcDbEntity
  8
0095COMPONENTS
390
0
  6
KM_SOLID
 62
     4
100
AcDbLine
 10
131.643556
 20
167.029293
 30
0.0
 11
130.143556
 21
167.029293
 31
0.0
  0
LINE
  5
146
100
AcDbEntity
  8
0095COMPONENTS
390
0
  6
KM_SOLID
 62
     4
100
AcDbLine
 10
146.385258
 20
161.678043
 30
0.0
 11
146.257598
 21
161.709294
 31
0.0
  0
LINE
  5
147
100
AcDbEntity
  8
0095COMPONENTS
390
0
  6
KM_SOLID
 62
     4
100
AcDbLine
 10
146.321428
 20
162.959294
 30
0.0
 11
146.449088
 21
162.928044
 31
0.0
  0
LINE
  5
148
100
AcDbEntity
  8
0095COMPONENTS
390
0
  6
KM_SOLID
 62
     4
100
AcDbLine
 10
146.321428
 20
163.115544
 30
0.0
 11
146.449088
 21
163.084293
 31
0.0
  0
LINE
  5
149
100
AcDbEntity
  8
0095COMPONENTS
390
0
  6
KM_SOLID
 62
     4
100
AcDbLine
 10
146.417173
 20
161.834294
 30
0.0
 11
146.321428
 21
161.865543
 31
0.0
  0
LINE
  5
14A
100
AcDbEntity
  8
0095COMPONENTS
390
0
  6
KM_SOLID
 62
     4
100
AcDbLine
 10
139.633562
 20
153.064322
 30
0.0
 11
139.12356
 21
153.574263
 31
0.0
  0
LINE
  5
14B
100
AcDbEntity
  8
0095COMPONENTS
390
0
  6
KM_SOLID
 62
     4
100
AcDbLine
 10
139.953504
 20
153.064322
 30
0.0
 11
139.363522
 21
153.654234
 31
0.0
  0
LINE
  5
14C
100
AcDbEntity
  8
0095COMPONENTS
390
0
  6
KM_SOLID
 62
   255
100
AcDbLine
 10
125.466083
 20
179.454371
 30
0.0
 11
125.466083
 21
184.454371
 31
0.0
  0
LINE
  5
14D
100
AcDbEntity
  8
0095COMPONENTS
390
0
  6
KM_SOLID
 62
   255
100
AcDbLine
 10
126.241506
 20
184.454371
 30
0.0
 11
126.241506
 21
179.454371
 31
0.0
  0
LINE
  5
14E
100
AcDbEntity
  8
0095COMPONENTS
390
0
  6
KM_SOLID
 62
   255
100
AcDbLine
 10
127.373869
 20
179.454371
 30
0.0
 11
127.373869
 21
183.087704
 31
0.0
  0
LINE
  5
14F
100
AcDbEntity
  8
0095COMPONENTS
390
0
  6
KM_SOLID
 62
   255
100
AcDbLine
 10
89.214798
 20
151.754371
 30
0.0
 11
89.914798
 21
152.254371
 31
0.0
  0
LINE
  5
150
100
AcDbEntity
  8
0095COMPONENTS
390
0
  6
KM_SOLID
 62
   255
100
AcDbLine
 10
140.062184
 20
182.979477
 30
0.0
 11
140.178851
 21
183.039052
 31
0.0
  0
LINE
  5
151
100
AcDbEntity
  8
0095COMPONENTS
390
0
  6
KM_SOLID
 62
   255
100
AcDbLine
 10
140.033017
 20
183.128414
 30
0.0
 11
139.945517
 21
183.098626
 31
0.0
  0
LINE
  5
152
100
AcDbEntity
  8
0095COMPONENTS
390
0
  6
KM_SOLID
 62
     4
100
AcDbLine
 10
131.324407
 20
167.679294
 30
0.0
 11
131.420151
 21
167.704293
 31
0.0
  0
LINE
  5
153
100
AcDbEntity
  8
0095COMPONENTS
390
0
  6
KM_SOLID
 62
     4
100
AcDbLine
 10
130.941428
 20
170.129294
 30
0.0
 11
130.845683
 21
170.104294
 31
0.0
  0
LINE
  5
154
100
AcDbEntity
  8
0095COMPONENTS
390
0
  6
KM_SOLID
 62
     4
100
AcDbLine
 10
131.260577
 20
170.479293
 30
0.0
 11
131.356322
 21
170.504294
 31
0.0
  0
LINE
  5
155
100
AcDbEntity
  8
0095COMPONENTS
390
0
  6
KM_SOLID
 62
     4
100
AcDbLine
 10
131.196747
 20
169.354294
 30
0.0
 11
131.420151
 21
169.404293
 31
0.0
  0
LINE
  5
156
100
AcDbEntity
  8
0095COMPONENTS
390
0
  6
KM_SOLID
 62
     4
100
AcDbLine
 10
132.857046
 20
169.249294
 30
0.0
 11
132.984706
 21
169.274294
 31
0.0
  0
LINE
  5
157
100
AcDbEntity
  8
0095COMPONENTS
390
0
  6
KM_SOLID
 62
     4
100
AcDbLine
 10
131.196747
 20
169.479293
 30
0.0
 11
131.324407
 21
169.504294
 31
0.0
  0
LINE
  5
158
100
AcDbEntity
  8
0095COMPONENTS
390
0
  6
KM_SOLID
 62
     4
100
AcDbLine
 10
131.069088
 20
170.029294
 30
0.0
 11
130.941428
 21
170.004293
 31
0.0
  0
LINE
  5
159
100
AcDbEntity
  8
0095COMPONENTS
390
0
  6
KM_SOLID
 62
     4
100
AcDbLine
 10
131.069088
 20
170.154293
 30
0.0
 11
130.941428
 21
170.129294
 31
0.0
  0
LINE
  5
15A
100
AcDbEntity
  8
0095COMPONENTS
390
0
  6
KM_SOLID
 62
     4
100
AcDbLine
 10
131.388237
 20
170.379294
 30
0.0
 11
131.260577
 21
170.354294
 31
0.0
  0
LINE
  5
15B
100
AcDbEntity
  8
0095COMPONENTS
390
0
  6
KM_SOLID
 62
     4
100
AcDbLine
 10
141.605196
 20
169.315107
 30
0.0
 11
141.212109
 21
169.245221
 31
0.0
  0
LINE
  5
15C
100
AcDbEntity
  8
0095COMPONENTS
390
0
  6
KM_SOLID
 62
     4
100
AcDbLine
 10
130.143556
 20
167.154294
 30
0.0
 11
131.643556
 21
167.154294
 31
0.0
  0
LINE
  5
15D
100
AcDbEntity
  8
0095COMPONENTS
390
0
  6
KM_SOLID
 62
     4
100
AcDbLine
 10
130.749939
 20
167.354294
 30
0.0
 11
130.622279
 21
167.354294
 31
0.0
  0
LINE
  5
15E
100
AcDbEntity
  8
0095COMPONENTS
390
0
  6
KM_SOLID
 62
     4
100
AcDbLine
 10
131.388237
 20
167.554293
 30
0.0
 11
130.749939
 21
167.554293
 31
0.0
  0
LINE
  5
15F
100
AcDbEntity
  8
0095COMPONENTS
390
0
  6
KM_SOLID
 62
     4
100
AcDbLine
 10
130.622279
 20
167.554293
 30
0.0
 11
130.36696
 21
167.554293
 31
0.0
  0
LINE
  5
160
100
AcDbEntity
  8
0095COMPONENTS
390
0
  6
KM_SOLID
 62
     4
100
AcDbLine
 10
130.36696
 20
167.679294
 30
0.0
 11
130.622279
 21
167.679294
 31
0.0
  0
LINE
  5
161
100
AcDbEntity
  8
0095COMPONENTS
390
0
  6
KM_SOLID
 62
     4
100
AcDbLine
 10
130.749939
 20
167.679294
 30
0.0
 11
131.324407
 21
167.679294
 31
0.0
  0
LINE
  5
162
100
AcDbEntity
  8
0095COMPONENTS
390
0
  6
KM_SOLID
 62
     4
100
AcDbLine
 10
131.515896
 20
167.904294
 30
0.0
 11
131.643556
 21
167.904294
 31
0.0
  0
LINE
  5
163
100
AcDbEntity
  8
0095COMPONENTS
390
0
  6
KM_SOLID
 62
     4
100
AcDbLine
 10
130.622279
 20
167.954294
 30
0.0
 11
130.749939
 21
167.954294
 31
0.0
  0
LINE
  5
164
100
AcDbEntity
  8
0095COMPONENTS
390
0
  6
KM_SOLID
 62
     4
100
AcDbLine
 10
134.133642
 20
168.374294
 30
0.0
 11
133.974068
 21
168.374294
 31
0.0
  0
LINE
  5
165
100
AcDbEntity
  8
0095COMPONENTS
390
0
  6
KM_SOLID
 62
     4
100
AcDbLine
 10
133.048536
 20
169.124294
 30
0.0
 11
132.984706
 21
169.124294
 31
0.0
  0
LINE
  5
166
100
AcDbEntity
  8
0095COMPONENTS
390
0
  6
KM_SOLID
 62
   255
100
AcDbLine
 10
169.214798
 20
169.254371
 30
0.0
 11
161.214798
 21
169.254371
 31
0.0
  0
LINE
  5
167
100
AcDbEntity
  8
0095COMPONENTS
390
0
  6
KM_SOLID
 62
   255
100
AcDbLine
 10
98.214798
 20
169.254371
 30
0.0
 11
90.214798
 21
169.254371
 31
0.0
  0
LINE
  5
168
100
AcDbEntity
  8
0095COMPONENTS
390
0
  6
KM_SOLID
 62
     4
100
AcDbLine
 10
132.984706
 20
169.274294
 30
0.0
 11
133.048536
 21
169.274294
 31
0.0
  0
LINE
  5
169
100
AcDbEntity
  8
0095COMPONENTS
390
0
  6
KM_SOLID
 62
     4
100
AcDbLine
 10
133.974068
 20
169.274294
 30
0.0
 11
134.133642
 21
169.274294
 31
0.0
  0
LINE
  5
16A
100
AcDbEntity
  8
0095COMPONENTS
390
0
  6
KM_SOLID
 62
     4
100
AcDbLine
 10
131.069088
 20
169.354294
 30
0.0
 11
131.196747
 21
169.354294
 31
0.0
  0
LINE
  5
16B
100
AcDbEntity
  8
0095COMPONENTS
390
0
  6
KM_SOLID
 62
   255
100
AcDbLine
 10
91.114798
 20
169.354371
 30
0.0
 11
93.914798
 21
169.354371
 31
0.0
  0
LINE
  5
16C
100
AcDbEntity
  8
0095COMPONENTS
390
0
  6
KM_SOLID
 62
   255
100
AcDbLine
 10
165.514798
 20
169.354371
 30
0.0
 11
168.314798
 21
169.354371
 31
0.0
  0
LINE
  5
16D
100
AcDbEntity
  8
0095COMPONENTS
390
0
  6
KM_SOLID
 62
     4
100
AcDbLine
 10
131.069088
 20
169.479293
 30
0.0
 11
131.196747
 21
169.479293
 31
0.0
  0
LINE
  5
16E
100
AcDbEntity
  8
0095COMPONENTS
390
0
  6
KM_SOLID
 62
     4
100
AcDbLine
 10
131.196747
 20
170.029294
 30
0.0
 11
131.069088
 21
170.029294
 31
0.0
  0
LINE
  5
16F
100
AcDbEntity
  8
0095COMPONENTS
390
0
  6
KM_SOLID
 62
     4
100
AcDbLine
 10
131.196747
 20
170.154293
 30
0.0
 11
131.069088
 21
170.154293
 31
0.0
  0
LINE
  5
170
100
AcDbEntity
  8
0095COMPONENTS
390
0
  6
KM_SOLID
 62
     4
100
AcDbLine
 10
131.260577
 20
170.354294
 30
0.0
 11
130.622279
 21
170.354294
 31
0.0
  0
LINE
  5
171
100
AcDbEntity
  8
0095COMPONENTS
390
0
  6
KM_SOLID
 62
     4
100
AcDbLine
 10
130.622279
 20
170.479293
 30
0.0
 11
131.260577
 21
170.479293
 31
0.0
  0
LINE
  5
172
100
AcDbEntity
  8
0095COMPONENTS
390
0
  6
KM_SOLID
 62
     4
100
AcDbLine
 10
132.984706
 20
168.399294
 30
0.0
 11
132.857046
 21
168.424294
 31
0.0
  0
LINE
  5
173
100
AcDbEntity
  8
0095COMPONENTS
390
0
  6
KM_SOLID
 62
     4
100
AcDbLine
 10
130.941428
 20
169.379294
 30
0.0
 11
131.069088
 21
169.354294
 31
0.0
  0
LINE
  5
174
100
AcDbEntity
  8
0095COMPONENTS
390
0
  6
KM_SOLID
 62
     4
100
AcDbLine
 10
130.941428
 20
169.504294
 30
0.0
 11
131.069088
 21
169.479293
 31
0.0
  0
LINE
  5
175
100
AcDbEntity
  8
0095COMPONENTS
390
0
  6
KM_SOLID
 62
     4
100
AcDbLine
 10
133.048536
 20
169.274294
 30
0.0
 11
133.176195
 21
169.249294
 31
0.0
  0
LINE
  5
176
100
AcDbEntity
  8
0095COMPONENTS
390
0
  6
KM_SOLID
 62
     4
100
AcDbLine
 10
131.324407
 20
170.004293
 30
0.0
 11
131.196747
 21
170.029294
 31
0.0
  0
LINE
  5
177
100
AcDbEntity
  8
0095COMPONENTS
390
0
  6
KM_SOLID
 62
     4
100
AcDbLine
 10
146.704407
 20
164.521794
 30
0.0
 11
146.002279
 21
164.678043
 31
0.0
  0
LINE
  5
178
100
AcDbEntity
  8
0095COMPONENTS
390
0
  6
KM_SOLID
 62
     4
100
AcDbLine
 10
146.321428
 20
164.740544
 30
0.0
 11
147.023556
 21
164.584293
 31
0.0
  0
LINE
  5
179
100
AcDbEntity
  8
0095COMPONENTS
390
0
  6
KM_SOLID
 62
     4
100
AcDbLine
 10
131.420151
 20
170.104294
 30
0.0
 11
131.196747
 21
170.154293
 31
0.0
  0
LINE
  5
17A
100
AcDbEntity
  8
0095COMPONENTS
390
0
  6
KM_SOLID
 62
     4
100
AcDbLine
 10
146.704407
 20
163.740543
 30
0.0
 11
146.576747
 21
163.771794
 31
0.0
  0
LINE
  5
17B
100
AcDbEntity
  8
0095COMPONENTS
390
0
  6
KM_SOLID
 62
     4
100
AcDbLine
 10
146.002279
 20
165.334293
 30
0.0
 11
147.023556
 21
165.084294
 31
0.0
  0
LINE
  5
17C
100
AcDbEntity
  8
0095COMPONENTS
390
0
  6
KM_SOLID
 62
     4
100
AcDbLine
 10
130.845683
 20
169.404293
 30
0.0
 11
130.941428
 21
169.379294
 31
0.0
  0
LINE
  5
17D
100
AcDbEntity
  8
0095COMPONENTS
390
0
  6
KM_SOLID
 62
     4
100
AcDbLine
 10
146.704407
 20
164.990544
 30
0.0
 11
146.002279
 21
165.178044
 31
0.0
  0
LINE
  5
17E
100
AcDbEntity
  8
0095COMPONENTS
390
0
  6
KM_SOLID
 62
     4
100
AcDbLine
 10
146.800151
 20
163.865544
 30
0.0
 11
146.576747
 21
163.928043
 31
0.0
  0
LINE
  5
17F
100
AcDbEntity
  8
0095COMPONENTS
390
0
  6
KM_SOLID
 62
     4
100
AcDbLine
 10
146.225683
 20
162.990543
 30
0.0
 11
146.321428
 21
162.959294
 31
0.0
  0
LINE
  5
180
100
AcDbEntity
  8
0095COMPONENTS
390
0
  6
KM_SOLID
 62
     4
100
AcDbLine
 10
133.176195
 20
169.074293
 30
0.0
 11
133.048536
 21
169.124294
 31
0.0
  0
LINE
  5
181
100
AcDbEntity
  8
0095COMPONENTS
390
0
  6
KM_SOLID
 62
     4
100
AcDbLine
 10
135.084132
 20
168.90458
 30
0.0
 11
135.903618
 21
168.554441
 31
0.0
  0
LINE
  5
182
100
AcDbEntity
  8
0095COMPONENTS
390
0
  6
KM_SOLID
 62
     4
100
AcDbLine
 10
146.257598
 20
161.709294
 30
0.0
 11
146.193768
 21
161.740544
 31
0.0
  0
LINE
  5
183
100
AcDbEntity
  8
0095COMPONENTS
390
0
  6
KM_SOLID
 62
     4
100
AcDbLine
 10
146.832066
 20
162.521793
 30
0.0
 11
146.895896
 21
162.490544
 31
0.0
  0
LINE
  5
184
100
AcDbEntity
  8
0095COMPONENTS
390
0
  6
KM_SOLID
 62
     4
100
AcDbLine
 10
130.749939
 20
169.454294
 30
0.0
 11
130.845683
 21
169.404293
 31
0.0
  0
LINE
  5
185
100
AcDbEntity
  8
0095COMPONENTS
390
0
  6
KM_SOLID
 62
     4
100
AcDbLine
 10
130.845683
 20
169.554293
 30
0.0
 11
130.941428
 21
169.504294
 31
0.0
  0
LINE
  5
186
100
AcDbEntity
  8
0095COMPONENTS
390
0
  6
KM_SOLID
 62
     4
100
AcDbLine
 10
132.888961
 20
168.574294
 30
0.0
 11
132.984706
 21
168.524294
 31
0.0
  0
LINE
  5
187
100
AcDbEntity
  8
0095COMPONENTS
390
0
  6
KM_SOLID
 62
     4
100
AcDbLine
 10
131.420151
 20
169.954294
 30
0.0
 11
131.324407
 21
170.004293
 31
0.0
  0
LINE
  5
188
100
AcDbEntity
  8
0095COMPONENTS
390
0
  6
KM_SOLID
 62
     4
100
AcDbLine
 10
131.515896
 20
170.054294
 30
0.0
 11
131.420151
 21
170.104294
 31
0.0
  0
LINE
  5
189
100
AcDbEntity
  8
0095COMPONENTS
390
0
  6
KM_SOLID
 62
     4
100
AcDbLine
 10
133.176195
 20
169.249294
 30
0.0
 11
133.27194
 21
169.199294
 31
0.0
  0
LINE
  5
18A
100
AcDbEntity
  8
0095COMPONENTS
390
0
  6
KM_SOLID
 62
     4
100
AcDbLine
 10
146.800151
 20
158.834293
 30
0.0
 11
146.704407
 21
158.896794
 31
0.0
  0
LINE
  5
18B
100
AcDbEntity
  8
0095COMPONENTS
390
0
  6
KM_SOLID
 62
     4
100
AcDbLine
 10
146.098024
 20
157.834294
 30
0.0
 11
146.225683
 21
157.740544
 31
0.0
  0
LINE
  5
18C
100
AcDbEntity
  8
0095COMPONENTS
390
0
  6
KM_SOLID
 62
     4
100
AcDbLine
 10
130.686109
 20
169.504294
 30
0.0
 11
130.749939
 21
169.454294
 31
0.0
  0
LINE
  5
18D
100
AcDbEntity
  8
0095COMPONENTS
390
0
  6
KM_SOLID
 62
     4
100
AcDbLine
 10
130.781854
 20
169.604294
 30
0.0
 11
130.845683
 21
169.554293
 31
0.0
  0
LINE
  5
18E
100
AcDbEntity
  8
0095COMPONENTS
390
0
  6
KM_SOLID
 62
     4
100
AcDbLine
 10
132.857046
 20
168.424294
 30
0.0
 11
132.729387
 21
168.524294
 31
0.0
  0
LINE
  5
18F
100
AcDbEntity
  8
0095COMPONENTS
390
0
  6
KM_SOLID
 62
     4
100
AcDbLine
 10
131.483981
 20
169.904294
 30
0.0
 11
131.420151
 21
169.954294
 31
0.0
  0
LINE
  5
190
100
AcDbEntity
  8
0095COMPONENTS
390
0
  6
KM_SOLID
 62
     4
100
AcDbLine
 10
145.74696
 20
154.584294
 30
0.0
 11
145.523556
 21
154.771794
 31
0.0
  0
LINE
  5
191
100
AcDbEntity
  8
0095COMPONENTS
390
0
  6
KM_SOLID
 62
     4
100
AcDbLine
 10
145.778875
 20
154.771794
 30
0.0
 11
146.002279
 21
154.584294
 31
0.0
  0
LINE
  5
192
100
AcDbEntity
  8
0095COMPONENTS
390
0
  6
KM_SOLID
 62
     4
100
AcDbLine
 10
147.28618
 20
153.504294
 30
0.0
 11
146.577198
 21
154.103963
 31
0.0
  0
LINE
  5
193
100
AcDbEntity
  8
0095COMPONENTS
390
0
  6
KM_SOLID
 62
     4
100
AcDbLine
 10
130.654194
 20
169.554293
 30
0.0
 11
130.686109
 21
169.504294
 31
0.0
  0
LINE
  5
194
100
AcDbEntity
  8
0095COMPONENTS
390
0
  6
KM_SOLID
 62
     4
100
AcDbLine
 10
129.326166
 20
158.64767
 30
0.0
 11
130.915996
 21
152.724654
 31
0.0
  0
LINE
  5
195
100
AcDbEntity
  8
0095COMPONENTS
390
0
  6
KM_SOLID
 62
     4
100
AcDbLine
 10
131.197328
 20
161.894367
 30
0.0
 11
131.710041
 21
159.98422
 31
0.0
  0
LINE
  5
196
100
AcDbEntity
  8
0095COMPONENTS
390
0
  6
KM_SOLID
 62
     4
100
AcDbLine
 10
130.143556
 20
165.554294
 30
0.0
 11
130.143556
 21
166.504294
 31
0.0
  0
LINE
  5
197
100
AcDbEntity
  8
0095COMPONENTS
390
0
  6
KM_SOLID
 62
     4
100
AcDbLine
 10
130.143556
 20
166.704293
 30
0.0
 11
130.143556
 21
166.829294
 31
0.0
  0
LINE
  5
198
100
AcDbEntity
  8
0095COMPONENTS
390
0
  6
KM_SOLID
 62
     4
100
AcDbLine
 10
130.143556
 20
167.029293
 30
0.0
 11
130.143556
 21
167.154294
 31
0.0
  0
LINE
  5
199
100
AcDbEntity
  8
0095COMPONENTS
390
0
  6
KM_SOLID
 62
   255
100
AcDbLine
 10
130.18016
 20
184.454371
 30
0.0
 11
130.18016
 21
180.958538
 31
0.0
  0
LINE
  5
19A
100
AcDbEntity
  8
0095COMPONENTS
390
0
  6
KM_SOLID
 62
     4
100
AcDbLine
 10
130.30313
 20
166.829294
 30
0.0
 11
130.30313
 21
166.704293
 31
0.0
  0
LINE
  5
19B
100
AcDbEntity
  8
0095COMPONENTS
390
0
  6
KM_SOLID
 62
     4
100
AcDbLine
 10
130.30313
 20
166.504294
 30
0.0
 11
130.30313
 21
166.104294
 31
0.0
  0
LINE
  5
19C
100
AcDbEntity
  8
0095COMPONENTS
390
0
  6
KM_SOLID
 62
     4
100
AcDbLine
 10
130.30313
 20
165.954294
 30
0.0
 11
130.30313
 21
165.554294
 31
0.0
  0
LINE
  5
19D
100
AcDbEntity
  8
0095COMPONENTS
390
0
  6
KM_SOLID
 62
   255
100
AcDbLine
 10
130.314798
 20
206.541371
 30
0.0
 11
130.314798
 21
204.948787
 31
0.0
  0
LINE
  5
19E
100
AcDbEntity
  8
0095COMPONENTS
390
0
  6
KM_SOLID
 62
     4
100
AcDbLine
 10
130.36696
 20
167.554293
 30
0.0
 11
130.36696
 21
167.679294
 31
0.0
  0
LINE
  5
19F
100
AcDbEntity
  8
0095COMPONENTS
390
0
  6
KM_SOLID
 62
     4
100
AcDbLine
 10
130.36696
 20
171.554294
 30
0.0
 11
130.36696
 21
171.679293
 31
0.0
  0
LINE
  5
1A0
100
AcDbEntity
  8
0095COMPONENTS
390
0
  6
KM_SOLID
 62
     4
100
AcDbLine
 10
130.622279
 20
169.854293
 30
0.0
 11
130.622279
 21
169.654294
 31
0.0
  0
LINE
  5
1A1
100
AcDbEntity
  8
0095COMPONENTS
390
0
  6
KM_SOLID
 62
     4
100
AcDbLine
 10
130.622279
 20
166.704293
 30
0.0
 11
130.622279
 21
166.829294
 31
0.0
  0
LINE
  5
1A2
100
AcDbEntity
  8
0095COMPONENTS
390
0
  6
KM_SOLID
 62
     4
100
AcDbLine
 10
130.622279
 20
167.354294
 30
0.0
 11
130.622279
 21
167.554293
 31
0.0
  0
LINE
  5
1A3
100
AcDbEntity
  8
0095COMPONENTS
390
0
  6
KM_SOLID
 62
     4
100
AcDbLine
 10
130.622279
 20
167.679294
 30
0.0
 11
130.622279
 21
167.954294
 31
0.0
  0
LINE
  5
1A4
100
AcDbEntity
  8
0095COMPONENTS
390
0
  6
KM_SOLID
 62
     4
100
AcDbLine
 10
130.622279
 20
170.354294
 30
0.0
 11
130.622279
 21
170.479293
 31
0.0
  0
LINE
  5
1A5
100
AcDbEntity
  8
0095COMPONENTS
390
0
  6
KM_SOLID
 62
     4
100
AcDbLine
 10
130.622279
 20
170.979294
 30
0.0
 11
130.622279
 21
171.104294
 31
0.0
  0
LINE
  5
1A6
100
AcDbEntity
  8
0095COMPONENTS
390
0
  6
KM_SOLID
 62
     4
100
AcDbLine
 10
130.622279
 20
171.354294
 30
0.0
 11
130.622279
 21
171.554294
 31
0.0
  0
LINE
  5
1A7
100
AcDbEntity
  8
0095COMPONENTS
390
0
  6
KM_SOLID
 62
     4
100
AcDbLine
 10
130.622279
 20
171.679293
 30
0.0
 11
130.622279
 21
171.954294
 31
0.0
  0
LINE
  5
1A8
100
AcDbEntity
  8
0095COMPONENTS
390
0
  6
KM_SOLID
 62
     4
100
AcDbLine
 10
130.714798
 20
159.99432
 30
0.0
 11
130.714798
 21
153.474233
 31
0.0
  0
LINE
  5
1A9
100
AcDbEntity
  8
0095COMPONENTS
390
0
  6
KM_SOLID
 62
     4
100
AcDbLine
 10
130.749939
 20
171.954294
 30
0.0
 11
130.749939
 21
171.679293
 31
0.0
  0
LINE
  5
1AA
100
AcDbEntity
  8
0095COMPONENTS
390
0
  6
KM_SOLID
 62
     4
100
AcDbLine
 10
130.749939
 20
171.554294
 30
0.0
 11
130.749939
 21
171.354294
 31
0.0
  0
LINE
  5
1AB
100
AcDbEntity
  8
0095COMPONENTS
390
0
  6
KM_SOLID
 62
     4
100
AcDbLine
 10
130.749939
 20
169.804294
 30
0.0
 11
130.749939
 21
169.704293
 31
0.0
  0
LINE
  5
1AC
100
AcDbEntity
  8
0095COMPONENTS
390
0
  6
KM_SOLID
 62
     4
100
AcDbLine
 10
130.749939
 20
167.954294
 30
0.0
 11
130.749939
 21
167.679294
 31
0.0
  0
LINE
  5
1AD
100
AcDbEntity
  8
0095COMPONENTS
390
0
  6
KM_SOLID
 62
     4
100
AcDbLine
 10
130.749939
 20
167.554293
 30
0.0
 11
130.749939
 21
167.354294
 31
0.0
  0
LINE
  5
1AE
100
AcDbEntity
  8
0095COMPONENTS
390
0
  6
KM_SOLID
 62
   255
100
AcDbLine
 10
130.814798
 20
206.541371
 30
0.0
 11
130.814798
 21
204.95065
 31
0.0
  0
LINE
  5
1AF
100
AcDbEntity
  8
0095COMPONENTS
390
0
  6
KM_SOLID
 62
   255
100
AcDbLine
 10
130.914798
 20
204.951022
 30
0.0
 11
130.914798
 21
202.754371
 31
0.0
  0
LINE
  5
1B0
100
AcDbEntity
  8
0095COMPONENTS
390
0
  6
KM_SOLID
 62
   255
100
AcDbLine
 10
131.312523
 20
179.454371
 30
0.0
 11
131.312523
 21
184.454371
 31
0.0
  0
LINE
  5
1B1
100
AcDbEntity
  8
0095COMPONENTS
390
0
  6
KM_SOLID
 62
     4
100
AcDbLine
 10
131.515896
 20
169.704293
 30
0.0
 11
131.515896
 21
169.804294
 31
0.0
  0
LINE
  5
1B2
100
AcDbEntity
  8
0095COMPONENTS
390
0
  6
KM_SOLID
 62
     4
100
AcDbLine
 10
131.515896
 20
170.654294
 30
0.0
 11
131.515896
 21
170.754294
 31
0.0
  0
LINE
  5
1B3
100
AcDbEntity
  8
0095COMPONENTS
390
0
  6
KM_SOLID
 62
     4
100
AcDbLine
 10
131.643556
 20
171.154293
 30
0.0
 11
131.643556
 21
171.029294
 31
0.0
  0
LINE
  5
1B4
100
AcDbEntity
  8
0095COMPONENTS
390
0
  6
KM_SOLID
 62
     4
100
AcDbLine
 10
131.643556
 20
170.754294
 30
0.0
 11
131.643556
 21
170.654294
 31
0.0
  0
LINE
  5
1B5
100
AcDbEntity
  8
0095COMPONENTS
390
0
  6
KM_SOLID
 62
     4
100
AcDbLine
 10
131.643556
 20
167.154294
 30
0.0
 11
131.643556
 21
167.029293
 31
0.0
  0
LINE
  5
1B6
100
AcDbEntity
  8
0095COMPONENTS
390
0
  6
KM_SOLID
 62
     4
100
AcDbLine
 10
131.643556
 20
166.829294
 30
0.0
 11
131.643556
 21
166.704293
 31
0.0
  0
LINE
  5
1B7
100
AcDbEntity
  8
0095COMPONENTS
390
0
  6
KM_SOLID
 62
     4
100
AcDbLine
 10
131.643556
 20
166.104294
 30
0.0
 11
131.643556
 21
165.954294
 31
0.0
  0
LINE
  5
1B8
100
AcDbEntity
  8
0095COMPONENTS
390
0
  6
KM_SOLID
 62
     4
100
AcDbLine
 10
131.643556
 20
169.654294
 30
0.0
 11
131.643556
 21
169.854293
 31
0.0
  0
LINE
  5
1B9
100
AcDbEntity
  8
0095COMPONENTS
390
0
  6
KM_SOLID
 62
   255
100
AcDbLine
 10
131.823318
 20
184.454371
 30
0.0
 11
131.823318
 21
183.166871
 31
0.0
  0
LINE
  5
1BA
100
AcDbEntity
  8
0095COMPONENTS
390
0
  6
KM_SOLID
 62
     4
100
AcDbLine
 10
131.643556
 20
171.904293
 30
0.0
 11
131.611641
 21
171.754293
 31
0.0
  0
LINE
  5
1BB
100
AcDbEntity
  8
0095COMPONENTS
390
0
  6
KM_SOLID
 62
     4
100
AcDbLine
 10
131.483981
 20
171.779294
 30
0.0
 11
131.515896
 21
171.904293
 31
0.0
  0
LINE
  5
1BC
100
AcDbEntity
  8
0095COMPONENTS
390
0
  6
KM_SOLID
 62
     4
100
AcDbLine
 10
130.654194
 20
169.954294
 30
0.0
 11
130.622279
 21
169.854293
 31
0.0
  0
LINE
  5
1BD
100
AcDbEntity
  8
0095COMPONENTS
390
0
  6
KM_SOLID
 62
     4
100
AcDbLine
 10
130.781854
 20
169.904294
 30
0.0
 11
130.749939
 21
169.804294
 31
0.0
  0
LINE
  5
1BE
100
AcDbEntity
  8
0095COMPONENTS
390
0
  6
KM_SOLID
 62
   255
100
AcDbLine
 10
140.091351
 20
183.187988
 30
0.0
 11
140.033017
 21
183.128414
 31
0.0
  0
LINE
  5
1BF
100
AcDbEntity
  8
0095COMPONENTS
390
0
  6
KM_SOLID
 62
     4
100
AcDbLine
 10
131.324407
 20
171.679293
 30
0.0
 11
131.420151
 21
171.704294
 31
0.0
  0
LINE
  5
1C0
100
AcDbEntity
  8
0095COMPONENTS
390
0
  6
KM_SOLID
 62
     4
100
AcDbLine
 10
131.452066
 20
171.104294
 30
0.0
 11
131.579726
 21
171.129294
 31
0.0
  0
LINE
  5
1C1
100
AcDbEntity
  8
0095COMPONENTS
390
0
  6
KM_SOLID
 62
     4
100
AcDbLine
 10
131.324407
 20
170.979294
 30
0.0
 11
130.622279
 21
170.979294
 31
0.0
  0
LINE
  5
1C2
100
AcDbEntity
  8
0095COMPONENTS
390
0
  6
KM_SOLID
 62
     4
100
AcDbLine
 10
130.622279
 20
171.104294
 30
0.0
 11
131.452066
 21
171.104294
 31
0.0
  0
LINE
  5
1C3
100
AcDbEntity
  8
0095COMPONENTS
390
0
  6
KM_SOLID
 62
     4
100
AcDbLine
 10
130.749939
 20
171.354294
 30
0.0
 11
130.622279
 21
171.354294
 31
0.0
  0
LINE
  5
1C4
100
AcDbEntity
  8
0095COMPONENTS
390
0
  6
KM_SOLID
 62
     4
100
AcDbLine
 10
131.388237
 20
171.554294
 30
0.0
 11
130.749939
 21
171.554294
 31
0.0
  0
LINE
  5
1C5
100
AcDbEntity
  8
0095COMPONENTS
390
0
  6
KM_SOLID
 62
     4
100
AcDbLine
 10
130.622279
 20
171.554294
 30
0.0
 11
130.36696
 21
171.554294
 31
0.0
  0
LINE
  5
1C6
100
AcDbEntity
  8
0095COMPONENTS
390
0
  6
KM_SOLID
 62
     4
100
AcDbLine
 10
130.36696
 20
171.679293
 30
0.0
 11
130.622279
 21
171.679293
 31
0.0
  0
LINE
  5
1C7
100
AcDbEntity
  8
0095COMPONENTS
390
0
  6
KM_SOLID
 62
     4
100
AcDbLine
 10
130.749939
 20
171.679293
 30
0.0
 11
131.324407
 21
171.679293
 31
0.0
  0
LINE
  5
1C8
100
AcDbEntity
  8
0095COMPONENTS
390
0
  6
KM_SOLID
 62
     4
100
AcDbLine
 10
131.515896
 20
171.904293
 30
0.0
 11
131.643556
 21
171.904293
 31
0.0
  0
LINE
  5
1C9
100
AcDbEntity
  8
0095COMPONENTS
390
0
  6
KM_SOLID
 62
     4
100
AcDbLine
 10
130.622279
 20
171.954294
 30
0.0
 11
130.749939
 21
171.954294
 31
0.0
  0
LINE
  5
1CA
100
AcDbEntity
  8
0095COMPONENTS
390
0
  6
KM_SOLID
 62
   255
100
AcDbLine
 10
98.714798
 20
173.254371
 30
0.0
 11
98.214798
 21
173.254371
 31
0.0
  0
LINE
  5
1CB
100
AcDbEntity
  8
0095COMPONENTS
390
0
  6
KM_SOLID
 62
   255
100
AcDbLine
 10
160.714798
 20
173.254371
 30
0.0
 11
161.214798
 21
173.254371
 31
0.0
  0
LINE
  5
1CC
100
AcDbEntity
  8
0095COMPONENTS
390
0
  6
KM_SOLID
 62
     4
100
AcDbLine
 10
131.420151
 20
170.929293
 30
0.0
 11
131.324407
 21
170.979294
 31
0.0
  0
LINE
  5
1CD
100
AcDbEntity
  8
0095COMPONENTS
390
0
  6
KM_SOLID
 62
     4
100
AcDbLine
 10
146.321428
 20
161.865543
 30
0.0
 11
146.225683
 21
161.928044
 31
0.0
  0
LINE
  5
1CE
100
AcDbEntity
  8
0095COMPONENTS
390
0
  6
KM_SOLID
 62
     4
100
AcDbLine
 10
146.672492
 20
162.521793
 30
0.0
 11
146.768237
 21
162.459294
 31
0.0
  0
LINE
  5
1CF
100
AcDbEntity
  8
0095COMPONENTS
390
0
  6
KM_SOLID
 62
     4
100
AcDbLine
 10
146.129939
 20
163.053044
 30
0.0
 11
146.225683
 21
162.990543
 31
0.0
  0
LINE
  5
1D0
100
AcDbEntity
  8
0095COMPONENTS
390
0
  6
KM_SOLID
 62
     4
100
AcDbLine
 10
146.225683
 20
163.178043
 30
0.0
 11
146.321428
 21
163.115544
 31
0.0
  0
LINE
  5
1D1
100
AcDbEntity
  8
0095COMPONENTS
390
0
  6
KM_SOLID
 62
     4
100
AcDbLine
 10
146.800151
 20
163.678044
 30
0.0
 11
146.704407
 21
163.740543
 31
0.0
  0
LINE
  5
1D2
100
AcDbEntity
  8
0095COMPONENTS
390
0
  6
KM_SOLID
 62
     4
100
AcDbLine
 10
146.895896
 20
163.803044
 30
0.0
 11
146.800151
 21
163.865544
 31
0.0
  0
LINE
  5
1D3
100
AcDbEntity
  8
0095COMPONENTS
390
0
  6
KM_SOLID
 62
     4
100
AcDbLine
 10
131.579726
 20
170.004293
 30
0.0
 11
131.515896
 21
170.054294
 31
0.0
  0
LINE
  5
1D4
100
AcDbEntity
  8
0095COMPONENTS
390
0
  6
KM_SOLID
 62
     4
100
AcDbLine
 10
131.483981
 20
170.979294
 30
0.0
 11
131.579726
 21
170.904294
 31
0.0
  0
LINE
  5
1D5
100
AcDbEntity
  8
0095COMPONENTS
390
0
  6
KM_SOLID
 62
     4
100
AcDbLine
 10
133.974068
 20
168.374294
 30
0.0
 11
133.176195
 21
169.074293
 31
0.0
  0
LINE
  5
1D6
100
AcDbEntity
  8
0095COMPONENTS
390
0
  6
KM_SOLID
 62
     4
100
AcDbLine
 10
133.27194
 20
169.199294
 30
0.0
 11
133.974068
 21
168.574294
 31
0.0
  0
LINE
  5
1D7
100
AcDbEntity
  8
0095COMPONENTS
390
0
  6
KM_SOLID
 62
     4
100
AcDbLine
 10
146.129939
 20
157.584294
 30
0.0
 11
146.066109
 21
157.646794
 31
0.0
  0
LINE
  5
1D8
100
AcDbEntity
  8
0095COMPONENTS
390
0
  6
KM_SOLID
 62
     4
100
AcDbLine
 10
146.863981
 20
158.896794
 30
0.0
 11
146.959726
 21
158.803044
 31
0.0
  0
LINE
  5
1D9
100
AcDbEntity
  8
0095COMPONENTS
390
0
  6
KM_SOLID
 62
     4
100
AcDbLine
 10
132.825131
 20
168.649294
 30
0.0
 11
132.888961
 21
168.574294
 31
0.0
  0
LINE
  5
1DA
100
AcDbEntity
  8
0095COMPONENTS
390
0
  6
KM_SOLID
 62
     4
100
AcDbLine
 10
131.483981
 20
170.854293
 30
0.0
 11
131.420151
 21
170.929293
 31
0.0
  0
LINE
  5
1DB
100
AcDbEntity
  8
0095COMPONENTS
390
0
  6
KM_SOLID
 62
     4
100
AcDbLine
 10
131.611641
 20
169.954294
 30
0.0
 11
131.579726
 21
170.004293
 31
0.0
  0
LINE
  5
1DC
100
AcDbEntity
  8
0095COMPONENTS
390
0
  6
KM_SOLID
 62
     4
100
AcDbLine
 10
132.729387
 20
168.524294
 30
0.0
 11
132.665557
 21
168.624294
 31
0.0
  0
LINE
  5
1DD
100
AcDbEntity
  8
0095COMPONENTS
390
0
  6
KM_SOLID
 62
     4
100
AcDbLine
 10
131.579726
 20
170.904294
 30
0.0
 11
131.611641
 21
170.854293
 31
0.0
  0
LINE
  5
1DE
100
AcDbEntity
  8
0095COMPONENTS
390
0
  6
KM_SOLID
 62
     4
100
AcDbLine
 10
130.622279
 20
169.654294
 30
0.0
 11
130.654194
 21
169.554293
 31
0.0
  0
LINE
  5
1DF
100
AcDbEntity
  8
0095COMPONENTS
390
0
  6
KM_SOLID
 62
     4
100
AcDbLine
 10
130.749939
 20
169.704293
 30
0.0
 11
130.781854
 21
169.604294
 31
0.0
  0
LINE
  5
1E0
100
AcDbEntity
  8
0095COMPONENTS
390
0
  6
KM_SOLID
 62
     4
100
AcDbLine
 10
131.515896
 20
169.804294
 30
0.0
 11
131.483981
 21
169.904294
 31
0.0
  0
LINE
  5
1E1
100
AcDbEntity
  8
0095COMPONENTS
390
0
  6
KM_SOLID
 62
     4
100
AcDbLine
 10
131.643556
 20
169.854293
 30
0.0
 11
131.611641
 21
169.954294
 31
0.0
  0
LINE
  5
1E2
100
AcDbEntity
  8
0095COMPONENTS
390
0
  6
KM_SOLID
 62
     4
100
AcDbLine
 10
131.515896
 20
170.754294
 30
0.0
 11
131.483981
 21
170.854293
 31
0.0
  0
LINE
  5
1E3
100
AcDbEntity
  8
0095COMPONENTS
390
0
  6
KM_SOLID
 62
     4
100
AcDbLine
 10
131.611641
 20
170.854293
 30
0.0
 11
131.643556
 21
170.754294
 31
0.0
  0
LINE
  5
1E4
100
AcDbEntity
  8
0095COMPONENTS
390
0
  6
KM_SOLID
 62
     4
100
AcDbLine
 10
134.171099
 20
153.734561
 30
0.0
 11
134.133642
 21
153.874111
 31
0.0
  0
LINE
  5
1E5
100
AcDbEntity
  8
0095COMPONENTS
390
0
  6
KM_SOLID
 62
     4
100
AcDbLine
 10
134.636596
 20
153.508415
 30
0.0
 11
134.605486
 21
153.62432
 31
0.0
  0
LINE
  5
1E6
100
AcDbEntity
  8
0095COMPONENTS
390
0
  6
KM_SOLID
 62
     4
100
AcDbLine
 10
132.793216
 20
168.774294
 30
0.0
 11
132.825131
 21
168.649294
 31
0.0
  0
LINE
  5
1E7
100
AcDbEntity
  8
0095COMPONENTS
390
0
  6
KM_SOLID
 62
     4
100
AcDbLine
 10
132.665557
 20
168.624294
 30
0.0
 11
132.633642
 21
168.799293
 31
0.0
  0
LINE
  5
1E8
100
AcDbEntity
  8
0095COMPONENTS
390
0
  6
KM_SOLID
 62
     4
100
AcDbLine
 10
132.633642
 20
168.799293
 30
0.0
 11
132.633642
 21
168.899294
 31
0.0
  0
LINE
  5
1E9
100
AcDbEntity
  8
0095COMPONENTS
390
0
  6
KM_SOLID
 62
     4
100
AcDbLine
 10
132.793216
 20
168.874293
 30
0.0
 11
132.793216
 21
168.774294
 31
0.0
  0
LINE
  5
1EA
100
AcDbEntity
  8
0095COMPONENTS
390
0
  6
KM_SOLID
 62
     4
100
AcDbLine
 10
132.984706
 20
168.524294
 30
0.0
 11
132.984706
 21
168.399294
 31
0.0
  0
LINE
  5
1EB
100
AcDbEntity
  8
0095COMPONENTS
390
0
  6
KM_SOLID
 62
     4
100
AcDbLine
 10
133.383571
 20
162.394308
 30
0.0
 11
133.383571
 21
160.394285
 31
0.0
  0
LINE
  5
1EC
100
AcDbEntity
  8
0095COMPONENTS
390
0
  6
KM_SOLID
 62
   255
100
AcDbLine
 10
133.448011
 20
183.166871
 30
0.0
 11
133.448011
 21
179.454371
 31
0.0
  0
LINE
  5
1ED
100
AcDbEntity
  8
0095COMPONENTS
390
0
  6
KM_SOLID
 62
     4
100
AcDbLine
 10
133.974068
 20
168.574294
 30
0.0
 11
133.974068
 21
169.274294
 31
0.0
  0
LINE
  5
1EE
100
AcDbEntity
  8
0095COMPONENTS
390
0
  6
KM_SOLID
 62
     4
100
AcDbLine
 10
134.133642
 20
169.274294
 30
0.0
 11
134.133642
 21
168.374294
 31
0.0
  0
LINE
  5
1EF
100
AcDbEntity
  8
0095COMPONENTS
390
0
  6
KM_SOLID
 62
     4
100
AcDbLine
 10
134.133642
 20
153.724228
 30
0.0
 11
134.133642
 21
153.874111
 31
0.0
  0
LINE
  5
1F0
100
AcDbEntity
  8
0095COMPONENTS
390
0
  6
KM_SOLID
 62
     4
100
AcDbLine
 10
134.503576
 20
153.367155
 30
0.0
 11
134.503576
 21
153.517038
 31
0.0
  0
LINE
  5
1F1
100
AcDbEntity
  8
0095COMPONENTS
390
0
  6
KM_SOLID
 62
   255
100
AcDbLine
 10
134.580375
 20
179.454371
 30
0.0
 11
134.580375
 21
183.166871
 31
0.0
  0
LINE
  5
1F2
100
AcDbEntity
  8
0095COMPONENTS
390
0
  6
KM_SOLID
 62
   255
100
AcDbLine
 10
134.714798
 20
205.126994
 30
0.0
 11
134.714798
 21
204.869313
 31
0.0
  0
LINE
  5
1F3
100
AcDbEntity
  8
0095COMPONENTS
390
0
  6
KM_SOLID
 62
     4
100
AcDbLine
 10
134.743582
 20
153.52426
 30
0.0
 11
134.743582
 21
152.954339
 31
0.0
  0
LINE
  5
1F4
100
AcDbEntity
  8
0095COMPONENTS
390
0
  6
KM_SOLID
 62
     4
100
AcDbLine
 10
134.893559
 20
153.674143
 30
0.0
 11
134.893559
 21
153.104222
 31
0.0
  0
LINE
  5
1F5
100
AcDbEntity
  8
0095COMPONENTS
390
0
  6
KM_SOLID
 62
     4
100
AcDbLine
 10
131.643556
 20
167.904294
 30
0.0
 11
131.611641
 21
167.754294
 31
0.0
  0
LINE
  5
1F6
100
AcDbEntity
  8
0095COMPONENTS
390
0
  6
KM_SOLID
 62
     4
100
AcDbLine
 10
132.633642
 20
168.899294
 30
0.0
 11
132.665557
 21
169.049294
 31
0.0
  0
LINE
  5
1F7
100
AcDbEntity
  8
0095COMPONENTS
390
0
  6
KM_SOLID
 62
     4
100
AcDbLine
 10
131.483981
 20
167.779293
 30
0.0
 11
131.515896
 21
167.904294
 31
0.0
  0
LINE
  5
1F8
100
AcDbEntity
  8
0095COMPONENTS
390
0
  6
KM_SOLID
 62
     4
100
AcDbLine
 10
132.825131
 20
168.999293
 30
0.0
 11
132.793216
 21
168.874293
 31
0.0
  0
LINE
  5
1F9
100
AcDbEntity
  8
0095COMPONENTS
390
0
  6
KM_SOLID
 62
     4
100
AcDbLine
 10
131.643556
 20
170.654294
 30
0.0
 11
131.611641
 21
170.554293
 31
0.0
  0
LINE
  5
1FA
100
AcDbEntity
  8
0095COMPONENTS
390
0
  6
KM_SOLID
 62
     4
100
AcDbLine
 10
131.483981
 20
169.604294
 30
0.0
 11
131.515896
 21
169.704293
 31
0.0
  0
LINE
  5
1FB
100
AcDbEntity
  8
0095COMPONENTS
390
0
  6
KM_SOLID
 62
     4
100
AcDbLine
 10
131.611641
 20
169.554293
 30
0.0
 11
131.643556
 21
169.654294
 31
0.0
  0
LINE
  5
1FC
100
AcDbEntity
  8
0095COMPONENTS
390
0
  6
KM_SOLID
 62
     4
100
AcDbLine
 10
131.611641
 20
171.754293
 30
0.0
 11
131.579726
 21
171.679293
 31
0.0
  0
LINE
  5
1FD
100
AcDbEntity
  8
0095COMPONENTS
390
0
  6
KM_SOLID
 62
     4
100
AcDbLine
 10
131.611641
 20
167.754294
 30
0.0
 11
131.579726
 21
167.679294
 31
0.0
  0
LINE
  5
1FE
100
AcDbEntity
  8
0095COMPONENTS
390
0
  6
KM_SOLID
 62
     4
100
AcDbLine
 10
130.686109
 20
170.004293
 30
0.0
 11
130.654194
 21
169.954294
 31
0.0
  0
LINE
  5
1FF
100
AcDbEntity
  8
0095COMPONENTS
390
0
  6
KM_SOLID
 62
     4
100
AcDbLine
 10
131.452066
 20
170.554293
 30
0.0
 11
131.515896
 21
170.654294
 31
0.0
  0
LINE
  5
200
100
AcDbEntity
  8
0095COMPONENTS
390
0
  6
KM_SOLID
 62
     4
100
AcDbLine
 10
131.579726
 20
169.504294
 30
0.0
 11
131.611641
 21
169.554293
 31
0.0
  0
LINE
  5
201
100
AcDbEntity
  8
0095COMPONENTS
390
0
  6
KM_SOLID
 62
     4
100
AcDbLine
 10
132.665557
 20
169.049294
 30
0.0
 11
132.729387
 21
169.149293
 31
0.0
  0
LINE
  5
202
100
AcDbEntity
  8
0095COMPONENTS
390
0
  6
KM_SOLID
 62
   255
100
AcDbLine
 10
140.178851
 20
183.039052
 30
0.0
 11
140.266351
 21
183.158201
 31
0.0
  0
LINE
  5
203
100
AcDbEntity
  8
0095COMPONENTS
390
0
  6
KM_SOLID
 62
     4
100
AcDbLine
 10
131.420151
 20
171.704294
 30
0.0
 11
131.483981
 21
171.779294
 31
0.0
  0
LINE
  5
204
100
AcDbEntity
  8
0095COMPONENTS
390
0
  6
KM_SOLID
 62
     4
100
AcDbLine
 10
131.579726
 20
171.679293
 30
0.0
 11
131.515896
 21
171.604293
 31
0.0
  0
LINE
  5
205
100
AcDbEntity
  8
0095COMPONENTS
390
0
  6
KM_SOLID
 62
     4
100
AcDbLine
 10
131.611641
 20
170.554293
 30
0.0
 11
131.547811
 21
170.479293
 31
0.0
  0
LINE
  5
206
100
AcDbEntity
  8
0095COMPONENTS
390
0
  6
KM_SOLID
 62
     4
100
AcDbLine
 10
131.420151
 20
167.704293
 30
0.0
 11
131.483981
 21
167.779293
 31
0.0
  0
LINE
  5
207
100
AcDbEntity
  8
0095COMPONENTS
390
0
  6
KM_SOLID
 62
     4
100
AcDbLine
 10
131.579726
 20
167.679294
 30
0.0
 11
131.515896
 21
167.604294
 31
0.0
  0
LINE
  5
208
100
AcDbEntity
  8
0095COMPONENTS
390
0
  6
KM_SOLID
 62
     4
100
AcDbLine
 10
132.888961
 20
169.074293
 30
0.0
 11
132.825131
 21
168.999293
 31
0.0
  0
LINE
  5
209
100
AcDbEntity
  8
0095COMPONENTS
390
0
  6
KM_SOLID
 62
     4
100
AcDbLine
 10
130.749939
 20
170.054294
 30
0.0
 11
130.686109
 21
170.004293
 31
0.0
  0
LINE
  5
20A
100
AcDbEntity
  8
0095COMPONENTS
390
0
  6
KM_SOLID
 62
     4
100
AcDbLine
 10
130.845683
 20
169.954294
 30
0.0
 11
130.781854
 21
169.904294
 31
0.0
  0
LINE
  5
20B
100
AcDbEntity
  8
0095COMPONENTS
390
0
  6
KM_SOLID
 62
     4
100
AcDbLine
 10
131.547811
 20
170.479293
 30
0.0
 11
131.452066
 21
170.404293
 31
0.0
  0
LINE
  5
20C
100
AcDbEntity
  8
0095COMPONENTS
390
0
  6
KM_SOLID
 62
     4
100
AcDbLine
 10
131.420151
 20
169.554293
 30
0.0
 11
131.483981
 21
169.604294
 31
0.0
  0
LINE
  5
20D
100
AcDbEntity
  8
0095COMPONENTS
390
0
  6
KM_SOLID
 62
     4
100
AcDbLine
 10
131.515896
 20
169.454294
 30
0.0
 11
131.579726
 21
169.504294
 31
0.0
  0
LINE
  5
20E
100
AcDbEntity
  8
0095COMPONENTS
390
0
  6
KM_SOLID
 62
     4
100
AcDbLine
 10
131.356322
 20
170.504294
 30
0.0
 11
131.452066
 21
170.554293
 31
0.0
  0
LINE
  5
20F
100
AcDbEntity
  8
0095COMPONENTS
390
0
  6
KM_SOLID
 62
     4
100
AcDbLine
 10
130.845683
 20
170.104294
 30
0.0
 11
130.749939
 21
170.054294
 31
0.0
  0
LINE
  5
210
100
AcDbEntity
  8
0095COMPONENTS
390
0
  6
KM_SOLID
 62
     4
100
AcDbLine
 10
130.941428
 20
170.004293
 30
0.0
 11
130.845683
 21
169.954294
 31
0.0
  0
LINE
  5
211
100
AcDbEntity
  8
0095COMPONENTS
390
0
  6
KM_SOLID
 62
     4
100
AcDbLine
 10
131.324407
 20
169.504294
 30
0.0
 11
131.420151
 21
169.554293
 31
0.0
  0
LINE
  5
212
100
AcDbEntity
  8
0095COMPONENTS
390
0
  6
KM_SOLID
 62
     4
100
AcDbLine
 10
131.420151
 20
169.404293
 30
0.0
 11
131.515896
 21
169.454294
 31
0.0
  0
LINE
  5
213
100
AcDbEntity
  8
0095COMPONENTS
390
0
  6
KM_SOLID
 62
     4
100
AcDbLine
 10
131.515896
 20
171.604293
 30
0.0
 11
131.388237
 21
171.554294
 31
0.0
  0
LINE
  5
214
100
AcDbEntity
  8
0095COMPONENTS
390
0
  6
KM_SOLID
 62
     4
100
AcDbLine
 10
131.579726
 20
171.129294
 30
0.0
 11
131.643556
 21
171.154293
 31
0.0
  0
LINE
  5
215
100
AcDbEntity
  8
0095COMPONENTS
390
0
  6
KM_SOLID
 62
     4
100
AcDbLine
 10
131.452066
 20
170.404293
 30
0.0
 11
131.388237
 21
170.379294
 31
0.0
  0
LINE
  5
216
100
AcDbEntity
  8
0095COMPONENTS
390
0
  6
KM_SOLID
 62
     4
100
AcDbLine
 10
131.643556
 20
171.029294
 30
0.0
 11
131.483981
 21
170.979294
 31
0.0
  0
LINE
  5
217
100
AcDbEntity
  8
0095COMPONENTS
390
0
  6
KM_SOLID
 62
     4
100
AcDbLine
 10
146.193768
 20
161.740544
 30
0.0
 11
146.098024
 21
161.834294
 31
0.0
  0
LINE
  5
218
100
AcDbEntity
  8
0095COMPONENTS
390
0
  6
KM_SOLID
 62
     4
100
AcDbLine
 10
146.066109
 20
163.115544
 30
0.0
 11
146.129939
 21
163.053044
 31
0.0
  0
LINE
  5
219
100
AcDbEntity
  8
0095COMPONENTS
390
0
  6
KM_SOLID
 62
     4
100
AcDbLine
 10
146.895896
 20
162.490544
 30
0.0
 11
146.959726
 21
162.428043
 31
0.0
  0
LINE
  5
21A
100
AcDbEntity
  8
0095COMPONENTS
390
0
  6
KM_SOLID
 62
     4
100
AcDbLine
 10
146.161854
 20
163.240544
 30
0.0
 11
146.225683
 21
163.178043
 31
0.0
  0
LINE
  5
21B
100
AcDbEntity
  8
0095COMPONENTS
390
0
  6
KM_SOLID
 62
     4
100
AcDbLine
 10
146.863981
 20
163.615544
 30
0.0
 11
146.800151
 21
163.678044
 31
0.0
  0
LINE
  5
21C
100
AcDbEntity
  8
0095COMPONENTS
390
0
  6
KM_SOLID
 62
     4
100
AcDbLine
 10
146.959726
 20
163.740543
 30
0.0
 11
146.895896
 21
163.803044
 31
0.0
  0
LINE
  5
21D
100
AcDbEntity
  8
0095COMPONENTS
390
0
  6
KM_SOLID
 62
     4
100
AcDbLine
 10
146.225683
 20
157.740544
 30
0.0
 11
146.321428
 21
157.615543
 31
0.0
  0
LINE
  5
21E
100
AcDbEntity
  8
0095COMPONENTS
390
0
  6
KM_SOLID
 62
     4
100
AcDbLine
 10
146.863981
 20
158.740543
 30
0.0
 11
146.800151
 21
158.834293
 31
0.0
  0
LINE
  5
21F
100
AcDbEntity
  8
0095COMPONENTS
390
0
  6
KM_SOLID
 62
   255
100
AcDbLine
 10
127.373869
 20
183.087704
 30
0.0
 11
129.595516
 21
179.454371
 31
0.0
  0
LINE
  5
220
100
AcDbEntity
  8
0095COMPONENTS
390
0
  6
KM_SOLID
 62
   255
100
AcDbLine
 10
130.18016
 20
180.958538
 30
0.0
 11
128.047747
 21
184.454371
 31
0.0
  0
LINE
  5
221
100
AcDbEntity
  8
0095COMPONENTS
390
0
  6
KM_SOLID
 62
     4
100
AcDbLine
 10
139.380175
 20
155.041926
 30
0.0
 11
139.319975
 21
155.266204
 31
0.0
  0
LINE
  5
222
100
AcDbEntity
  8
0095COMPONENTS
390
0
  6
KM_SOLID
 62
     4
100
AcDbLine
 10
139.58821
 20
154.80586
 30
0.0
 11
139.583274
 21
154.824251
 31
0.0
  0
LINE
  5
223
100
AcDbEntity
  8
0095COMPONENTS
390
0
  6
KM_SOLID
 62
     4
100
AcDbLine
 10
139.784532
 20
154.923761
 30
0.0
 11
139.727771
 21
155.135227
 31
0.0
  0
LINE
  5
224
100
AcDbEntity
  8
0095COMPONENTS
390
0
  6
KM_SOLID
 62
     4
100
AcDbLine
 10
138.162094
 20
161.713814
 30
0.0
 11
137.649381
 21
163.623961
 31
0.0
  0
LINE
  5
225
100
AcDbEntity
  8
0095COMPONENTS
390
0
  6
KM_SOLID
 62
   255
100
AcDbLine
 10
136.20507
 20
183.166871
 30
0.0
 11
136.20507
 21
184.454371
 31
0.0
  0
LINE
  5
226
100
AcDbEntity
  8
0095COMPONENTS
390
0
  6
KM_SOLID
 62
     4
100
AcDbLine
 10
138.603552
 20
153.674143
 30
0.0
 11
138.603552
 21
153.104222
 31
0.0
  0
LINE
  5
227
100
AcDbEntity
  8
0095COMPONENTS
390
0
  6
KM_SOLID
 62
     4
100
AcDbLine
 10
138.753582
 20
153.52426
 30
0.0
 11
138.753582
 21
152.954339
 31
0.0
  0
LINE
  5
228
100
AcDbEntity
  8
0095COMPONENTS
390
0
  6
KM_SOLID
 62
     4
100
AcDbLine
 10
139.12356
 20
153.574263
 30
0.0
 11
139.12356
 21
153.644222
 31
0.0
  0
LINE
  5
229
100
AcDbEntity
  8
0095COMPONENTS
390
0
  6
KM_SOLID
 62
   255
100
AcDbLine
 10
139.216351
 20
183.694371
 30
0.0
 11
139.216351
 21
182.294371
 31
0.0
  0
LINE
  5
22A
100
AcDbEntity
  8
0095COMPONENTS
390
0
  6
KM_SOLID
 62
     4
100
AcDbLine
 10
139.363522
 20
153.654234
 30
0.0
 11
139.363522
 21
153.874111
 31
0.0
  0
LINE
  5
22B
100
AcDbEntity
  8
0095COMPONENTS
390
0
  6
KM_SOLID
 62
   255
100
AcDbLine
 10
139.391351
 20
182.294371
 30
0.0
 11
139.391351
 21
182.919903
 31
0.0
  0
LINE
  5
22C
100
AcDbEntity
  8
0095COMPONENTS
390
0
  6
KM_SOLID
 62
   255
100
AcDbLine
 10
139.391351
 20
183.098626
 30
0.0
 11
139.391351
 21
183.545435
 31
0.0
  0
LINE
  5
22D
100
AcDbEntity
  8
0095COMPONENTS
390
0
  6
KM_SOLID
 62
     4
100
AcDbLine
 10
139.493556
 20
153.654234
 30
0.0
 11
139.493556
 21
153.874111
 31
0.0
  0
LINE
  5
22E
100
AcDbEntity
  8
0095COMPONENTS
390
0
  6
KM_SOLID
 62
   255
100
AcDbLine
 10
140.120517
 20
183.27735
 30
0.0
 11
140.091351
 21
183.187988
 31
0.0
  0
LINE
  5
22F
100
AcDbEntity
  8
0095COMPONENTS
390
0
  6
KM_SOLID
 62
   255
100
AcDbLine
 10
140.266351
 20
183.158201
 30
0.0
 11
140.295517
 21
183.247562
 31
0.0
  0
LINE
  5
230
100
AcDbEntity
  8
0095COMPONENTS
390
0
  6
KM_SOLID
 62
     4
100
AcDbLine
 10
132.729387
 20
169.149293
 30
0.0
 11
132.857046
 21
169.249294
 31
0.0
  0
LINE
  5
231
100
AcDbEntity
  8
0095COMPONENTS
390
0
  6
KM_SOLID
 62
     4
100
AcDbLine
 10
135.084132
 20
168.90458
 30
0.0
 11
135.819719
 21
169.464424
 31
0.0
  0
LINE
  5
232
100
AcDbEntity
  8
0095COMPONENTS
390
0
  6
KM_SOLID
 62
     4
100
AcDbLine
 10
132.984706
 20
169.124294
 30
0.0
 11
132.888961
 21
169.074293
 31
0.0
  0
LINE
  5
233
100
AcDbEntity
  8
0095COMPONENTS
390
0
  6
KM_SOLID
 62
     4
100
AcDbLine
 10
131.515896
 20
167.604294
 30
0.0
 11
131.388237
 21
167.554293
 31
0.0
  0
LINE
  5
234
100
AcDbEntity
  8
0095COMPONENTS
390
0
  6
KM_SOLID
 62
   255
100
AcDbLine
 10
120.690465
 20
179.454371
 30
0.0
 11
121.822828
 21
179.454371
 31
0.0
  0
LINE
  5
235
100
AcDbEntity
  8
0095COMPONENTS
390
0
  6
KM_SOLID
 62
   255
100
AcDbLine
 10
124.333719
 20
179.454371
 30
0.0
 11
125.466083
 21
179.454371
 31
0.0
  0
LINE
  5
236
100
AcDbEntity
  8
0095COMPONENTS
390
0
  6
KM_SOLID
 62
   255
100
AcDbLine
 10
126.241506
 20
179.454371
 30
0.0
 11
127.373869
 21
179.454371
 31
0.0
  0
LINE
  5
237
100
AcDbEntity
  8
0095COMPONENTS
390
0
  6
KM_SOLID
 62
   255
100
AcDbLine
 10
129.595516
 20
179.454371
 30
0.0
 11
131.312523
 21
179.454371
 31
0.0
  0
LINE
  5
238
100
AcDbEntity
  8
0095COMPONENTS
390
0
  6
KM_SOLID
 62
   255
100
AcDbLine
 10
133.448011
 20
179.454371
 30
0.0
 11
134.580375
 21
179.454371
 31
0.0
  0
LINE
  5
239
100
AcDbEntity
  8
0095COMPONENTS
390
0
  6
KM_SOLID
 62
   255
100
AcDbLine
 10
121.822828
 20
181.304371
 30
0.0
 11
124.333719
 21
181.304371
 31
0.0
  0
LINE
  5
23A
100
AcDbEntity
  8
0095COMPONENTS
390
0
  6
KM_SOLID
 62
   255
100
AcDbLine
 10
119.893503
 20
181.333538
 30
0.0
 11
118.779602
 21
181.333538
 31
0.0
  0
LINE
  5
23B
100
AcDbEntity
  8
0095COMPONENTS
390
0
  6
KM_SOLID
 62
   255
100
AcDbLine
 10
170.214798
 20
151.754371
 30
0.0
 11
169.514798
 21
152.254371
 31
0.0
  0
LINE
  5
23C
100
AcDbEntity
  8
0095COMPONENTS
390
0
  6
KM_SOLID
 62
     4
100
AcDbLine
 10
146.161854
 20
165.740544
 30
0.0
 11
146.098024
 21
165.803043
 31
0.0
  0
LINE
  5
23D
100
AcDbEntity
  8
0095COMPONENTS
390
0
  6
KM_SOLID
 62
     4
100
AcDbLine
 10
146.225683
 20
165.803043
 30
0.0
 11
146.289513
 21
165.740544
 31
0.0
  0
LINE
  5
23E
100
AcDbEntity
  8
0095COMPONENTS
390
0
  6
KM_SOLID
 62
     4
100
AcDbLine
 10
146.098024
 20
161.834294
 30
0.0
 11
146.034194
 21
161.928044
 31
0.0
  0
LINE
  5
23F
100
AcDbEntity
  8
0095COMPONENTS
390
0
  6
KM_SOLID
 62
     4
100
AcDbLine
 10
146.768237
 20
162.459294
 30
0.0
 11
146.832066
 21
162.365544
 31
0.0
  0
LINE
  5
240
100
AcDbEntity
  8
0095COMPONENTS
390
0
  6
KM_SOLID
 62
     4
100
AcDbLine
 10
146.098024
 20
165.803043
 30
0.0
 11
146.034194
 21
165.896793
 31
0.0
  0
LINE
  5
241
100
AcDbEntity
  8
0095COMPONENTS
390
0
  6
KM_SOLID
 62
     4
100
AcDbLine
 10
146.161854
 20
165.896793
 30
0.0
 11
146.225683
 21
165.803043
 31
0.0
  0
LINE
  5
242
100
AcDbEntity
  8
0095COMPONENTS
390
0
  6
KM_SOLID
 62
     4
100
AcDbLine
 10
146.959726
 20
158.803044
 30
0.0
 11
146.991641
 21
158.740543
 31
0.0
  0
LINE
  5
243
100
AcDbEntity
  8
0095COMPONENTS
390
0
  6
KM_SOLID
 62
     4
100
AcDbLine
 10
146.225683
 20
161.928044
 30
0.0
 11
146.161854
 21
162.053043
 31
0.0
  0
LINE
  5
244
100
AcDbEntity
  8
0095COMPONENTS
390
0
  6
KM_SOLID
 62
     4
100
AcDbLine
 10
141.80143
 20
164.987549
 30
0.0
 11
141.491053
 21
165.770224
 31
0.0
  0
LINE
  5
245
100
AcDbEntity
  8
0095COMPONENTS
390
0
  6
KM_SOLID
 62
     4
100
AcDbLine
 10
142.972694
 20
163.526225
 30
0.0
 11
143.062899
 21
163.298757
 31
0.0
  0
LINE
  5
246
100
AcDbEntity
  8
0095COMPONENTS
390
0
  6
KM_SOLID
 62
     4
100
AcDbLine
 10
143.623912
 20
156.419421
 30
0.0
 11
143.245417
 21
157.552119
 31
0.0
  0
LINE
  5
247
100
AcDbEntity
  8
0095COMPONENTS
390
0
  6
KM_SOLID
 62
     4
100
AcDbLine
 10
142.792864
 20
164.106817
 30
0.0
 11
142.972694
 21
163.526225
 31
0.0
  0
LINE
  5
248
100
AcDbEntity
  8
0095COMPONENTS
390
0
  6
KM_SOLID
 62
     4
100
AcDbLine
 10
141.858894
 20
164.794964
 30
0.0
 11
141.80143
 21
164.987549
 31
0.0
  0
LINE
  5
249
100
AcDbEntity
  8
0095COMPONENTS
390
0
  6
KM_SOLID
 62
     4
100
AcDbLine
 10
142.655044
 20
155.305468
 30
0.0
 11
140.85212
 21
162.022376
 31
0.0
  0
LINE
  5
24A
100
AcDbEntity
  8
0095COMPONENTS
390
0
  6
KM_SOLID
 62
     4
100
AcDbLine
 10
143.219886
 20
155.471267
 30
0.0
 11
143.133462
 21
155.793245
 31
0.0
  0
LINE
  5
24B
100
AcDbEntity
  8
0095COMPONENTS
390
0
  6
KM_SOLID
 62
     4
100
AcDbLine
 10
143.956115
 20
155.698664
 30
0.0
 11
143.875666
 21
155.998383
 31
0.0
  0
LINE
  5
24C
100
AcDbEntity
  8
0095COMPONENTS
390
0
  6
KM_SOLID
 62
     4
100
AcDbLine
 10
144.217595
 20
155.768849
 30
0.0
 11
144.007566
 21
156.551328
 31
0.0
  0
LINE
  5
24D
100
AcDbEntity
  8
0095COMPONENTS
390
0
  6
KM_SOLID
 62
     4
100
AcDbLine
 10
142.601473
 20
165.364395
 30
0.0
 11
142.672704
 21
164.691019
 31
0.0
  0
LINE
  5
24E
100
AcDbEntity
  8
0095COMPONENTS
390
0
  6
KM_SOLID
 62
     4
100
AcDbLine
 10
139.643534
 20
153.374256
 30
0.0
 11
139.643534
 21
153.404363
 31
0.0
  0
LINE
  5
24F
100
AcDbEntity
  8
0095COMPONENTS
390
0
  6
KM_SOLID
 62
     4
100
AcDbLine
 10
139.86356
 20
153.434358
 30
0.0
 11
139.86356
 21
153.654234
 31
0.0
  0
LINE
  5
250
100
AcDbEntity
  8
0095COMPONENTS
390
0
  6
KM_SOLID
 62
     4
100
AcDbLine
 10
140.063541
 20
160.394285
 30
0.0
 11
140.063541
 21
162.394308
 31
0.0
  0
LINE
  5
251
100
AcDbEntity
  8
0095COMPONENTS
390
0
  6
KM_SOLID
 62
   255
100
AcDbLine
 10
140.120517
 20
183.366711
 30
0.0
 11
140.120517
 21
183.27735
 31
0.0
  0
LINE
  5
252
100
AcDbEntity
  8
0095COMPONENTS
390
0
  6
KM_SOLID
 62
   255
100
AcDbLine
 10
140.295517
 20
183.247562
 30
0.0
 11
140.295517
 21
183.366711
 31
0.0
  0
LINE
  5
253
100
AcDbEntity
  8
0095COMPONENTS
390
0
  6
KM_SOLID
 62
     4
100
AcDbLine
 10
141.884966
 20
163.089335
 30
0.0
 11
141.884966
 21
164.661334
 31
0.0
  0
LINE
  5
254
100
AcDbEntity
  8
0095COMPONENTS
390
0
  6
KM_SOLID
 62
     4
100
AcDbLine
 10
142.601473
 20
165.986352
 30
0.0
 11
142.601473
 21
165.364395
 31
0.0
  0
LINE
  5
255
100
AcDbEntity
  8
0095COMPONENTS
390
0
  6
KM_SOLID
 62
     4
100
AcDbLine
 10
142.733554
 20
153.064322
 30
0.0
 11
142.733554
 21
159.894289
 31
0.0
  0
LINE
  5
256
100
AcDbEntity
  8
0095COMPONENTS
390
0
  6
KM_SOLID
 62
     4
100
AcDbLine
 10
142.913556
 20
153.064322
 30
0.0
 11
142.913556
 21
153.404294
 31
0.0
  0
LINE
  5
257
100
AcDbEntity
  8
0095COMPONENTS
390
0
  6
KM_SOLID
 62
     4
100
AcDbLine
 10
143.183556
 20
153.064322
 30
0.0
 11
143.183556
 21
153.874111
 31
0.0
  0
LINE
  5
258
100
AcDbEntity
  8
0095COMPONENTS
390
0
  6
KM_SOLID
 62
   255
100
AcDbLine
 10
139.216351
 20
182.294371
 30
0.0
 11
139.391351
 21
182.294371
 31
0.0
  0
LINE
  5
259
100
AcDbEntity
  8
0095COMPONENTS
390
0
  6
KM_SOLID
 62
   255
100
AcDbLine
 10
140.120517
 20
182.294371
 30
0.0
 11
140.324684
 21
182.294371
 31
0.0
  0
LINE
  5
25A
100
AcDbEntity
  8
0095COMPONENTS
390
0
  6
KM_SOLID
 62
   255
100
AcDbLine
 10
124.333719
 20
182.591871
 30
0.0
 11
121.822828
 21
182.591871
 31
0.0
  0
LINE
  5
25B
100
AcDbEntity
  8
0095COMPONENTS
390
0
  6
KM_SOLID
 62
   255
100
AcDbLine
 10
118.779602
 20
182.641871
 30
0.0
 11
119.893503
 21
182.641871
 31
0.0
  0
LINE
  5
25C
100
AcDbEntity
  8
0095COMPONENTS
390
0
  6
KM_SOLID
 62
   255
100
AcDbLine
 10
139.391351
 20
182.919903
 30
0.0
 11
139.887184
 21
182.919903
 31
0.0
  0
LINE
  5
25D
100
AcDbEntity
  8
0095COMPONENTS
390
0
  6
KM_SOLID
 62
   255
100
AcDbLine
 10
139.945517
 20
183.098626
 30
0.0
 11
139.391351
 21
183.098626
 31
0.0
  0
LINE
  5
25E
100
AcDbEntity
  8
0095COMPONENTS
390
0
  6
KM_SOLID
 62
   255
100
AcDbLine
 10
131.823318
 20
183.166871
 30
0.0
 11
133.448011
 21
183.166871
 31
0.0
  0
LINE
  5
25F
100
AcDbEntity
  8
0095COMPONENTS
390
0
  6
KM_SOLID
 62
   255
100
AcDbLine
 10
134.580375
 20
183.166871
 30
0.0
 11
136.20507
 21
183.166871
 31
0.0
  0
LINE
  5
260
100
AcDbEntity
  8
0095COMPONENTS
390
0
  6
KM_SOLID
 62
   255
100
AcDbLine
 10
139.391351
 20
183.545435
 30
0.0
 11
139.945517
 21
183.545435
 31
0.0
  0
LINE
  5
261
100
AcDbEntity
  8
0095COMPONENTS
390
0
  6
KM_SOLID
 62
   255
100
AcDbLine
 10
139.916351
 20
183.694371
 30
0.0
 11
139.216351
 21
183.694371
 31
0.0
  0
LINE
  5
262
100
AcDbEntity
  8
0095COMPONENTS
390
0
  6
KM_SOLID
 62
   255
100
AcDbLine
 10
136.20507
 20
184.454371
 30
0.0
 11
131.823318
 21
184.454371
 31
0.0
  0
LINE
  5
263
100
AcDbEntity
  8
0095COMPONENTS
390
0
  6
KM_SOLID
 62
   255
100
AcDbLine
 10
131.312523
 20
184.454371
 30
0.0
 11
130.18016
 21
184.454371
 31
0.0
  0
LINE
  5
264
100
AcDbEntity
  8
0095COMPONENTS
390
0
  6
KM_SOLID
 62
   255
100
AcDbLine
 10
128.047747
 20
184.454371
 30
0.0
 11
126.241506
 21
184.454371
 31
0.0
  0
LINE
  5
265
100
AcDbEntity
  8
0095COMPONENTS
390
0
  6
KM_SOLID
 62
   255
100
AcDbLine
 10
125.466083
 20
184.454371
 30
0.0
 11
124.333719
 21
184.454371
 31
0.0
  0
LINE
  5
266
100
AcDbEntity
  8
0095COMPONENTS
390
0
  6
KM_SOLID
 62
   255
100
AcDbLine
 10
121.822828
 20
184.454371
 30
0.0
 11
120.690465
 21
184.454371
 31
0.0
  0
LINE
  5
267
100
AcDbEntity
  8
0095COMPONENTS
390
0
  6
KM_SOLID
 62
   255
100
AcDbLine
 10
98.714798
 20
184.754371
 30
0.0
 11
98.214798
 21
184.754371
 31
0.0
  0
LINE
  5
268
100
AcDbEntity
  8
0095COMPONENTS
390
0
  6
KM_SOLID
 62
   255
100
AcDbLine
 10
160.714798
 20
184.754371
 30
0.0
 11
161.214798
 21
184.754371
 31
0.0
  0
LINE
  5
269
100
AcDbEntity
  8
0095COMPONENTS
390
0
  6
KM_SOLID
 62
   255
100
AcDbLine
 10
140.062184
 20
183.664584
 30
0.0
 11
139.916351
 21
183.694371
 31
0.0
  0
LINE
  5
26A
100
AcDbEntity
  8
0095COMPONENTS
390
0
  6
KM_SOLID
 62
     4
100
AcDbLine
 10
146.034194
 20
163.178043
 30
0.0
 11
146.066109
 21
163.115544
 31
0.0
  0
LINE
  5
26B
100
AcDbEntity
  8
0095COMPONENTS
390
0
  6
KM_SOLID
 62
     4
100
AcDbLine
 10
146.959726
 20
162.428043
 30
0.0
 11
146.991641
 21
162.365544
 31
0.0
  0
LINE
  5
26C
100
AcDbEntity
  8
0095COMPONENTS
390
0
  6
KM_SOLID
 62
     4
100
AcDbLine
 10
146.991641
 20
163.678044
 30
0.0
 11
146.959726
 21
163.740543
 31
0.0
  0
LINE
  5
26D
100
AcDbEntity
  8
0095COMPONENTS
390
0
  6
KM_SOLID
 62
   255
100
AcDbLine
 10
140.324684
 20
182.294371
 30
0.0
 11
140.062184
 21
182.979477
 31
0.0
  0
LINE
  5
26E
100
AcDbEntity
  8
0095COMPONENTS
390
0
  6
KM_SOLID
 62
   255
100
AcDbLine
 10
139.887184
 20
182.919903
 30
0.0
 11
140.120517
 21
182.294371
 31
0.0
  0
LINE
  5
26F
100
AcDbEntity
  8
0095COMPONENTS
390
0
  6
KM_SOLID
 62
     4
100
AcDbLine
 10
146.161854
 20
157.490544
 30
0.0
 11
146.129939
 21
157.584294
 31
0.0
  0
LINE
  5
270
100
AcDbEntity
  8
0095COMPONENTS
390
0
  6
KM_SOLID
 62
   255
100
AcDbLine
 10
140.091351
 20
183.456073
 30
0.0
 11
140.120517
 21
183.366711
 31
0.0
  0
LINE
  5
271
100
AcDbEntity
  8
0095COMPONENTS
390
0
  6
KM_SOLID
 62
   255
100
AcDbLine
 10
140.295517
 20
183.366711
 30
0.0
 11
140.266351
 21
183.456073
 31
0.0
  0
LINE
  5
272
100
AcDbEntity
  8
0095COMPONENTS
390
0
  6
KM_SOLID
 62
     4
100
AcDbLine
 10
146.034194
 20
161.928044
 30
0.0
 11
146.002279
 21
162.053043
 31
0.0
  0
LINE
  5
273
100
AcDbEntity
  8
0095COMPONENTS
390
0
  6
KM_SOLID
 62
     4
100
AcDbLine
 10
146.895896
 20
158.615544
 30
0.0
 11
146.863981
 21
158.740543
 31
0.0
  0
LINE
  5
274
100
AcDbEntity
  8
0095COMPONENTS
390
0
  6
KM_SOLID
 62
     4
100
AcDbLine
 10
146.991641
 20
158.740543
 30
0.0
 11
147.023556
 21
158.615544
 31
0.0
  0
LINE
  5
275
100
AcDbEntity
  8
0095COMPONENTS
390
0
  6
KM_SOLID
 62
     4
100
AcDbLine
 10
146.002279
 20
163.303044
 30
0.0
 11
146.034194
 21
163.178043
 31
0.0
  0
LINE
  5
276
100
AcDbEntity
  8
0095COMPONENTS
390
0
  6
KM_SOLID
 62
     4
100
AcDbLine
 10
146.129939
 20
163.365543
 30
0.0
 11
146.161854
 21
163.240544
 31
0.0
  0
LINE
  5
277
100
AcDbEntity
  8
0095COMPONENTS
390
0
  6
KM_SOLID
 62
     4
100
AcDbLine
 10
142.672704
 20
164.691019
 30
0.0
 11
142.792864
 21
164.106817
 31
0.0
  0
LINE
  5
278
100
AcDbEntity
  8
0095COMPONENTS
390
0
  6
KM_SOLID
 62
     4
100
AcDbLine
 10
146.321428
 20
157.615543
 30
0.0
 11
146.353343
 21
157.459293
 31
0.0
  0
LINE
  5
279
100
AcDbEntity
  8
0095COMPONENTS
390
0
  6
KM_SOLID
 62
     4
100
AcDbLine
 10
140.900295
 20
168.784406
 30
0.0
 11
141.491053
 21
165.770224
 31
0.0
  0
LINE
  5
27A
100
AcDbEntity
  8
0095COMPONENTS
390
0
  6
KM_SOLID
 62
     4
100
AcDbLine
 10
141.884966
 20
164.661334
 30
0.0
 11
141.858894
 21
164.794964
 31
0.0
  0
LINE
  5
27B
100
AcDbEntity
  8
0095COMPONENTS
390
0
  6
KM_SOLID
 62
     4
100
AcDbLine
 10
141.884966
 20
163.089335
 30
0.0
 11
142.044634
 21
162.19125
 31
0.0
  0
LINE
  5
27C
100
AcDbEntity
  8
0095COMPONENTS
390
0
  6
KM_SOLID
 62
     4
100
AcDbLine
 10
142.409116
 20
162.256051
 30
0.0
 11
143.245417
 21
157.552119
 31
0.0
  0
LINE
  5
27D
100
AcDbEntity
  8
0095COMPONENTS
390
0
  6
KM_SOLID
 62
     4
100
AcDbLine
 10
142.284437
 20
163.160356
 30
0.0
 11
142.444105
 21
162.262271
 31
0.0
  0
LINE
  5
27E
100
AcDbEntity
  8
0095COMPONENTS
390
0
  6
KM_SOLID
 62
     4
100
AcDbLine
 10
142.678261
 20
163.230373
 30
0.0
 11
142.83793
 21
162.332288
 31
0.0
  0
LINE
  5
27F
100
AcDbEntity
  8
0095COMPONENTS
390
0
  6
KM_SOLID
 62
     4
100
AcDbLine
 10
142.881969
 20
162.345386
 30
0.0
 11
143.726907
 21
157.592873
 31
0.0
  0
LINE
  5
280
100
AcDbEntity
  8
0095COMPONENTS
390
0
  6
KM_SOLID
 62
     4
100
AcDbLine
 10
143.062899
 20
163.298757
 30
0.0
 11
143.222567
 21
162.400672
 31
0.0
  0
LINE
  5
281
100
AcDbEntity
  8
0095COMPONENTS
390
0
  6
KM_SOLID
 62
     4
100
AcDbLine
 10
142.075419
 20
168.993941
 30
0.0
 11
142.601473
 21
165.986352
 31
0.0
  0
LINE
  5
282
100
AcDbEntity
  8
0095COMPONENTS
390
0
  6
KM_SOLID
 62
     4
100
AcDbLine
 10
143.726907
 20
157.592873
 30
0.0
 11
143.726907
 21
156.437732
 31
0.0
  0
LINE
  5
283
100
AcDbEntity
  8
0095COMPONENTS
390
0
  6
KM_SOLID
 62
     4
100
AcDbLine
 10
145.523556
 20
154.771794
 30
0.0
 11
145.523556
 21
154.959294
 31
0.0
  0
LINE
  5
284
100
AcDbEntity
  8
0095COMPONENTS
390
0
  6
KM_SOLID
 62
     4
100
AcDbLine
 10
145.523556
 20
156.709293
 30
0.0
 11
145.523556
 21
157.459293
 31
0.0
  0
LINE
  5
285
100
AcDbEntity
  8
0095COMPONENTS
390
0
  6
KM_SOLID
 62
     4
100
AcDbLine
 10
145.523556
 20
159.365544
 30
0.0
 11
145.523556
 21
159.521794
 31
0.0
  0
LINE
  5
286
100
AcDbEntity
  8
0095COMPONENTS
390
0
  6
KM_SOLID
 62
     4
100
AcDbLine
 10
145.523556
 20
159.771793
 30
0.0
 11
145.523556
 21
159.928044
 31
0.0
  0
LINE
  5
287
100
AcDbEntity
  8
0095COMPONENTS
390
0
  6
KM_SOLID
 62
     4
100
AcDbLine
 10
145.523556
 20
162.521793
 30
0.0
 11
145.523556
 21
162.678044
 31
0.0
  0
LINE
  5
288
100
AcDbEntity
  8
0095COMPONENTS
390
0
  6
KM_SOLID
 62
     4
100
AcDbLine
 10
145.68313
 20
157.490544
 30
0.0
 11
145.68313
 21
156.896793
 31
0.0
  0
LINE
  5
289
100
AcDbEntity
  8
0095COMPONENTS
390
0
  6
KM_SOLID
 62
   255
100
AcDbLine
 10
145.914798
 20
142.955371
 30
0.0
 11
145.914798
 21
142.455371
 31
0.0
  0
LINE
  5
28A
100
AcDbEntity
  8
0095COMPONENTS
390
0
  6
KM_SOLID
 62
     4
100
AcDbLine
 10
146.002279
 20
163.553043
 30
0.0
 11
146.002279
 21
163.303044
 31
0.0
  0
LINE
  5
28B
100
AcDbEntity
  8
0095COMPONENTS
390
0
  6
KM_SOLID
 62
     4
100
AcDbLine
 10
146.002279
 20
158.115544
 30
0.0
 11
146.002279
 21
158.271793
 31
0.0
  0
LINE
  5
28C
100
AcDbEntity
  8
0095COMPONENTS
390
0
  6
KM_SOLID
 62
     4
100
AcDbLine
 10
146.002279
 20
158.896794
 30
0.0
 11
146.002279
 21
159.053044
 31
0.0
  0
LINE
  5
28D
100
AcDbEntity
  8
0095COMPONENTS
390
0
  6
KM_SOLID
 62
     4
100
AcDbLine
 10
146.002279
 20
162.053043
 30
0.0
 11
146.002279
 21
162.240543
 31
0.0
  0
LINE
  5
28E
100
AcDbEntity
  8
0095COMPONENTS
390
0
  6
KM_SOLID
 62
     4
100
AcDbLine
 10
146.002279
 20
164.178044
 30
0.0
 11
146.002279
 21
164.334294
 31
0.0
  0
LINE
  5
28F
100
AcDbEntity
  8
0095COMPONENTS
390
0
  6
KM_SOLID
 62
     4
100
AcDbLine
 10
146.002279
 20
164.678043
 30
0.0
 11
146.002279
 21
164.834294
 31
0.0
  0
LINE
  5
290
100
AcDbEntity
  8
0095COMPONENTS
390
0
  6
KM_SOLID
 62
     4
100
AcDbLine
 10
146.002279
 20
165.178044
 30
0.0
 11
146.002279
 21
165.334293
 31
0.0
  0
LINE
  5
291
100
AcDbEntity
  8
0095COMPONENTS
390
0
  6
KM_SOLID
 62
     4
100
AcDbLine
 10
146.002279
 20
165.584294
 30
0.0
 11
146.002279
 21
165.740544
 31
0.0
  0
LINE
  5
292
100
AcDbEntity
  8
0095COMPONENTS
390
0
  6
KM_SOLID
 62
     4
100
AcDbLine
 10
146.002279
 20
166.021794
 30
0.0
 11
146.002279
 21
166.146794
 31
0.0
  0
LINE
  5
293
100
AcDbEntity
  8
0095COMPONENTS
390
0
  6
KM_SOLID
 62
     4
100
AcDbLine
 10
146.129939
 20
163.490544
 30
0.0
 11
146.129939
 21
163.365543
 31
0.0
  0
LINE
  5
294
100
AcDbEntity
  8
0095COMPONENTS
390
0
  6
KM_SOLID
 62
     4
100
AcDbLine
 10
146.161854
 20
156.896793
 30
0.0
 11
146.161854
 21
157.490544
 31
0.0
  0
LINE
  5
295
100
AcDbEntity
  8
0095COMPONENTS
390
0
  6
KM_SOLID
 62
     4
100
AcDbLine
 10
146.161854
 20
162.053043
 30
0.0
 11
146.161854
 21
162.240543
 31
0.0
  0
LINE
  5
296
100
AcDbEntity
  8
0095COMPONENTS
390
0
  6
KM_SOLID
 62
     4
100
AcDbLine
 10
146.321428
 20
164.771793
 30
0.0
 11
146.321428
 21
164.740544
 31
0.0
  0
LINE
  5
297
100
AcDbEntity
  8
0095COMPONENTS
390
0
  6
KM_SOLID
 62
     4
100
AcDbLine
 10
146.353343
 20
157.459293
 30
0.0
 11
146.353343
 21
156.896793
 31
0.0
  0
LINE
  5
298
100
AcDbEntity
  8
0095COMPONENTS
390
0
  6
KM_SOLID
 62
     4
100
AcDbLine
 10
146.863981
 20
162.240543
 30
0.0
 11
146.863981
 21
162.115544
 31
0.0
  0
LINE
  5
299
100
AcDbEntity
  8
0095COMPONENTS
390
0
  6
KM_SOLID
 62
     4
100
AcDbLine
 10
146.895896
 20
158.490544
 30
0.0
 11
146.895896
 21
158.615544
 31
0.0
  0
LINE
  5
29A
100
AcDbEntity
  8
0095COMPONENTS
390
0
  6
KM_SOLID
 62
     4
100
AcDbLine
 10
146.895896
 20
163.365543
 30
0.0
 11
146.895896
 21
163.490544
 31
0.0
  0
LINE
  5
29B
100
AcDbEntity
  8
0095COMPONENTS
390
0
  6
KM_SOLID
 62
   255
100
AcDbLine
 10
160.714798
 20
184.754371
 30
0.0
 11
161.214798
 21
185.259298
 31
0.0
  0
LINE
  5
29C
100
AcDbEntity
  8
0095COMPONENTS
390
0
  6
KM_SOLID
 62
     4
100
AcDbLine
 10
146.161854
 20
166.396794
 30
0.0
 11
146.257598
 21
166.428044
 31
0.0
  0
LINE
  5
29D
100
AcDbEntity
  8
0095COMPONENTS
390
0
  6
KM_SOLID
 62
     4
100
AcDbLine
 10
146.321428
 20
163.896794
 30
0.0
 11
146.225683
 21
163.865544
 31
0.0
  0
LINE
  5
29E
100
AcDbEntity
  8
0095COMPONENTS
390
0
  6
KM_SOLID
 62
   255
100
AcDbLine
 10
160.214798
 20
188.254371
 30
0.0
 11
151.414798
 21
188.254371
 31
0.0
  0
LINE
  5
29F
100
AcDbEntity
  8
0095COMPONENTS
390
0
  6
KM_SOLID
 62
   255
100
AcDbLine
 10
108.014798
 20
188.254371
 30
0.0
 11
99.214798
 21
188.254371
 31
0.0
  0
LINE
  5
2A0
100
AcDbEntity
  8
0095COMPONENTS
390
0
  6
KM_SOLID
 62
   255
100
AcDbLine
 10
100.114798
 20
188.354371
 30
0.0
 11
102.914798
 21
188.354371
 31
0.0
  0
LINE
  5
2A1
100
AcDbEntity
  8
0095COMPONENTS
390
0
  6
KM_SOLID
 62
   255
100
AcDbLine
 10
156.514798
 20
188.354371
 30
0.0
 11
159.314798
 21
188.354371
 31
0.0
  0
LINE
  5
2A2
100
AcDbEntity
  8
0095COMPONENTS
390
0
  6
KM_SOLID
 62
   255
100
AcDbLine
 10
139.945517
 20
183.545435
 30
0.0
 11
140.033017
 21
183.515648
 31
0.0
  0
LINE
  5
2A3
100
AcDbEntity
  8
0095COMPONENTS
390
0
  6
KM_SOLID
 62
   255
100
AcDbLine
 10
169.214798
 20
169.254371
 30
0.0
 11
170.214798
 21
168.754371
 31
0.0
  0
LINE
  5
2A4
100
AcDbEntity
  8
0095COMPONENTS
390
0
  6
KM_SOLID
 62
   255
100
AcDbLine
 10
140.178851
 20
183.575222
 30
0.0
 11
140.062184
 21
183.664584
 31
0.0
  0
LINE
  5
2A5
100
AcDbEntity
  8
0095COMPONENTS
390
0
  6
KM_SOLID
 62
   255
100
AcDbLine
 10
140.033017
 20
183.515648
 30
0.0
 11
140.091351
 21
183.456073
 31
0.0
  0
LINE
  5
2A6
100
AcDbEntity
  8
0095COMPONENTS
390
0
  6
KM_SOLID
 62
   255
100
AcDbLine
 10
140.266351
 20
183.456073
 30
0.0
 11
140.178851
 21
183.575222
 31
0.0
  0
LINE
  5
2A7
100
AcDbEntity
  8
0095COMPONENTS
390
0
  6
KM_SOLID
 62
   255
100
AcDbLine
 10
154.117344
 20
167.103384
 30
0.0
 11
136.312251
 21
192.405358
 31
0.0
  0
LINE
  5
2A8
100
AcDbEntity
  8
0095COMPONENTS
390
0
  6
KM_SOLID
 62
     4
100
AcDbLine
 10
146.832066
 20
162.365544
 30
0.0
 11
146.863981
 21
162.240543
 31
0.0
  0
LINE
  5
2A9
100
AcDbEntity
  8
0095COMPONENTS
390
0
  6
KM_SOLID
 62
     4
100
AcDbLine
 10
146.034194
 20
165.896793
 30
0.0
 11
146.002279
 21
166.021794
 31
0.0
  0
LINE
  5
2AA
100
AcDbEntity
  8
0095COMPONENTS
390
0
  6
KM_SOLID
 62
     4
100
AcDbLine
 10
146.991641
 20
162.365544
 30
0.0
 11
147.023556
 21
162.240543
 31
0.0
  0
LINE
  5
2AB
100
AcDbEntity
  8
0095COMPONENTS
390
0
  6
KM_SOLID
 62
     4
100
AcDbLine
 10
146.129939
 20
166.021794
 30
0.0
 11
146.161854
 21
165.896793
 31
0.0
  0
LINE
  5
2AC
100
AcDbEntity
  8
0095COMPONENTS
390
0
  6
KM_SOLID
 62
     4
100
AcDbLine
 10
146.895896
 20
163.490544
 30
0.0
 11
146.863981
 21
163.615544
 31
0.0
  0
LINE
  5
2AD
100
AcDbEntity
  8
0095COMPONENTS
390
0
  6
KM_SOLID
 62
     4
100
AcDbLine
 10
147.023556
 20
163.553043
 30
0.0
 11
146.991641
 21
163.678044
 31
0.0
  0
LINE
  5
2AE
100
AcDbEntity
  8
0095COMPONENTS
390
0
  6
KM_SOLID
 62
     4
100
AcDbLine
 10
147.023556
 20
166.459293
 30
0.0
 11
147.023556
 21
166.303044
 31
0.0
  0
LINE
  5
2AF
100
AcDbEntity
  8
0095COMPONENTS
390
0
  6
KM_SOLID
 62
     4
100
AcDbLine
 10
147.023556
 20
165.740544
 30
0.0
 11
147.023556
 21
165.584294
 31
0.0
  0
LINE
  5
2B0
100
AcDbEntity
  8
0095COMPONENTS
390
0
  6
KM_SOLID
 62
     4
100
AcDbLine
 10
147.023556
 20
165.084294
 30
0.0
 11
147.023556
 21
164.928044
 31
0.0
  0
LINE
  5
2B1
100
AcDbEntity
  8
0095COMPONENTS
390
0
  6
KM_SOLID
 62
     4
100
AcDbLine
 10
147.023556
 20
164.584293
 30
0.0
 11
147.023556
 21
164.428044
 31
0.0
  0
LINE
  5
2B2
100
AcDbEntity
  8
0095COMPONENTS
390
0
  6
KM_SOLID
 62
     4
100
AcDbLine
 10
147.023556
 20
162.678044
 30
0.0
 11
147.023556
 21
162.521793
 31
0.0
  0
LINE
  5
2B3
100
AcDbEntity
  8
0095COMPONENTS
390
0
  6
KM_SOLID
 62
     4
100
AcDbLine
 10
147.023556
 20
162.240543
 30
0.0
 11
147.023556
 21
162.053043
 31
0.0
  0
LINE
  5
2B4
100
AcDbEntity
  8
0095COMPONENTS
390
0
  6
KM_SOLID
 62
     4
100
AcDbLine
 10
147.023556
 20
159.928044
 30
0.0
 11
147.023556
 21
159.771793
 31
0.0
  0
LINE
  5
2B5
100
AcDbEntity
  8
0095COMPONENTS
390
0
  6
KM_SOLID
 62
     4
100
AcDbLine
 10
147.023556
 20
159.521794
 30
0.0
 11
147.023556
 21
159.365544
 31
0.0
  0
LINE
  5
2B6
100
AcDbEntity
  8
0095COMPONENTS
390
0
  6
KM_SOLID
 62
     4
100
AcDbLine
 10
147.023556
 20
159.115543
 30
0.0
 11
147.023556
 21
158.959294
 31
0.0
  0
LINE
  5
2B7
100
AcDbEntity
  8
0095COMPONENTS
390
0
  6
KM_SOLID
 62
     4
100
AcDbLine
 10
147.023556
 20
158.615544
 30
0.0
 11
147.023556
 21
158.490544
 31
0.0
  0
LINE
  5
2B8
100
AcDbEntity
  8
0095COMPONENTS
390
0
  6
KM_SOLID
 62
     4
100
AcDbLine
 10
147.023556
 20
156.896793
 30
0.0
 11
147.023556
 21
156.709293
 31
0.0
  0
LINE
  5
2B9
100
AcDbEntity
  8
0095COMPONENTS
390
0
  6
KM_SOLID
 62
     4
100
AcDbLine
 10
147.023556
 20
154.959294
 30
0.0
 11
147.023556
 21
154.771794
 31
0.0
  0
LINE
  5
2BA
100
AcDbEntity
  8
0095COMPONENTS
390
0
  6
KM_SOLID
 62
     4
100
AcDbLine
 10
147.023556
 20
163.303044
 30
0.0
 11
147.023556
 21
163.553043
 31
0.0
  0
LINE
  5
2BB
100
AcDbEntity
  8
0095COMPONENTS
390
0
  6
KM_SOLID
 62
   255
100
AcDbLine
 10
147.414798
 20
140.954371
 30
0.0
 11
147.414798
 21
144.254371
 31
0.0
  0
LINE
  5
2BC
100
AcDbEntity
  8
0095COMPONENTS
390
0
  6
KM_SOLID
 62
   255
100
AcDbLine
 10
148.214798
 20
204.254371
 30
0.0
 11
148.214798
 21
204.129731
 31
0.0
  0
LINE
  5
2BD
100
AcDbEntity
  8
0095COMPONENTS
390
0
  6
KM_SOLID
 62
   255
100
AcDbLine
 10
148.214798
 20
142.554371
 30
0.0
 11
148.214798
 21
144.254371
 31
0.0
  0
LINE
  5
2BE
100
AcDbEntity
  8
0095COMPONENTS
390
0
  6
KM_SOLID
 62
   255
100
AcDbLine
 10
149.714798
 20
205.126994
 30
0.0
 11
149.714798
 21
204.254371
 31
0.0
  0
LINE
  5
2BF
100
AcDbEntity
  8
0095COMPONENTS
390
0
  6
KM_SOLID
 62
     4
100
AcDbLine
 10
145.523556
 20
157.459293
 30
0.0
 11
145.555471
 21
157.615543
 31
0.0
  0
LINE
  5
2C0
100
AcDbEntity
  8
0095COMPONENTS
390
0
  6
KM_SOLID
 62
     4
100
AcDbLine
 10
146.161854
 20
166.146794
 30
0.0
 11
146.129939
 21
166.021794
 31
0.0
  0
LINE
  5
2C1
100
AcDbEntity
  8
0095COMPONENTS
390
0
  6
KM_SOLID
 62
     4
100
AcDbLine
 10
146.034194
 20
163.678044
 30
0.0
 11
146.002279
 21
163.553043
 31
0.0
  0
LINE
  5
2C2
100
AcDbEntity
  8
0095COMPONENTS
390
0
  6
KM_SOLID
 62
     4
100
AcDbLine
 10
146.161854
 20
163.615544
 30
0.0
 11
146.129939
 21
163.490544
 31
0.0
  0
LINE
  5
2C3
100
AcDbEntity
  8
0095COMPONENTS
390
0
  6
KM_SOLID
 62
     4
100
AcDbLine
 10
146.002279
 20
162.240543
 30
0.0
 11
146.034194
 21
162.365544
 31
0.0
  0
LINE
  5
2C4
100
AcDbEntity
  8
0095COMPONENTS
390
0
  6
KM_SOLID
 62
     4
100
AcDbLine
 10
146.161854
 20
162.240543
 30
0.0
 11
146.193768
 21
162.365544
 31
0.0
  0
LINE
  5
2C5
100
AcDbEntity
  8
0095COMPONENTS
390
0
  6
KM_SOLID
 62
     4
100
AcDbLine
 10
146.863981
 20
163.240544
 30
0.0
 11
146.895896
 21
163.365543
 31
0.0
  0
LINE
  5
2C6
100
AcDbEntity
  8
0095COMPONENTS
390
0
  6
KM_SOLID
 62
     4
100
AcDbLine
 10
146.991641
 20
163.178043
 30
0.0
 11
147.023556
 21
163.303044
 31
0.0
  0
LINE
  5
2C7
100
AcDbEntity
  8
0095COMPONENTS
390
0
  6
KM_SOLID
 62
     4
100
AcDbLine
 10
146.863981
 20
162.115544
 30
0.0
 11
146.832066
 21
161.990544
 31
0.0
  0
LINE
  5
2C8
100
AcDbEntity
  8
0095COMPONENTS
390
0
  6
KM_SOLID
 62
     4
100
AcDbLine
 10
147.023556
 20
162.053043
 30
0.0
 11
146.991641
 21
161.928044
 31
0.0
  0
LINE
  5
2C9
100
AcDbEntity
  8
0095COMPONENTS
390
0
  6
KM_SOLID
 62
     4
100
AcDbLine
 10
147.023556
 20
158.490544
 30
0.0
 11
146.991641
 21
158.365543
 31
0.0
  0
LINE
  5
2CA
100
AcDbEntity
  8
0095COMPONENTS
390
0
  6
KM_SOLID
 62
     4
100
AcDbLine
 10
146.002279
 20
166.146794
 30
0.0
 11
146.034194
 21
166.240544
 31
0.0
  0
LINE
  5
2CB
100
AcDbEntity
  8
0095COMPONENTS
390
0
  6
KM_SOLID
 62
     4
100
AcDbLine
 10
145.715045
 20
157.584294
 30
0.0
 11
145.68313
 21
157.490544
 31
0.0
  0
LINE
  5
2CC
100
AcDbEntity
  8
0095COMPONENTS
390
0
  6
KM_SOLID
 62
     4
100
AcDbLine
 10
146.193768
 20
166.209294
 30
0.0
 11
146.161854
 21
166.146794
 31
0.0
  0
LINE
  5
2CD
100
AcDbEntity
  8
0095COMPONENTS
390
0
  6
KM_SOLID
 62
     4
100
AcDbLine
 10
146.066109
 20
163.740543
 30
0.0
 11
146.034194
 21
163.678044
 31
0.0
  0
LINE
  5
2CE
100
AcDbEntity
  8
0095COMPONENTS
390
0
  6
KM_SOLID
 62
     4
100
AcDbLine
 10
146.034194
 20
162.365544
 30
0.0
 11
146.066109
 21
162.428043
 31
0.0
  0
LINE
  5
2CF
100
AcDbEntity
  8
0095COMPONENTS
390
0
  6
KM_SOLID
 62
     4
100
AcDbLine
 10
146.959726
 20
163.115544
 30
0.0
 11
146.991641
 21
163.178043
 31
0.0
  0
LINE
  5
2D0
100
AcDbEntity
  8
0095COMPONENTS
390
0
  6
KM_SOLID
 62
     4
100
AcDbLine
 10
146.034194
 20
166.240544
 30
0.0
 11
146.098024
 21
166.334294
 31
0.0
  0
LINE
  5
2D1
100
AcDbEntity
  8
0095COMPONENTS
390
0
  6
KM_SOLID
 62
     4
100
AcDbLine
 10
146.193768
 20
162.365544
 30
0.0
 11
146.257598
 21
162.459294
 31
0.0
  0
LINE
  5
2D2
100
AcDbEntity
  8
0095COMPONENTS
390
0
  6
KM_SOLID
 62
     4
100
AcDbLine
 10
146.098024
 20
166.334294
 30
0.0
 11
146.161854
 21
166.396794
 31
0.0
  0
LINE
  5
2D3
100
AcDbEntity
  8
0095COMPONENTS
390
0
  6
KM_SOLID
 62
     4
100
AcDbLine
 10
146.257598
 20
166.271793
 30
0.0
 11
146.193768
 21
166.209294
 31
0.0
  0
LINE
  5
2D4
100
AcDbEntity
  8
0095COMPONENTS
390
0
  6
KM_SOLID
 62
     4
100
AcDbLine
 10
146.129939
 20
163.803044
 30
0.0
 11
146.066109
 21
163.740543
 31
0.0
  0
LINE
  5
2D5
100
AcDbEntity
  8
0095COMPONENTS
390
0
  6
KM_SOLID
 62
     4
100
AcDbLine
 10
146.225683
 20
163.678044
 30
0.0
 11
146.161854
 21
163.615544
 31
0.0
  0
LINE
  5
2D6
100
AcDbEntity
  8
0095COMPONENTS
390
0
  6
KM_SOLID
 62
     4
100
AcDbLine
 10
146.800151
 20
163.178043
 30
0.0
 11
146.863981
 21
163.240544
 31
0.0
  0
LINE
  5
2D7
100
AcDbEntity
  8
0095COMPONENTS
390
0
  6
KM_SOLID
 62
     4
100
AcDbLine
 10
146.066109
 20
162.428043
 30
0.0
 11
146.129939
 21
162.490544
 31
0.0
  0
LINE
  5
2D8
100
AcDbEntity
  8
0095COMPONENTS
390
0
  6
KM_SOLID
 62
     4
100
AcDbLine
 10
146.895896
 20
163.053044
 30
0.0
 11
146.959726
 21
163.115544
 31
0.0
  0
LINE
  5
2D9
100
AcDbEntity
  8
0095COMPONENTS
390
0
  6
KM_SOLID
 62
     4
100
AcDbLine
 10
134.636596
 20
153.508415
 30
0.0
 11
133.831751
 21
152.95429
 31
0.0
  0
LINE
  5
2DA
100
AcDbEntity
  8
0095COMPONENTS
390
0
  6
KM_SOLID
 62
     4
100
AcDbLine
 10
146.225683
 20
163.865544
 30
0.0
 11
146.129939
 21
163.803044
 31
0.0
  0
LINE
  5
2DB
100
AcDbEntity
  8
0095COMPONENTS
390
0
  6
KM_SOLID
 62
     4
100
AcDbLine
 10
146.321428
 20
163.740543
 30
0.0
 11
146.225683
 21
163.678044
 31
0.0
  0
LINE
  5
2DC
100
AcDbEntity
  8
0095COMPONENTS
390
0
  6
KM_SOLID
 62
     4
100
AcDbLine
 10
146.704407
 20
163.115544
 30
0.0
 11
146.800151
 21
163.178043
 31
0.0
  0
LINE
  5
2DD
100
AcDbEntity
  8
0095COMPONENTS
390
0
  6
KM_SOLID
 62
     4
100
AcDbLine
 10
146.800151
 20
162.990543
 30
0.0
 11
146.895896
 21
163.053044
 31
0.0
  0
LINE
  5
2DE
100
AcDbEntity
  8
0095COMPONENTS
390
0
  6
KM_SOLID
 62
     4
100
AcDbLine
 10
146.257598
 20
162.459294
 30
0.0
 11
146.353343
 21
162.521793
 31
0.0
  0
LINE
  5
2DF
100
AcDbEntity
  8
0095COMPONENTS
390
0
  6
KM_SOLID
 62
     4
100
AcDbLine
 10
146.129939
 20
162.490544
 30
0.0
 11
146.193768
 21
162.521793
 31
0.0
  0
LINE
  5
2E0
100
AcDbEntity
  8
0095COMPONENTS
390
0
  6
KM_SOLID
 62
     4
100
AcDbLine
 10
146.832066
 20
161.740544
 30
0.0
 11
146.768237
 21
161.709294
 31
0.0
  0
LINE
  5
2E1
100
AcDbEntity
  8
0095COMPONENTS
390
0
  6
KM_SOLID
 62
     4
100
AcDbLine
 10
146.768237
 20
161.896794
 30
0.0
 11
146.608662
 21
161.834294
 31
0.0
  0
LINE
  5
2E2
100
AcDbEntity
  8
0095COMPONENTS
390
0
  6
KM_SOLID
 62
   255
100
AcDbLine
 10
150.64102
 20
141.039615
 30
0.0
 11
150.64102
 21
142.554371
 31
0.0
  0
LINE
  5
2E3
100
AcDbEntity
  8
0095COMPONENTS
390
0
  6
KM_SOLID
 62
   255
100
AcDbLine
 10
150.714798
 20
141.054371
 30
0.0
 11
150.714798
 21
142.554371
 31
0.0
  0
LINE
  5
2E4
100
AcDbEntity
  8
0095COMPONENTS
390
0
  6
KM_SOLID
 62
   255
100
AcDbLine
 10
150.814798
 20
178.608092
 30
0.0
 11
150.814798
 21
181.90065
 31
0.0
  0
LINE
  5
2E5
100
AcDbEntity
  8
0095COMPONENTS
390
0
  6
KM_SOLID
 62
   255
100
AcDbLine
 10
151.414798
 20
188.254371
 30
0.0
 11
151.414798
 21
202.454371
 31
0.0
  0
LINE
  5
2E6
100
AcDbEntity
  8
0095COMPONENTS
390
0
  6
KM_SOLID
 62
   255
100
AcDbLine
 10
151.514798
 20
202.454371
 30
0.0
 11
151.514798
 21
188.254371
 31
0.0
  0
LINE
  5
2E7
100
AcDbEntity
  8
0095COMPONENTS
390
0
  6
KM_SOLID
 62
   255
100
AcDbLine
 10
152.214798
 20
188.254371
 30
0.0
 11
152.214798
 21
202.254371
 31
0.0
  0
LINE
  5
2E8
100
AcDbEntity
  8
0095COMPONENTS
390
0
  6
KM_SOLID
 62
     4
100
AcDbLine
 10
146.832066
 20
158.365543
 30
0.0
 11
146.895896
 21
158.490544
 31
0.0
  0
LINE
  5
2E9
100
AcDbEntity
  8
0095COMPONENTS
390
0
  6
KM_SOLID
 62
     4
100
AcDbLine
 10
146.832066
 20
161.990544
 30
0.0
 11
146.768237
 21
161.896794
 31
0.0
  0
LINE
  5
2EA
100
AcDbEntity
  8
0095COMPONENTS
390
0
  6
KM_SOLID
 62
     4
100
AcDbLine
 10
146.991641
 20
161.928044
 30
0.0
 11
146.927811
 21
161.834294
 31
0.0
  0
LINE
  5
2EB
100
AcDbEntity
  8
0095COMPONENTS
390
0
  6
KM_SOLID
 62
     4
100
AcDbLine
 10
146.991641
 20
158.365543
 30
0.0
 11
146.927811
 21
158.271793
 31
0.0
  0
LINE
  5
2EC
100
AcDbEntity
  8
0095COMPONENTS
390
0
  6
KM_SOLID
 62
     4
100
AcDbLine
 10
145.555471
 20
157.615543
 30
0.0
 11
145.651215
 21
157.740544
 31
0.0
  0
LINE
  5
2ED
100
AcDbEntity
  8
0095COMPONENTS
390
0
  6
KM_SOLID
 62
     4
100
AcDbLine
 10
146.927811
 20
161.834294
 30
0.0
 11
146.832066
 21
161.740544
 31
0.0
  0
LINE
  5
2EE
100
AcDbEntity
  8
0095COMPONENTS
390
0
  6
KM_SOLID
 62
     4
100
AcDbLine
 10
145.778875
 20
157.646794
 30
0.0
 11
145.715045
 21
157.584294
 31
0.0
  0
LINE
  5
2EF
100
AcDbEntity
  8
0095COMPONENTS
390
0
  6
KM_SOLID
 62
     4
100
AcDbLine
 10
146.927811
 20
158.271793
 30
0.0
 11
146.832066
 21
158.178043
 31
0.0
  0
LINE
  5
2F0
100
AcDbEntity
  8
0095COMPONENTS
390
0
  6
KM_SOLID
 62
     4
100
AcDbLine
 10
145.651215
 20
157.740544
 30
0.0
 11
145.778875
 21
157.834294
 31
0.0
  0
LINE
  5
2F1
100
AcDbEntity
  8
0095COMPONENTS
390
0
  6
KM_SOLID
 62
     4
100
AcDbLine
 10
143.875666
 20
155.998383
 30
0.0
 11
144.111516
 21
156.164054
 31
0.0
  0
LINE
  5
2F2
100
AcDbEntity
  8
0095COMPONENTS
390
0
  6
KM_SOLID
 62
     4
100
AcDbLine
 10
146.736322
 20
158.303044
 30
0.0
 11
146.832066
 21
158.365543
 31
0.0
  0
LINE
  5
2F3
100
AcDbEntity
  8
0095COMPONENTS
390
0
  6
KM_SOLID
 62
     4
100
AcDbLine
 10
139.583274
 20
154.824251
 30
0.0
 11
139.784532
 21
154.923761
 31
0.0
  0
LINE
  5
2F4
100
AcDbEntity
  8
0095COMPONENTS
390
0
  6
KM_SOLID
 62
     4
100
AcDbLine
 10
146.959726
 20
159.084294
 30
0.0
 11
147.023556
 21
159.115543
 31
0.0
  0
LINE
  5
2F5
100
AcDbEntity
  8
0095COMPONENTS
390
0
  6
KM_SOLID
 62
     4
100
AcDbLine
 10
146.832066
 20
158.178043
 30
0.0
 11
146.768237
 21
158.146794
 31
0.0
  0
LINE
  5
2F6
100
AcDbEntity
  8
0095COMPONENTS
390
0
  6
KM_SOLID
 62
     4
100
AcDbLine
 10
147.023556
 20
158.959294
 30
0.0
 11
146.863981
 21
158.896794
 31
0.0
  0
LINE
  5
2F7
100
AcDbEntity
  8
0095COMPONENTS
390
0
  6
KM_SOLID
 62
     4
100
AcDbLine
 10
134.503576
 20
153.367155
 30
0.0
 11
133.710196
 21
153.064322
 31
0.0
  0
LINE
  5
2F8
100
AcDbEntity
  8
0095COMPONENTS
390
0
  6
KM_SOLID
 62
     4
100
AcDbLine
 10
139.12356
 20
153.644222
 30
0.0
 11
139.363522
 21
153.724228
 31
0.0
  0
LINE
  5
2F9
100
AcDbEntity
  8
0095COMPONENTS
390
0
  6
KM_SOLID
 62
     4
100
AcDbLine
 10
146.640577
 20
158.271793
 30
0.0
 11
146.736322
 21
158.303044
 31
0.0
  0
LINE
  5
2FA
100
AcDbEntity
  8
0095COMPONENTS
390
0
  6
KM_SOLID
 62
     4
100
AcDbLine
 10
145.778875
 20
157.834294
 30
0.0
 11
145.874619
 21
157.865544
 31
0.0
  0
LINE
  5
2FB
100
AcDbEntity
  8
0095COMPONENTS
390
0
  6
KM_SOLID
 62
     4
100
AcDbLine
 10
145.874619
 20
157.678044
 30
0.0
 11
145.778875
 21
157.646794
 31
0.0
  0
LINE
  5
2FC
100
AcDbEntity
  8
0095COMPONENTS
390
0
  6
KM_SOLID
 62
   255
100
AcDbLine
 10
134.676639
 20
193.254371
 30
0.0
 11
115.714798
 21
193.254371
 31
0.0
  0
LINE
  5
2FD
100
AcDbEntity
  8
0095COMPONENTS
390
0
  6
KM_SOLID
 62
   255
100
AcDbLine
 10
161.214798
 20
172.749444
 30
0.0
 11
160.714798
 21
173.254371
 31
0.0
  0
LINE
  5
2FE
100
AcDbEntity
  8
0095COMPONENTS
390
0
  6
KM_SOLID
 62
   255
100
AcDbLine
 10
156.514798
 20
188.254371
 30
0.0
 11
156.514798
 21
188.354371
 31
0.0
  0
LINE
  5
2FF
100
AcDbEntity
  8
0095COMPONENTS
390
0
  6
KM_SOLID
 62
   255
100
AcDbLine
 10
156.574372
 20
188.254371
 30
0.0
 11
156.574372
 21
188.354371
 31
0.0
  0
LINE
  5
300
100
AcDbEntity
  8
0095COMPONENTS
390
0
  6
KM_SOLID
 62
   255
100
AcDbLine
 10
156.753095
 20
188.254371
 30
0.0
 11
156.753095
 21
188.354371
 31
0.0
  0
LINE
  5
301
100
AcDbEntity
  8
0095COMPONENTS
390
0
  6
KM_SOLID
 62
   255
100
AcDbLine
 10
156.931819
 20
188.254371
 30
0.0
 11
156.931819
 21
188.354371
 31
0.0
  0
LINE
  5
302
100
AcDbEntity
  8
0095COMPONENTS
390
0
  6
KM_SOLID
 62
   255
100
AcDbLine
 10
157.229691
 20
188.254371
 30
0.0
 11
157.229691
 21
188.354371
 31
0.0
  0
LINE
  5
303
100
AcDbEntity
  8
0095COMPONENTS
390
0
  6
KM_SOLID
 62
   255
100
AcDbLine
 10
157.408415
 20
188.254371
 30
0.0
 11
157.408415
 21
188.354371
 31
0.0
  0
LINE
  5
304
100
AcDbEntity
  8
0095COMPONENTS
390
0
  6
KM_SOLID
 62
   255
100
AcDbLine
 10
157.646713
 20
188.254371
 30
0.0
 11
157.646713
 21
188.354371
 31
0.0
  0
LINE
  5
305
100
AcDbEntity
  8
0095COMPONENTS
390
0
  6
KM_SOLID
 62
   255
100
AcDbLine
 10
157.825436
 20
188.254371
 30
0.0
 11
157.825436
 21
188.354371
 31
0.0
  0
LINE
  5
306
100
AcDbEntity
  8
0095COMPONENTS
390
0
  6
KM_SOLID
 62
   255
100
AcDbLine
 10
157.88501
 20
188.254371
 30
0.0
 11
157.88501
 21
188.354371
 31
0.0
  0
LINE
  5
307
100
AcDbEntity
  8
0095COMPONENTS
390
0
  6
KM_SOLID
 62
     4
100
AcDbLine
 10
146.563311
 20
152.964622
 30
0.0
 11
147.28618
 21
153.504294
 31
0.0
  0
LINE
  5
308
100
AcDbEntity
  8
0095COMPONENTS
390
0
  6
KM_SOLID
 62
     4
100
AcDbLine
 10
142.913556
 20
153.404294
 30
0.0
 11
143.183556
 21
153.502993
 31
0.0
  0
LINE
  5
309
100
AcDbEntity
  8
0095COMPONENTS
390
0
  6
KM_SOLID
 62
   255
100
AcDbLine
 10
160.214798
 20
188.254371
 30
0.0
 11
161.214798
 21
187.754371
 31
0.0
  0
LINE
  5
30A
100
AcDbEntity
  8
0095COMPONENTS
390
0
  6
KM_SOLID
 62
   255
100
AcDbLine
 10
157.944585
 20
188.254371
 30
0.0
 11
157.944585
 21
188.354371
 31
0.0
  0
LINE
  5
30B
100
AcDbEntity
  8
0095COMPONENTS
390
0
  6
KM_SOLID
 62
   255
100
AcDbLine
 10
158.123308
 20
188.254371
 30
0.0
 11
158.123308
 21
188.354371
 31
0.0
  0
LINE
  5
30C
100
AcDbEntity
  8
0095COMPONENTS
390
0
  6
KM_SOLID
 62
   255
100
AcDbLine
 10
158.421181
 20
188.254371
 30
0.0
 11
158.421181
 21
188.354371
 31
0.0
  0
LINE
  5
30D
100
AcDbEntity
  8
0095COMPONENTS
390
0
  6
KM_SOLID
 62
   255
100
AcDbLine
 10
158.599904
 20
188.254371
 30
0.0
 11
158.599904
 21
188.354371
 31
0.0
  0
LINE
  5
30E
100
AcDbEntity
  8
0095COMPONENTS
390
0
  6
KM_SOLID
 62
   255
100
AcDbLine
 10
158.897776
 20
188.254371
 30
0.0
 11
158.897776
 21
188.354371
 31
0.0
  0
LINE
  5
30F
100
AcDbEntity
  8
0095COMPONENTS
390
0
  6
KM_SOLID
 62
   255
100
AcDbLine
 10
159.0765
 20
188.254371
 30
0.0
 11
159.0765
 21
188.354371
 31
0.0
  0
LINE
  5
310
100
AcDbEntity
  8
0095COMPONENTS
390
0
  6
KM_SOLID
 62
   255
100
AcDbLine
 10
159.255223
 20
188.254371
 30
0.0
 11
159.255223
 21
188.354371
 31
0.0
  0
LINE
  5
311
100
AcDbEntity
  8
0095COMPONENTS
390
0
  6
KM_SOLID
 62
   255
100
AcDbLine
 10
159.314798
 20
188.254371
 30
0.0
 11
159.314798
 21
188.354371
 31
0.0
  0
LINE
  5
312
100
AcDbEntity
  8
0095COMPONENTS
390
0
  6
KM_SOLID
 62
   255
100
AcDbLine
 10
160.714798
 20
173.254371
 30
0.0
 11
160.714798
 21
184.754371
 31
0.0
  0
LINE
  5
313
100
AcDbEntity
  8
0095COMPONENTS
390
0
  6
KM_SOLID
 62
   255
100
AcDbLine
 10
161.214798
 20
169.254371
 30
0.0
 11
161.214798
 21
187.754371
 31
0.0
  0
LINE
  5
314
100
AcDbEntity
  8
0095COMPONENTS
390
0
  6
KM_SOLID
 62
   255
100
AcDbLine
 10
170.214798
 20
166.754371
 30
0.0
 11
169.514798
 21
166.254371
 31
0.0
  0
LINE
  5
315
100
AcDbEntity
  8
0095COMPONENTS
390
0
  6
KM_SOLID
 62
   255
100
AcDbLine
 10
108.214798
 20
202.754371
 30
0.0
 11
118.914798
 21
202.754371
 31
0.0
  0
LINE
  5
316
100
AcDbEntity
  8
0095COMPONENTS
390
0
  6
KM_SOLID
 62
   255
100
AcDbLine
 10
130.914798
 20
202.754371
 30
0.0
 11
151.214798
 21
202.754371
 31
0.0
  0
LINE
  5
317
100
AcDbEntity
  8
0095COMPONENTS
390
0
  6
KM_SOLID
 62
   255
100
AcDbLine
 10
151.006186
 20
149.158611
 30
0.0
 11
154.136001
 21
151.350131
 31
0.0
  0
LINE
  5
318
100
AcDbEntity
  8
0095COMPONENTS
390
0
  6
KM_SOLID
 62
   255
100
AcDbLine
 10
149.714798
 20
204.254371
 30
0.0
 11
147.050022
 21
204.254371
 31
0.0
  0
LINE
  5
319
100
AcDbEntity
  8
0095COMPONENTS
390
0
  6
KM_SOLID
 62
   255
100
AcDbLine
 10
149.714798
 20
205.126994
 30
0.0
 11
134.714798
 21
205.126994
 31
0.0
  0
LINE
  5
31A
100
AcDbEntity
  8
0095COMPONENTS
390
0
  6
KM_SOLID
 62
   255
100
AcDbLine
 10
149.440554
 20
205.573127
 30
0.0
 11
134.989042
 21
205.573127
 31
0.0
  0
LINE
  5
31B
100
AcDbEntity
  8
0095COMPONENTS
390
0
  6
KM_SOLID
 62
   255
100
AcDbLine
 10
135.964798
 20
206.454371
 30
0.0
 11
148.464798
 21
206.454371
 31
0.0
  0
LINE
  5
31C
100
AcDbEntity
  8
0095COMPONENTS
390
0
  6
KM_SOLID
 62
   255
100
AcDbLine
 10
119.014798
 20
206.541371
 30
0.0
 11
130.814798
 21
206.541371
 31
0.0
  0
LINE
  5
31D
100
AcDbEntity
  8
0095COMPONENTS
390
0
  6
KM_SOLID
 62
   255
100
AcDbLine
 10
165.514798
 20
169.254371
 30
0.0
 11
165.514798
 21
169.354371
 31
0.0
  0
LINE
  5
31E
100
AcDbEntity
  8
0095COMPONENTS
390
0
  6
KM_SOLID
 62
   255
100
AcDbLine
 10
167.123308
 20
169.254371
 30
0.0
 11
167.123308
 21
169.354371
 31
0.0
  0
LINE
  5
31F
100
AcDbEntity
  8
0095COMPONENTS
390
0
  6
KM_SOLID
 62
   255
100
AcDbLine
 10
167.480755
 20
169.254371
 30
0.0
 11
167.480755
 21
169.354371
 31
0.0
  0
LINE
  5
320
100
AcDbEntity
  8
0095COMPONENTS
390
0
  6
KM_SOLID
 62
   255
100
AcDbLine
 10
168.314798
 20
169.254371
 30
0.0
 11
168.314798
 21
169.354371
 31
0.0
  0
LINE
  5
321
100
AcDbEntity
  8
0095COMPONENTS
390
0
  6
KM_SOLID
 62
   255
100
AcDbLine
 10
147.414798
 20
143.623214
 30
0.0
 11
145.914798
 21
142.955371
 31
0.0
  0
LINE
  5
322
100
AcDbEntity
  8
0095COMPONENTS
390
0
  6
KM_SOLID
 62
   255
100
AcDbLine
 10
121.514798
 20
209.041371
 30
0.0
 11
128.314798
 21
209.041371
 31
0.0
  0
LINE
  5
323
100
AcDbEntity
  8
0095COMPONENTS
390
0
  6
KM_SOLID
 62
   255
100
AcDbLine
 10
169.714798
 20
166.254371
 30
0.0
 11
169.714798
 21
152.254371
 31
0.0
  0
LINE
  5
324
100
AcDbEntity
  8
0095COMPONENTS
390
0
  6
KM_SOLID
 62
   255
100
AcDbLine
 10
170.214798
 20
138.754371
 30
0.0
 11
170.214798
 21
168.754371
 31
0.0
  0
LINE
  5
325
100
AcDbEntity
  8
0095COMPONENTS
390
0
  6
KM_SOLID
 62
   255
100
AcDbLine
 10
172.109981
 20
140.954371
 30
0.0
 11
172.109981
 21
138.754371
 31
0.0
  0
LINE
  5
326
100
AcDbEntity
  8
0095COMPONENTS
390
0
  6
KM_SOLID
 62
   255
100
AcDbLine
 10
173.214798
 20
141.47927
 30
0.0
 11
173.214798
 21
144.254371
 31
0.0
  0
LINE
  5
327
100
AcDbEntity
  8
0095COMPONENTS
390
0
  6
KM_SOLID
 62
   255
100
AcDbLine
 10
174.214798
 20
138.754371
 30
0.0
 11
174.214798
 21
144.254371
 31
0.0
  0
LINE
  5
328
100
AcDbEntity
  8
0095COMPONENTS
390
0
  6
KM_SOLID
 62
   255
100
AcDbLine
 10
172.109981
 20
140.954371
 30
0.0
 11
174.214798
 21
141.954371
 31
0.0
  0
LINE
  5
329
100
AcDbEntity
  8
0095COMPONENTS
390
0
  6
KM_SOLID
 62
   255
100
AcDbLine
 10
243.671443
 20
221.083321
 30
0.0
 11
243.846443
 21
221.142895
 31
0.0
  0
LINE
  5
32A
100
AcDbEntity
  8
0095COMPONENTS
390
0
  6
KM_SOLID
 62
   255
100
AcDbLine
 10
246.690443
 20
138.340767
 30
0.0
 11
256.076443
 21
138.340767
 31
0.0
  0
LINE
  5
32B
100
AcDbEntity
  8
0095COMPONENTS
390
0
  6
KM_SOLID
 62
   255
100
AcDbLine
 10
244.196443
 20
220.308853
 30
0.0
 11
243.986443
 21
220.189704
 31
0.0
  0
LINE
  5
32C
100
AcDbEntity
  8
0095COMPONENTS
390
0
  6
KM_SOLID
 62
   255
100
AcDbLine
 10
244.056443
 20
218.640767
 30
0.0
 11
244.196443
 21
218.700342
 31
0.0
  0
LINE
  5
32D
100
AcDbEntity
  8
0095COMPONENTS
390
0
  6
KM_SOLID
 62
   255
100
AcDbLine
 10
244.196443
 20
218.998214
 30
0.0
 11
244.021443
 21
218.93864
 31
0.0
  0
LINE
  5
32E
100
AcDbEntity
  8
0095COMPONENTS
390
0
  6
KM_SOLID
 62
   255
100
AcDbLine
 10
254.133443
 20
141.340767
 30
0.0
 11
253.138436
 21
141.340767
 31
0.0
  0
LINE
  5
32F
100
AcDbEntity
  8
0095COMPONENTS
390
0
  6
KM_SOLID
 62
   255
100
AcDbLine
 10
249.62845
 20
141.340767
 30
0.0
 11
248.633443
 21
141.340767
 31
0.0
  0
LINE
  5
330
100
AcDbEntity
  8
0095COMPONENTS
390
0
  6
KM_SOLID
 62
   255
100
AcDbLine
 10
242.486443
 20
142.340767
 30
0.0
 11
260.286443
 21
142.340767
 31
0.0
  0
LINE
  5
331
100
AcDbEntity
  8
0095COMPONENTS
390
0
  6
KM_SOLID
 62
   255
100
AcDbLine
 10
242.486443
 20
143.340767
 30
0.0
 11
260.286443
 21
143.340767
 31
0.0
  0
LINE
  5
332
100
AcDbEntity
  8
0095COMPONENTS
390
0
  6
KM_SOLID
 62
   255
100
AcDbLine
 10
243.636443
 20
221.381193
 30
0.0
 11
243.496443
 21
221.262044
 31
0.0
  0
LINE
  5
333
100
AcDbEntity
  8
0095COMPONENTS
390
0
  6
KM_SOLID
 62
   255
100
AcDbLine
 10
258.821443
 20
147.040767
 30
0.0
 11
258.576443
 21
146.981193
 31
0.0
  0
LINE
  5
334
100
AcDbEntity
  8
0095COMPONENTS
390
0
  6
KM_SOLID
 62
   255
100
AcDbLine
 10
244.126443
 20
144.240767
 30
0.0
 11
244.336443
 21
144.240767
 31
0.0
  0
LINE
  5
335
100
AcDbEntity
  8
0095COMPONENTS
390
0
  6
KM_SOLID
 62
   255
100
AcDbLine
 10
258.226443
 20
144.240767
 30
0.0
 11
259.486443
 21
144.240767
 31
0.0
  0
LINE
  5
336
100
AcDbEntity
  8
0095COMPONENTS
390
0
  6
KM_SOLID
 62
   255
100
AcDbLine
 10
259.486443
 20
144.53864
 30
0.0
 11
258.506443
 21
144.53864
 31
0.0
  0
LINE
  5
337
100
AcDbEntity
  8
0095COMPONENTS
390
0
  6
KM_SOLID
 62
   255
100
AcDbLine
 10
243.286443
 20
145.07481
 30
0.0
 11
244.126443
 21
145.07481
 31
0.0
  0
LINE
  5
338
100
AcDbEntity
  8
0095COMPONENTS
390
0
  6
KM_SOLID
 62
   255
100
AcDbLine
 10
244.336443
 20
145.07481
 30
0.0
 11
244.686443
 21
145.07481
 31
0.0
  0
LINE
  5
339
100
AcDbEntity
  8
0095COMPONENTS
390
0
  6
KM_SOLID
 62
   255
100
AcDbLine
 10
244.686443
 20
145.432257
 30
0.0
 11
244.336443
 21
145.432257
 31
0.0
  0
LINE
  5
33A
100
AcDbEntity
  8
0095COMPONENTS
390
0
  6
KM_SOLID
 62
   255
100
AcDbLine
 10
244.126443
 20
145.432257
 30
0.0
 11
243.531443
 21
145.432257
 31
0.0
  0
LINE
  5
33B
100
AcDbEntity
  8
0095COMPONENTS
390
0
  6
KM_SOLID
 62
   255
100
AcDbLine
 10
258.261443
 20
146.385448
 30
0.0
 11
258.436443
 21
146.385448
 31
0.0
  0
LINE
  5
33C
100
AcDbEntity
  8
0095COMPONENTS
390
0
  6
KM_SOLID
 62
   255
100
AcDbLine
 10
243.566443
 20
220.964172
 30
0.0
 11
243.671443
 21
221.083321
 31
0.0
  0
LINE
  5
33D
100
AcDbEntity
  8
0095COMPONENTS
390
0
  6
KM_SOLID
 62
   255
100
AcDbLine
 10
244.266443
 20
219.057789
 30
0.0
 11
244.196443
 21
218.998214
 31
0.0
  0
LINE
  5
33E
100
AcDbEntity
  8
0095COMPONENTS
390
0
  6
KM_SOLID
 62
   255
100
AcDbLine
 10
244.196443
 20
218.700342
 30
0.0
 11
244.336443
 21
218.819491
 31
0.0
  0
LINE
  5
33F
100
AcDbEntity
  8
0095COMPONENTS
390
0
  6
KM_SOLID
 62
   255
100
AcDbLine
 10
258.786443
 20
146.742895
 30
0.0
 11
258.926443
 21
146.742895
 31
0.0
  0
LINE
  5
340
100
AcDbEntity
  8
0095COMPONENTS
390
0
  6
KM_SOLID
 62
   255
100
AcDbLine
 10
258.961443
 20
147.040767
 30
0.0
 11
258.821443
 21
147.040767
 31
0.0
  0
LINE
  5
341
100
AcDbEntity
  8
0095COMPONENTS
390
0
  6
KM_SOLID
 62
   255
100
AcDbLine
 10
244.336443
 20
147.040767
 30
0.0
 11
244.126443
 21
147.040767
 31
0.0
  0
LINE
  5
342
100
AcDbEntity
  8
0095COMPONENTS
390
0
  6
KM_SOLID
 62
   255
100
AcDbLine
 10
257.590331
 20
147.590767
 30
0.0
 11
253.382556
 21
147.590767
 31
0.0
  0
LINE
  5
343
100
AcDbEntity
  8
0095COMPONENTS
390
0
  6
KM_SOLID
 62
   255
100
AcDbLine
 10
257.590331
 20
149.090767
 30
0.0
 11
253.382556
 21
149.090767
 31
0.0
  0
LINE
  5
344
100
AcDbEntity
  8
0095COMPONENTS
390
0
  6
KM_SOLID
 62
   255
100
AcDbLine
 10
244.266443
 20
220.070555
 30
0.0
 11
244.406443
 21
220.249278
 31
0.0
  0
LINE
  5
345
100
AcDbEntity
  8
0095COMPONENTS
390
0
  6
KM_SOLID
 62
   255
100
AcDbLine
 10
244.336443
 20
218.819491
 30
0.0
 11
244.441443
 21
218.93864
 31
0.0
  0
LINE
  5
346
100
AcDbEntity
  8
0095COMPONENTS
390
0
  6
KM_SOLID
 62
   255
100
AcDbLine
 10
260.286443
 20
151.340767
 30
0.0
 11
242.486443
 21
151.340767
 31
0.0
  0
LINE
  5
347
100
AcDbEntity
  8
0095COMPONENTS
390
0
  6
KM_SOLID
 62
   255
100
AcDbLine
 10
259.171443
 20
146.981193
 30
0.0
 11
258.961443
 21
147.040767
 31
0.0
  0
LINE
  5
348
100
AcDbEntity
  8
0095COMPONENTS
390
0
  6
KM_SOLID
 62
   255
100
AcDbLine
 10
258.926443
 20
146.742895
 30
0.0
 11
259.101443
 21
146.683321
 31
0.0
  0
LINE
  5
349
100
AcDbEntity
  8
0095COMPONENTS
390
0
  6
KM_SOLID
 62
   255
100
AcDbLine
 10
243.636443
 20
153.300342
 30
0.0
 11
243.811443
 21
153.240767
 31
0.0
  0
LINE
  5
34A
100
AcDbEntity
  8
0095COMPONENTS
390
0
  6
KM_SOLID
 62
   255
100
AcDbLine
 10
243.496443
 20
221.262044
 30
0.0
 11
243.356443
 21
221.023746
 31
0.0
  0
LINE
  5
34B
100
AcDbEntity
  8
0095COMPONENTS
390
0
  6
KM_SOLID
 62
   255
100
AcDbLine
 10
244.266443
 20
220.428001
 30
0.0
 11
244.196443
 21
220.308853
 31
0.0
  0
LINE
  5
34C
100
AcDbEntity
  8
0095COMPONENTS
390
0
  6
KM_SOLID
 62
   255
100
AcDbLine
 10
258.751443
 20
211.428001
 30
0.0
 11
258.576443
 21
211.368427
 31
0.0
  0
LINE
  5
34D
100
AcDbEntity
  8
0095COMPONENTS
390
0
  6
KM_SOLID
 62
   255
100
AcDbLine
 10
242.486443
 20
152.340767
 30
0.0
 11
260.286443
 21
152.340767
 31
0.0
  0
LINE
  5
34E
100
AcDbEntity
  8
0095COMPONENTS
390
0
  6
KM_SOLID
 62
   255
100
AcDbLine
 10
243.811443
 20
153.240767
 30
0.0
 11
244.021443
 21
153.240767
 31
0.0
  0
LINE
  5
34F
100
AcDbEntity
  8
0095COMPONENTS
390
0
  6
KM_SOLID
 62
   255
100
AcDbLine
 10
258.786443
 20
153.240767
 30
0.0
 11
258.961443
 21
153.240767
 31
0.0
  0
LINE
  5
350
100
AcDbEntity
  8
0095COMPONENTS
390
0
  6
KM_SOLID
 62
   255
100
AcDbLine
 10
258.996443
 20
153.53864
 30
0.0
 11
258.751443
 21
153.53864
 31
0.0
  0
LINE
  5
351
100
AcDbEntity
  8
0095COMPONENTS
390
0
  6
KM_SOLID
 62
   255
100
AcDbLine
 10
243.986443
 20
153.53864
 30
0.0
 11
243.846443
 21
153.53864
 31
0.0
  0
LINE
  5
352
100
AcDbEntity
  8
0095COMPONENTS
390
0
  6
KM_SOLID
 62
   255
100
AcDbLine
 10
243.846443
 20
154.551406
 30
0.0
 11
243.986443
 21
154.551406
 31
0.0
  0
LINE
  5
353
100
AcDbEntity
  8
0095COMPONENTS
390
0
  6
KM_SOLID
 62
   255
100
AcDbLine
 10
258.751443
 20
154.730129
 30
0.0
 11
258.996443
 21
154.730129
 31
0.0
  0
LINE
  5
354
100
AcDbEntity
  8
0095COMPONENTS
390
0
  6
KM_SOLID
 62
   255
100
AcDbLine
 10
243.986443
 20
154.789704
 30
0.0
 11
243.846443
 21
154.789704
 31
0.0
  0
LINE
  5
355
100
AcDbEntity
  8
0095COMPONENTS
390
0
  6
KM_SOLID
 62
   255
100
AcDbLine
 10
258.961443
 20
155.028001
 30
0.0
 11
258.786443
 21
155.028001
 31
0.0
  0
LINE
  5
356
100
AcDbEntity
  8
0095COMPONENTS
390
0
  6
KM_SOLID
 62
   255
100
AcDbLine
 10
244.161443
 20
155.981193
 30
0.0
 11
243.986443
 21
156.040767
 31
0.0
  0
LINE
  5
357
100
AcDbEntity
  8
0095COMPONENTS
390
0
  6
KM_SOLID
 62
   255
100
AcDbLine
 10
243.846443
 20
153.53864
 30
0.0
 11
243.706443
 21
153.598214
 31
0.0
  0
LINE
  5
358
100
AcDbEntity
  8
0095COMPONENTS
390
0
  6
KM_SOLID
 62
   255
100
AcDbLine
 10
243.986443
 20
154.551406
 30
0.0
 11
244.126443
 21
154.491831
 31
0.0
  0
LINE
  5
359
100
AcDbEntity
  8
0095COMPONENTS
390
0
  6
KM_SOLID
 62
   255
100
AcDbLine
 10
243.846443
 20
154.789704
 30
0.0
 11
243.706443
 21
154.849278
 31
0.0
  0
LINE
  5
35A
100
AcDbEntity
  8
0095COMPONENTS
390
0
  6
KM_SOLID
 62
   255
100
AcDbLine
 10
243.986443
 20
155.742895
 30
0.0
 11
244.126443
 21
155.683321
 31
0.0
  0
LINE
  5
35B
100
AcDbEntity
  8
0095COMPONENTS
390
0
  6
KM_SOLID
 62
   255
100
AcDbLine
 10
243.706443
 20
153.598214
 30
0.0
 11
243.566443
 21
153.717363
 31
0.0
  0
LINE
  5
35C
100
AcDbEntity
  8
0095COMPONENTS
390
0
  6
KM_SOLID
 62
   255
100
AcDbLine
 10
244.336443
 20
219.176938
 30
0.0
 11
244.266443
 21
219.057789
 31
0.0
  0
LINE
  5
35D
100
AcDbEntity
  8
0095COMPONENTS
390
0
  6
KM_SOLID
 62
   255
100
AcDbLine
 10
258.611443
 20
211.070555
 30
0.0
 11
258.751443
 21
211.130129
 31
0.0
  0
LINE
  5
35E
100
AcDbEntity
  8
0095COMPONENTS
390
0
  6
KM_SOLID
 62
   255
100
AcDbLine
 10
259.101443
 20
209.998214
 30
0.0
 11
258.961443
 21
209.93864
 31
0.0
  0
LINE
  5
35F
100
AcDbEntity
  8
0095COMPONENTS
390
0
  6
KM_SOLID
 62
   255
100
AcDbLine
 10
258.961443
 20
209.640767
 30
0.0
 11
259.136443
 21
209.700342
 31
0.0
  0
LINE
  5
360
100
AcDbEntity
  8
0095COMPONENTS
390
0
  6
KM_SOLID
 62
   255
100
AcDbLine
 10
259.241443
 20
155.385448
 30
0.0
 11
259.416443
 21
155.385448
 31
0.0
  0
LINE
  5
361
100
AcDbEntity
  8
0095COMPONENTS
390
0
  6
KM_SOLID
 62
   255
100
AcDbLine
 10
243.846443
 20
155.742895
 30
0.0
 11
243.986443
 21
155.742895
 31
0.0
  0
LINE
  5
362
100
AcDbEntity
  8
0095COMPONENTS
390
0
  6
KM_SOLID
 62
   255
100
AcDbLine
 10
258.751443
 20
155.742895
 30
0.0
 11
258.961443
 21
155.742895
 31
0.0
  0
LINE
  5
363
100
AcDbEntity
  8
0095COMPONENTS
390
0
  6
KM_SOLID
 62
   255
100
AcDbLine
 10
258.926443
 20
156.040767
 30
0.0
 11
258.786443
 21
156.040767
 31
0.0
  0
LINE
  5
364
100
AcDbEntity
  8
0095COMPONENTS
390
0
  6
KM_SOLID
 62
   255
100
AcDbLine
 10
243.986443
 20
156.040767
 30
0.0
 11
243.846443
 21
156.040767
 31
0.0
  0
LINE
  5
365
100
AcDbEntity
  8
0095COMPONENTS
390
0
  6
KM_SOLID
 62
   255
100
AcDbLine
 10
258.611443
 20
153.300342
 30
0.0
 11
258.786443
 21
153.240767
 31
0.0
  0
LINE
  5
366
100
AcDbEntity
  8
0095COMPONENTS
390
0
  6
KM_SOLID
 62
   255
100
AcDbLine
 10
243.496443
 20
154.730129
 30
0.0
 11
243.566443
 21
154.670555
 31
0.0
  0
LINE
  5
367
100
AcDbEntity
  8
0095COMPONENTS
390
0
  6
KM_SOLID
 62
   255
100
AcDbLine
 10
244.126443
 20
154.491831
 30
0.0
 11
244.266443
 21
154.372682
 31
0.0
  0
LINE
  5
368
100
AcDbEntity
  8
0095COMPONENTS
390
0
  6
KM_SOLID
 62
   255
100
AcDbLine
 10
244.336443
 20
154.61098
 30
0.0
 11
244.266443
 21
154.670555
 31
0.0
  0
LINE
  5
369
100
AcDbEntity
  8
0095COMPONENTS
390
0
  6
KM_SOLID
 62
   255
100
AcDbLine
 10
243.461443
 20
153.479065
 30
0.0
 11
243.636443
 21
153.300342
 31
0.0
  0
LINE
  5
36A
100
AcDbEntity
  8
0095COMPONENTS
390
0
  6
KM_SOLID
 62
   255
100
AcDbLine
 10
243.496443
 20
220.785448
 30
0.0
 11
243.566443
 21
220.964172
 31
0.0
  0
LINE
  5
36B
100
AcDbEntity
  8
0095COMPONENTS
390
0
  6
KM_SOLID
 62
   255
100
AcDbLine
 10
244.406443
 20
220.249278
 30
0.0
 11
244.476443
 21
220.428001
 31
0.0
  0
LINE
  5
36C
100
AcDbEntity
  8
0095COMPONENTS
390
0
  6
KM_SOLID
 62
   255
100
AcDbLine
 10
244.441443
 20
218.93864
 30
0.0
 11
244.511443
 21
219.117363
 31
0.0
  0
LINE
  5
36D
100
AcDbEntity
  8
0095COMPONENTS
390
0
  6
KM_SOLID
 62
   255
100
AcDbLine
 10
258.736443
 20
221.440767
 30
0.0
 11
258.386443
 21
221.023746
 31
0.0
  0
LINE
  5
36E
100
AcDbEntity
  8
0095COMPONENTS
390
0
  6
KM_SOLID
 62
   255
100
AcDbLine
 10
258.386443
 20
220.54715
 30
0.0
 11
258.736443
 21
220.964172
 31
0.0
  0
LINE
  5
36F
100
AcDbEntity
  8
0095COMPONENTS
390
0
  6
KM_SOLID
 62
   255
100
AcDbLine
 10
260.286443
 20
160.340767
 30
0.0
 11
242.486443
 21
160.340767
 31
0.0
  0
LINE
  5
370
100
AcDbEntity
  8
0095COMPONENTS
390
0
  6
KM_SOLID
 62
   255
100
AcDbLine
 10
259.136443
 20
154.968427
 30
0.0
 11
258.961443
 21
155.028001
 31
0.0
  0
LINE
  5
371
100
AcDbEntity
  8
0095COMPONENTS
390
0
  6
KM_SOLID
 62
   255
100
AcDbLine
 10
259.101443
 20
155.981193
 30
0.0
 11
258.926443
 21
156.040767
 31
0.0
  0
LINE
  5
372
100
AcDbEntity
  8
0095COMPONENTS
390
0
  6
KM_SOLID
 62
   255
100
AcDbLine
 10
258.751443
 20
153.53864
 30
0.0
 11
258.646443
 21
153.598214
 31
0.0
  0
LINE
  5
373
100
AcDbEntity
  8
0095COMPONENTS
390
0
  6
KM_SOLID
 62
   255
100
AcDbLine
 10
259.311443
 20
146.862044
 30
0.0
 11
259.171443
 21
146.981193
 31
0.0
  0
LINE
  5
374
100
AcDbEntity
  8
0095COMPONENTS
390
0
  6
KM_SOLID
 62
   255
100
AcDbLine
 10
244.336443
 20
155.80247
 30
0.0
 11
244.161443
 21
155.981193
 31
0.0
  0
LINE
  5
375
100
AcDbEntity
  8
0095COMPONENTS
390
0
  6
KM_SOLID
 62
   255
100
AcDbLine
 10
243.706443
 20
154.849278
 30
0.0
 11
243.566443
 21
155.028001
 31
0.0
  0
LINE
  5
376
100
AcDbEntity
  8
0095COMPONENTS
390
0
  6
KM_SOLID
 62
   255
100
AcDbLine
 10
244.476443
 20
154.432257
 30
0.0
 11
244.336443
 21
154.61098
 31
0.0
  0
LINE
  5
377
100
AcDbEntity
  8
0095COMPONENTS
390
0
  6
KM_SOLID
 62
   255
100
AcDbLine
 10
244.126443
 20
155.683321
 30
0.0
 11
244.266443
 21
155.504597
 31
0.0
  0
LINE
  5
378
100
AcDbEntity
  8
0095COMPONENTS
390
0
  6
KM_SOLID
 62
   255
100
AcDbLine
 10
243.356443
 20
153.657789
 30
0.0
 11
243.461443
 21
153.479065
 31
0.0
  0
LINE
  5
379
100
AcDbEntity
  8
0095COMPONENTS
390
0
  6
KM_SOLID
 62
   255
100
AcDbLine
 10
243.391443
 20
154.908853
 30
0.0
 11
243.496443
 21
154.730129
 31
0.0
  0
LINE
  5
37A
100
AcDbEntity
  8
0095COMPONENTS
390
0
  6
KM_SOLID
 62
   255
100
AcDbLine
 10
244.336443
 20
220.666299
 30
0.0
 11
244.266443
 21
220.428001
 31
0.0
  0
LINE
  5
37B
100
AcDbEntity
  8
0095COMPONENTS
390
0
  6
KM_SOLID
 62
   255
100
AcDbLine
 10
244.371443
 20
219.296087
 30
0.0
 11
244.336443
 21
219.176938
 31
0.0
  0
LINE
  5
37C
100
AcDbEntity
  8
0095COMPONENTS
390
0
  6
KM_SOLID
 62
   255
100
AcDbLine
 10
260.286443
 20
161.144019
 30
0.0
 11
242.486443
 21
161.144019
 31
0.0
  0
LINE
  5
37D
100
AcDbEntity
  8
0095COMPONENTS
390
0
  6
KM_SOLID
 62
   255
100
AcDbLine
 10
258.996443
 20
154.730129
 30
0.0
 11
259.101443
 21
154.670555
 31
0.0
  0
LINE
  5
37E
100
AcDbEntity
  8
0095COMPONENTS
390
0
  6
KM_SOLID
 62
   255
100
AcDbLine
 10
258.961443
 20
155.742895
 30
0.0
 11
259.066443
 21
155.683321
 31
0.0
  0
LINE
  5
37F
100
AcDbEntity
  8
0095COMPONENTS
390
0
  6
KM_SOLID
 62
   255
100
AcDbLine
 10
244.441443
 20
155.623746
 30
0.0
 11
244.336443
 21
155.80247
 31
0.0
  0
LINE
  5
380
100
AcDbEntity
  8
0095COMPONENTS
390
0
  6
KM_SOLID
 62
   255
100
AcDbLine
 10
243.566443
 20
153.717363
 30
0.0
 11
243.461443
 21
153.955661
 31
0.0
  0
LINE
  5
381
100
AcDbEntity
  8
0095COMPONENTS
390
0
  6
KM_SOLID
 62
   255
100
AcDbLine
 10
244.266443
 20
154.372682
 30
0.0
 11
244.371443
 21
154.134384
 31
0.0
  0
LINE
  5
382
100
AcDbEntity
  8
0095COMPONENTS
390
0
  6
KM_SOLID
 62
   255
100
AcDbLine
 10
244.511443
 20
219.117363
 30
0.0
 11
244.546443
 21
219.296087
 31
0.0
  0
LINE
  5
383
100
AcDbEntity
  8
0095COMPONENTS
390
0
  6
KM_SOLID
 62
   255
100
AcDbLine
 10
244.336443
 20
212.142895
 30
0.0
 11
243.636443
 21
209.640767
 31
0.0
  0
LINE
  5
384
100
AcDbEntity
  8
0095COMPONENTS
390
0
  6
KM_SOLID
 62
   255
100
AcDbLine
 10
243.846443
 20
209.640767
 30
0.0
 11
244.546443
 21
212.142895
 31
0.0
  0
LINE
  5
385
100
AcDbEntity
  8
0095COMPONENTS
390
0
  6
KM_SOLID
 62
   255
100
AcDbLine
 10
258.576443
 20
211.368427
 30
0.0
 11
258.401443
 21
211.189704
 31
0.0
  0
LINE
  5
386
100
AcDbEntity
  8
0095COMPONENTS
390
0
  6
KM_SOLID
 62
   255
100
AcDbLine
 10
259.136443
 20
209.700342
 30
0.0
 11
259.311443
 21
209.879065
 31
0.0
  0
LINE
  5
387
100
AcDbEntity
  8
0095COMPONENTS
390
0
  6
KM_SOLID
 62
   255
100
AcDbLine
 10
245.265936
 20
165.505543
 30
0.0
 11
245.660237
 21
165.505543
 31
0.0
  0
LINE
  5
388
100
AcDbEntity
  8
0095COMPONENTS
390
0
  6
KM_SOLID
 62
   255
100
AcDbLine
 10
257.108571
 20
165.505543
 30
0.0
 11
257.50695
 21
165.505543
 31
0.0
  0
LINE
  5
389
100
AcDbEntity
  8
0095COMPONENTS
390
0
  6
KM_SOLID
 62
   255
100
AcDbLine
 10
258.436443
 20
153.479065
 30
0.0
 11
258.611443
 21
153.300342
 31
0.0
  0
LINE
  5
38A
100
AcDbEntity
  8
0095COMPONENTS
390
0
  6
KM_SOLID
 62
   255
100
AcDbLine
 10
259.101443
 20
146.683321
 30
0.0
 11
259.206443
 21
146.564172
 31
0.0
  0
LINE
  5
38B
100
AcDbEntity
  8
0095COMPONENTS
390
0
  6
KM_SOLID
 62
   255
100
AcDbLine
 10
243.566443
 20
155.028001
 30
0.0
 11
243.496443
 21
155.206725
 31
0.0
  0
LINE
  5
38C
100
AcDbEntity
  8
0095COMPONENTS
390
0
  6
KM_SOLID
 62
   255
100
AcDbLine
 10
244.266443
 20
155.504597
 30
0.0
 11
244.336443
 21
155.325874
 31
0.0
  0
LINE
  5
38D
100
AcDbEntity
  8
0095COMPONENTS
390
0
  6
KM_SOLID
 62
   255
100
AcDbLine
 10
243.321443
 20
155.14715
 30
0.0
 11
243.391443
 21
154.908853
 31
0.0
  0
LINE
  5
38E
100
AcDbEntity
  8
0095COMPONENTS
390
0
  6
KM_SOLID
 62
   255
100
AcDbLine
 10
243.356443
 20
221.023746
 30
0.0
 11
243.321443
 21
220.785448
 31
0.0
  0
LINE
  5
38F
100
AcDbEntity
  8
0095COMPONENTS
390
0
  6
KM_SOLID
 62
   255
100
AcDbLine
 10
244.476443
 20
220.428001
 30
0.0
 11
244.511443
 21
220.666299
 31
0.0
  0
LINE
  5
390
100
AcDbEntity
  8
0095COMPONENTS
390
0
  6
KM_SOLID
 62
   255
100
AcDbLine
 10
258.471443
 20
210.891831
 30
0.0
 11
258.611443
 21
211.070555
 31
0.0
  0
LINE
  5
391
100
AcDbEntity
  8
0095COMPONENTS
390
0
  6
KM_SOLID
 62
   255
100
AcDbLine
 10
259.206443
 20
210.117363
 30
0.0
 11
259.101443
 21
209.998214
 31
0.0
  0
LINE
  5
392
100
AcDbEntity
  8
0095COMPONENTS
390
0
  6
KM_SOLID
 62
   255
100
AcDbLine
 10
259.311443
 20
154.789704
 30
0.0
 11
259.136443
 21
154.968427
 31
0.0
  0
LINE
  5
393
100
AcDbEntity
  8
0095COMPONENTS
390
0
  6
KM_SOLID
 62
   255
100
AcDbLine
 10
259.276443
 20
155.80247
 30
0.0
 11
259.101443
 21
155.981193
 31
0.0
  0
LINE
  5
394
100
AcDbEntity
  8
0095COMPONENTS
390
0
  6
KM_SOLID
 62
   255
100
AcDbLine
 10
258.646443
 20
153.598214
 30
0.0
 11
258.541443
 21
153.717363
 31
0.0
  0
LINE
  5
395
100
AcDbEntity
  8
0095COMPONENTS
390
0
  6
KM_SOLID
 62
   255
100
AcDbLine
 10
259.101443
 20
154.670555
 30
0.0
 11
259.206443
 21
154.551406
 31
0.0
  0
LINE
  5
396
100
AcDbEntity
  8
0095COMPONENTS
390
0
  6
KM_SOLID
 62
   255
100
AcDbLine
 10
243.286443
 20
153.955661
 30
0.0
 11
243.356443
 21
153.657789
 31
0.0
  0
LINE
  5
397
100
AcDbEntity
  8
0095COMPONENTS
390
0
  6
KM_SOLID
 62
   255
100
AcDbLine
 10
244.546443
 20
154.134384
 30
0.0
 11
244.476443
 21
154.432257
 31
0.0
  0
LINE
  5
398
100
AcDbEntity
  8
0095COMPONENTS
390
0
  6
KM_SOLID
 62
   255
100
AcDbLine
 10
244.511443
 20
155.325874
 30
0.0
 11
244.441443
 21
155.623746
 31
0.0
  0
LINE
  5
399
100
AcDbEntity
  8
0095COMPONENTS
390
0
  6
KM_SOLID
 62
   255
100
AcDbLine
 10
242.486443
 20
142.340767
 30
0.0
 11
242.486443
 21
223.340767
 31
0.0
  0
LINE
  5
39A
100
AcDbEntity
  8
0095COMPONENTS
390
0
  6
KM_SOLID
 62
   255
100
AcDbLine
 10
259.066443
 20
155.683321
 30
0.0
 11
259.171443
 21
155.564172
 31
0.0
  0
LINE
  5
39B
100
AcDbEntity
  8
0095COMPONENTS
390
0
  6
KM_SOLID
 62
   255
100
AcDbLine
 10
259.451443
 20
146.623746
 30
0.0
 11
259.311443
 21
146.862044
 31
0.0
  0
LINE
  5
39C
100
AcDbEntity
  8
0095COMPONENTS
390
0
  6
KM_SOLID
 62
   255
100
AcDbLine
 10
243.286443
 20
212.440767
 30
0.0
 11
243.286443
 21
212.142895
 31
0.0
  0
LINE
  5
39D
100
AcDbEntity
  8
0095COMPONENTS
390
0
  6
KM_SOLID
 62
   255
100
AcDbLine
 10
243.286443
 20
154.134384
 30
0.0
 11
243.286443
 21
153.955661
 31
0.0
  0
LINE
  5
39E
100
AcDbEntity
  8
0095COMPONENTS
390
0
  6
KM_SOLID
 62
   255
100
AcDbLine
 10
243.286443
 20
145.432257
 30
0.0
 11
243.286443
 21
145.07481
 31
0.0
  0
LINE
  5
39F
100
AcDbEntity
  8
0095COMPONENTS
390
0
  6
KM_SOLID
 62
   255
100
AcDbLine
 10
243.321443
 20
155.325874
 30
0.0
 11
243.321443
 21
155.14715
 31
0.0
  0
LINE
  5
3A0
100
AcDbEntity
  8
0095COMPONENTS
390
0
  6
KM_SOLID
 62
   255
100
AcDbLine
 10
243.461443
 20
153.955661
 30
0.0
 11
243.461443
 21
154.134384
 31
0.0
  0
LINE
  5
3A1
100
AcDbEntity
  8
0095COMPONENTS
390
0
  6
KM_SOLID
 62
   255
100
AcDbLine
 10
243.496443
 20
155.206725
 30
0.0
 11
243.496443
 21
155.325874
 31
0.0
  0
LINE
  5
3A2
100
AcDbEntity
  8
0095COMPONENTS
390
0
  6
KM_SOLID
 62
   255
100
AcDbLine
 10
243.846443
 20
220.189704
 30
0.0
 11
243.846443
 21
219.951406
 31
0.0
  0
LINE
  5
3A3
100
AcDbEntity
  8
0095COMPONENTS
390
0
  6
KM_SOLID
 62
   255
100
AcDbLine
 10
244.126443
 20
146.564172
 30
0.0
 11
244.126443
 21
145.432257
 31
0.0
  0
LINE
  5
3A4
100
AcDbEntity
  8
0095COMPONENTS
390
0
  6
KM_SOLID
 62
   255
100
AcDbLine
 10
244.126443
 20
145.07481
 30
0.0
 11
244.126443
 21
144.240767
 31
0.0
  0
LINE
  5
3A5
100
AcDbEntity
  8
0095COMPONENTS
390
0
  6
KM_SOLID
 62
   255
100
AcDbLine
 10
244.336443
 20
220.785448
 30
0.0
 11
244.336443
 21
220.666299
 31
0.0
  0
LINE
  5
3A6
100
AcDbEntity
  8
0095COMPONENTS
390
0
  6
KM_SOLID
 62
   255
100
AcDbLine
 10
244.336443
 20
155.325874
 30
0.0
 11
244.336443
 21
155.206725
 31
0.0
  0
LINE
  5
3A7
100
AcDbEntity
  8
0095COMPONENTS
390
0
  6
KM_SOLID
 62
   255
100
AcDbLine
 10
244.336443
 20
144.240767
 30
0.0
 11
244.336443
 21
145.07481
 31
0.0
  0
LINE
  5
3A8
100
AcDbEntity
  8
0095COMPONENTS
390
0
  6
KM_SOLID
 62
   255
100
AcDbLine
 10
244.336443
 20
145.432257
 30
0.0
 11
244.336443
 21
147.040767
 31
0.0
  0
LINE
  5
3A9
100
AcDbEntity
  8
0095COMPONENTS
390
0
  6
KM_SOLID
 62
   255
100
AcDbLine
 10
244.371443
 20
219.534384
 30
0.0
 11
244.371443
 21
219.296087
 31
0.0
  0
LINE
  5
3AA
100
AcDbEntity
  8
0095COMPONENTS
390
0
  6
KM_SOLID
 62
   255
100
AcDbLine
 10
244.371443
 20
154.134384
 30
0.0
 11
244.371443
 21
153.955661
 31
0.0
  0
LINE
  5
3AB
100
AcDbEntity
  8
0095COMPONENTS
390
0
  6
KM_SOLID
 62
   255
100
AcDbLine
 10
244.511443
 20
155.14715
 30
0.0
 11
244.511443
 21
155.325874
 31
0.0
  0
LINE
  5
3AC
100
AcDbEntity
  8
0095COMPONENTS
390
0
  6
KM_SOLID
 62
   255
100
AcDbLine
 10
244.511443
 20
220.666299
 30
0.0
 11
244.511443
 21
220.785448
 31
0.0
  0
LINE
  5
3AD
100
AcDbEntity
  8
0095COMPONENTS
390
0
  6
KM_SOLID
 62
   255
100
AcDbLine
 10
244.546443
 20
153.955661
 30
0.0
 11
244.546443
 21
154.134384
 31
0.0
  0
LINE
  5
3AE
100
AcDbEntity
  8
0095COMPONENTS
390
0
  6
KM_SOLID
 62
   255
100
AcDbLine
 10
244.546443
 20
212.142895
 30
0.0
 11
244.546443
 21
212.440767
 31
0.0
  0
LINE
  5
3AF
100
AcDbEntity
  8
0095COMPONENTS
390
0
  6
KM_SOLID
 62
   255
100
AcDbLine
 10
244.546443
 20
219.296087
 30
0.0
 11
244.546443
 21
219.534384
 31
0.0
  0
LINE
  5
3B0
100
AcDbEntity
  8
0095COMPONENTS
390
0
  6
KM_SOLID
 62
   255
100
AcDbLine
 10
244.686443
 20
145.07481
 30
0.0
 11
244.686443
 21
145.432257
 31
0.0
  0
LINE
  5
3B1
100
AcDbEntity
  8
0095COMPONENTS
390
0
  6
KM_SOLID
 62
   255
100
AcDbLine
 10
245.386443
 20
193.640767
 30
0.0
 11
245.386443
 21
181.640767
 31
0.0
  0
LINE
  5
3B2
100
AcDbEntity
  8
0095COMPONENTS
390
0
  6
KM_SOLID
 62
   255
100
AcDbLine
 10
245.486443
 20
193.040767
 30
0.0
 11
245.486443
 21
182.240767
 31
0.0
  0
LINE
  5
3B3
100
AcDbEntity
  8
0095COMPONENTS
390
0
  6
KM_SOLID
 62
   255
100
AcDbLine
 10
245.690443
 20
142.340767
 30
0.0
 11
245.690443
 21
139.340767
 31
0.0
  0
LINE
  5
3B4
100
AcDbEntity
  8
0095COMPONENTS
390
0
  6
KM_SOLID
 62
   255
100
AcDbLine
 10
259.206443
 20
154.551406
 30
0.0
 11
259.276443
 21
154.432257
 31
0.0
  0
LINE
  5
3B5
100
AcDbEntity
  8
0095COMPONENTS
390
0
  6
KM_SOLID
 62
   255
100
AcDbLine
 10
259.416443
 20
154.61098
 30
0.0
 11
259.311443
 21
154.789704
 31
0.0
  0
LINE
  5
3B6
100
AcDbEntity
  8
0095COMPONENTS
390
0
  6
KM_SOLID
 62
   255
100
AcDbLine
 10
247.986443
 20
191.040767
 30
0.0
 11
247.986443
 21
184.240767
 31
0.0
  0
LINE
  5
3B7
100
AcDbEntity
  8
0095COMPONENTS
390
0
  6
KM_SOLID
 62
   255
100
AcDbLine
 10
259.276443
 20
210.296087
 30
0.0
 11
259.206443
 21
210.117363
 31
0.0
  0
LINE
  5
3B8
100
AcDbEntity
  8
0095COMPONENTS
390
0
  6
KM_SOLID
 62
   255
100
AcDbLine
 10
259.311443
 20
209.879065
 30
0.0
 11
259.416443
 21
210.117363
 31
0.0
  0
LINE
  5
3B9
100
AcDbEntity
  8
0095COMPONENTS
390
0
  6
KM_SOLID
 62
   255
100
AcDbLine
 10
258.331443
 20
153.717363
 30
0.0
 11
258.436443
 21
153.479065
 31
0.0
  0
LINE
  5
3BA
100
AcDbEntity
  8
0095COMPONENTS
390
0
  6
KM_SOLID
 62
   255
100
AcDbLine
 10
259.381443
 20
155.564172
 30
0.0
 11
259.276443
 21
155.80247
 31
0.0
  0
LINE
  5
3BB
100
AcDbEntity
  8
0095COMPONENTS
390
0
  6
KM_SOLID
 62
   255
100
AcDbLine
 10
259.206443
 20
146.564172
 30
0.0
 11
259.276443
 21
146.385448
 31
0.0
  0
LINE
  5
3BC
100
AcDbEntity
  8
0095COMPONENTS
390
0
  6
KM_SOLID
 62
   255
100
AcDbLine
 10
258.541443
 20
153.717363
 30
0.0
 11
258.471443
 21
153.896087
 31
0.0
  0
LINE
  5
3BD
100
AcDbEntity
  8
0095COMPONENTS
390
0
  6
KM_SOLID
 62
   255
100
AcDbLine
 10
250.786443
 20
181.740767
 30
0.0
 11
250.786443
 21
181.640767
 31
0.0
  0
LINE
  5
3BE
100
AcDbEntity
  8
0095COMPONENTS
390
0
  6
KM_SOLID
 62
   255
100
AcDbLine
 10
250.786443
 20
193.540767
 30
0.0
 11
250.786443
 21
193.640767
 31
0.0
  0
LINE
  5
3BF
100
AcDbEntity
  8
0095COMPONENTS
390
0
  6
KM_SOLID
 62
   255
100
AcDbLine
 10
251.386443
 20
142.340767
 30
0.0
 11
251.386443
 21
160.340767
 31
0.0
  0
LINE
  5
3C0
100
AcDbEntity
  8
0095COMPONENTS
390
0
  6
KM_SOLID
 62
   255
100
AcDbLine
 10
251.386443
 20
205.340767
 30
0.0
 11
251.386443
 21
223.340767
 31
0.0
  0
LINE
  5
3C1
100
AcDbEntity
  8
0095COMPONENTS
390
0
  6
KM_SOLID
 62
   255
100
AcDbLine
 10
243.391443
 20
155.623746
 30
0.0
 11
243.321443
 21
155.325874
 31
0.0
  0
LINE
  5
3C2
100
AcDbEntity
  8
0095COMPONENTS
390
0
  6
KM_SOLID
 62
   255
100
AcDbLine
 10
243.356443
 20
154.432257
 30
0.0
 11
243.286443
 21
154.134384
 31
0.0
  0
LINE
  5
3C3
100
AcDbEntity
  8
0095COMPONENTS
390
0
  6
KM_SOLID
 62
   255
100
AcDbLine
 10
244.476443
 20
153.657789
 30
0.0
 11
244.546443
 21
153.955661
 31
0.0
  0
LINE
  5
3C4
100
AcDbEntity
  8
0095COMPONENTS
390
0
  6
KM_SOLID
 62
   255
100
AcDbLine
 10
259.171443
 20
155.564172
 30
0.0
 11
259.241443
 21
155.385448
 31
0.0
  0
LINE
  5
3C5
100
AcDbEntity
  8
0095COMPONENTS
390
0
  6
KM_SOLID
 62
   255
100
AcDbLine
 10
243.286443
 20
219.296087
 30
0.0
 11
243.321443
 21
219.117363
 31
0.0
  0
LINE
  5
3C6
100
AcDbEntity
  8
0095COMPONENTS
390
0
  6
KM_SOLID
 62
   255
100
AcDbLine
 10
244.546443
 20
219.534384
 30
0.0
 11
244.511443
 21
219.772682
 31
0.0
  0
LINE
  5
3C7
100
AcDbEntity
  8
0095COMPONENTS
390
0
  6
KM_SOLID
 62
   255
100
AcDbLine
 10
244.511443
 20
220.785448
 30
0.0
 11
244.476443
 21
221.023746
 31
0.0
  0
LINE
  5
3C8
100
AcDbEntity
  8
0095COMPONENTS
390
0
  6
KM_SOLID
 62
   255
100
AcDbLine
 10
251.986443
 20
181.740767
 30
0.0
 11
251.986443
 21
181.640767
 31
0.0
  0
LINE
  5
3C9
100
AcDbEntity
  8
0095COMPONENTS
390
0
  6
KM_SOLID
 62
   255
100
AcDbLine
 10
251.986443
 20
193.540767
 30
0.0
 11
251.986443
 21
193.640767
 31
0.0
  0
LINE
  5
3CA
100
AcDbEntity
  8
0095COMPONENTS
390
0
  6
KM_SOLID
 62
   255
100
AcDbLine
 10
254.286443
 20
181.640767
 30
0.0
 11
254.286443
 21
181.740767
 31
0.0
  0
LINE
  5
3CB
100
AcDbEntity
  8
0095COMPONENTS
390
0
  6
KM_SOLID
 62
   255
100
AcDbLine
 10
254.286443
 20
193.540767
 30
0.0
 11
254.286443
 21
193.640767
 31
0.0
  0
LINE
  5
3CC
100
AcDbEntity
  8
0095COMPONENTS
390
0
  6
KM_SOLID
 62
   255
100
AcDbLine
 10
259.311443
 20
210.47481
 30
0.0
 11
259.276443
 21
210.296087
 31
0.0
  0
LINE
  5
3CD
100
AcDbEntity
  8
0095COMPONENTS
390
0
  6
KM_SOLID
 62
   255
100
AcDbLine
 10
259.416443
 20
210.117363
 30
0.0
 11
259.486443
 21
210.415236
 31
0.0
  0
LINE
  5
3CE
100
AcDbEntity
  8
0095COMPONENTS
390
0
  6
KM_SOLID
 62
   255
100
AcDbLine
 10
244.441443
 20
154.908853
 30
0.0
 11
244.511443
 21
155.14715
 31
0.0
  0
LINE
  5
3CF
100
AcDbEntity
  8
0095COMPONENTS
390
0
  6
KM_SOLID
 62
   255
100
AcDbLine
 10
243.496443
 20
155.325874
 30
0.0
 11
243.566443
 21
155.504597
 31
0.0
  0
LINE
  5
3D0
100
AcDbEntity
  8
0095COMPONENTS
390
0
  6
KM_SOLID
 62
   255
100
AcDbLine
 10
244.336443
 20
155.206725
 30
0.0
 11
244.266443
 21
155.028001
 31
0.0
  0
LINE
  5
3D1
100
AcDbEntity
  8
0095COMPONENTS
390
0
  6
KM_SOLID
 62
   255
100
AcDbLine
 10
257.386443
 20
181.640767
 30
0.0
 11
242.486443
 21
181.640767
 31
0.0
  0
LINE
  5
3D2
100
AcDbEntity
  8
0095COMPONENTS
390
0
  6
KM_SOLID
 62
   255
100
AcDbLine
 10
245.986443
 20
181.740767
 30
0.0
 11
256.786443
 21
181.740767
 31
0.0
  0
LINE
  5
3D3
100
AcDbEntity
  8
0095COMPONENTS
390
0
  6
KM_SOLID
 62
   255
100
AcDbLine
 10
243.496443
 20
219.176938
 30
0.0
 11
243.461443
 21
219.296087
 31
0.0
  0
LINE
  5
3D4
100
AcDbEntity
  8
0095COMPONENTS
390
0
  6
KM_SOLID
 62
   255
100
AcDbLine
 10
258.261443
 20
154.015236
 30
0.0
 11
258.331443
 21
153.717363
 31
0.0
  0
LINE
  5
3D5
100
AcDbEntity
  8
0095COMPONENTS
390
0
  6
KM_SOLID
 62
   255
100
AcDbLine
 10
259.486443
 20
154.313108
 30
0.0
 11
259.416443
 21
154.61098
 31
0.0
  0
LINE
  5
3D6
100
AcDbEntity
  8
0095COMPONENTS
390
0
  6
KM_SOLID
 62
   255
100
AcDbLine
 10
258.471443
 20
153.896087
 30
0.0
 11
258.436443
 21
154.07481
 31
0.0
  0
LINE
  5
3D7
100
AcDbEntity
  8
0095COMPONENTS
390
0
  6
KM_SOLID
 62
   255
100
AcDbLine
 10
259.276443
 20
154.432257
 30
0.0
 11
259.311443
 21
154.253533
 31
0.0
  0
LINE
  5
3D8
100
AcDbEntity
  8
0095COMPONENTS
390
0
  6
KM_SOLID
 62
   255
100
AcDbLine
 10
259.416443
 20
155.385448
 30
0.0
 11
259.381443
 21
155.564172
 31
0.0
  0
LINE
  5
3D9
100
AcDbEntity
  8
0095COMPONENTS
390
0
  6
KM_SOLID
 62
   255
100
AcDbLine
 10
259.486443
 20
146.385448
 30
0.0
 11
259.451443
 21
146.623746
 31
0.0
  0
LINE
  5
3DA
100
AcDbEntity
  8
0095COMPONENTS
390
0
  6
KM_SOLID
 62
   255
100
AcDbLine
 10
258.226443
 20
154.432257
 30
0.0
 11
258.261443
 21
154.015236
 31
0.0
  0
LINE
  5
3DB
100
AcDbEntity
  8
0095COMPONENTS
390
0
  6
KM_SOLID
 62
   255
100
AcDbLine
 10
254.786443
 20
184.240767
 30
0.0
 11
254.786443
 21
191.040767
 31
0.0
  0
LINE
  5
3DC
100
AcDbEntity
  8
0095COMPONENTS
390
0
  6
KM_SOLID
 62
   255
100
AcDbLine
 10
255.786443
 20
181.640767
 30
0.0
 11
255.786443
 21
181.740767
 31
0.0
  0
LINE
  5
3DD
100
AcDbEntity
  8
0095COMPONENTS
390
0
  6
KM_SOLID
 62
   255
100
AcDbLine
 10
255.786443
 20
193.540767
 30
0.0
 11
255.786443
 21
193.640767
 31
0.0
  0
LINE
  5
3DE
100
AcDbEntity
  8
0095COMPONENTS
390
0
  6
KM_SOLID
 62
   255
100
AcDbLine
 10
257.076443
 20
139.340767
 30
0.0
 11
257.076443
 21
142.340767
 31
0.0
  0
LINE
  5
3DF
100
AcDbEntity
  8
0095COMPONENTS
390
0
  6
KM_SOLID
 62
   255
100
AcDbLine
 10
257.286443
 20
182.240767
 30
0.0
 11
257.286443
 21
193.040767
 31
0.0
  0
LINE
  5
3E0
100
AcDbEntity
  8
0095COMPONENTS
390
0
  6
KM_SOLID
 62
   255
100
AcDbLine
 10
257.386443
 20
181.640767
 30
0.0
 11
257.386443
 21
193.640767
 31
0.0
  0
LINE
  5
3E1
100
AcDbEntity
  8
0095COMPONENTS
390
0
  6
KM_SOLID
 62
   255
100
AcDbLine
 10
243.461443
 20
154.134384
 30
0.0
 11
243.566443
 21
154.372682
 31
0.0
  0
LINE
  5
3E2
100
AcDbEntity
  8
0095COMPONENTS
390
0
  6
KM_SOLID
 62
   255
100
AcDbLine
 10
244.371443
 20
153.955661
 30
0.0
 11
244.266443
 21
153.717363
 31
0.0
  0
LINE
  5
3E3
100
AcDbEntity
  8
0095COMPONENTS
390
0
  6
KM_SOLID
 62
   255
100
AcDbLine
 10
243.496443
 20
155.80247
 30
0.0
 11
243.391443
 21
155.623746
 31
0.0
  0
LINE
  5
3E4
100
AcDbEntity
  8
0095COMPONENTS
390
0
  6
KM_SOLID
 62
   255
100
AcDbLine
 10
247.986443
 20
184.240767
 30
0.0
 11
254.786443
 21
184.240767
 31
0.0
  0
LINE
  5
3E5
100
AcDbEntity
  8
0095COMPONENTS
390
0
  6
KM_SOLID
 62
   255
100
AcDbLine
 10
257.286443
 20
184.840767
 30
0.0
 11
257.386443
 21
184.840767
 31
0.0
  0
LINE
  5
3E6
100
AcDbEntity
  8
0095COMPONENTS
390
0
  6
KM_SOLID
 62
   255
100
AcDbLine
 10
257.286443
 20
186.040767
 30
0.0
 11
257.386443
 21
186.040767
 31
0.0
  0
LINE
  5
3E7
100
AcDbEntity
  8
0095COMPONENTS
390
0
  6
KM_SOLID
 62
   255
100
AcDbLine
 10
244.301443
 20
219.772682
 30
0.0
 11
244.371443
 21
219.534384
 31
0.0
  0
LINE
  5
3E8
100
AcDbEntity
  8
0095COMPONENTS
390
0
  6
KM_SOLID
 62
   255
100
AcDbLine
 10
258.226443
 20
212.440767
 30
0.0
 11
258.226443
 21
210.891831
 31
0.0
  0
LINE
  5
3E9
100
AcDbEntity
  8
0095COMPONENTS
390
0
  6
KM_SOLID
 62
   255
100
AcDbLine
 10
258.226443
 20
154.849278
 30
0.0
 11
258.226443
 21
154.432257
 31
0.0
  0
LINE
  5
3EA
100
AcDbEntity
  8
0095COMPONENTS
390
0
  6
KM_SOLID
 62
   255
100
AcDbLine
 10
258.226443
 20
144.53864
 30
0.0
 11
258.226443
 21
144.240767
 31
0.0
  0
LINE
  5
3EB
100
AcDbEntity
  8
0095COMPONENTS
390
0
  6
KM_SOLID
 62
   255
100
AcDbLine
 10
258.386443
 20
221.023746
 30
0.0
 11
258.386443
 21
220.54715
 31
0.0
  0
LINE
  5
3EC
100
AcDbEntity
  8
0095COMPONENTS
390
0
  6
KM_SOLID
 62
   255
100
AcDbLine
 10
258.401443
 20
154.730129
 30
0.0
 11
258.401443
 21
154.849278
 31
0.0
  0
LINE
  5
3ED
100
AcDbEntity
  8
0095COMPONENTS
390
0
  6
KM_SOLID
 62
   255
100
AcDbLine
 10
258.401443
 20
211.189704
 30
0.0
 11
258.401443
 21
212.142895
 31
0.0
  0
LINE
  5
3EE
100
AcDbEntity
  8
0095COMPONENTS
390
0
  6
KM_SOLID
 62
   255
100
AcDbLine
 10
258.436443
 20
154.07481
 30
0.0
 11
258.436443
 21
154.253533
 31
0.0
  0
LINE
  5
3EF
100
AcDbEntity
  8
0095COMPONENTS
390
0
  6
KM_SOLID
 62
   255
100
AcDbLine
 10
258.736443
 20
220.964172
 30
0.0
 11
258.736443
 21
218.640767
 31
0.0
  0
LINE
  5
3F0
100
AcDbEntity
  8
0095COMPONENTS
390
0
  6
KM_SOLID
 62
   255
100
AcDbLine
 10
259.086443
 20
218.640767
 30
0.0
 11
259.086443
 21
221.440767
 31
0.0
  0
LINE
  5
3F1
100
AcDbEntity
  8
0095COMPONENTS
390
0
  6
KM_SOLID
 62
   255
100
AcDbLine
 10
259.276443
 20
146.385448
 30
0.0
 11
259.276443
 21
146.266299
 31
0.0
  0
LINE
  5
3F2
100
AcDbEntity
  8
0095COMPONENTS
390
0
  6
KM_SOLID
 62
   255
100
AcDbLine
 10
259.311443
 20
210.593959
 30
0.0
 11
259.311443
 21
210.47481
 31
0.0
  0
LINE
  5
3F3
100
AcDbEntity
  8
0095COMPONENTS
390
0
  6
KM_SOLID
 62
   255
100
AcDbLine
 10
259.311443
 20
154.253533
 30
0.0
 11
259.311443
 21
154.07481
 31
0.0
  0
LINE
  5
3F4
100
AcDbEntity
  8
0095COMPONENTS
390
0
  6
KM_SOLID
 62
   255
100
AcDbLine
 10
259.416443
 20
212.142895
 30
0.0
 11
259.416443
 21
212.440767
 31
0.0
  0
LINE
  5
3F5
100
AcDbEntity
  8
0095COMPONENTS
390
0
  6
KM_SOLID
 62
   255
100
AcDbLine
 10
259.486443
 20
144.240767
 30
0.0
 11
259.486443
 21
144.53864
 31
0.0
  0
LINE
  5
3F6
100
AcDbEntity
  8
0095COMPONENTS
390
0
  6
KM_SOLID
 62
   255
100
AcDbLine
 10
259.486443
 20
146.266299
 30
0.0
 11
259.486443
 21
146.385448
 31
0.0
  0
LINE
  5
3F7
100
AcDbEntity
  8
0095COMPONENTS
390
0
  6
KM_SOLID
 62
   255
100
AcDbLine
 10
259.486443
 20
154.015236
 30
0.0
 11
259.486443
 21
154.313108
 31
0.0
  0
LINE
  5
3F8
100
AcDbEntity
  8
0095COMPONENTS
390
0
  6
KM_SOLID
 62
   255
100
AcDbLine
 10
259.486443
 20
210.415236
 30
0.0
 11
259.486443
 21
210.653533
 31
0.0
  0
LINE
  5
3F9
100
AcDbEntity
  8
0095COMPONENTS
390
0
  6
KM_SOLID
 62
   255
100
AcDbLine
 10
260.286443
 20
142.340767
 30
0.0
 11
260.286443
 21
223.340767
 31
0.0
  0
LINE
  5
3FA
100
AcDbEntity
  8
0095COMPONENTS
390
0
  6
KM_SOLID
 62
   255
100
AcDbLine
 10
258.261443
 20
155.266299
 30
0.0
 11
258.226443
 21
154.849278
 31
0.0
  0
LINE
  5
3FB
100
AcDbEntity
  8
0095COMPONENTS
390
0
  6
KM_SOLID
 62
   255
100
AcDbLine
 10
244.336443
 20
154.730129
 30
0.0
 11
244.441443
 21
154.908853
 31
0.0
  0
LINE
  5
3FC
100
AcDbEntity
  8
0095COMPONENTS
390
0
  6
KM_SOLID
 62
   255
100
AcDbLine
 10
244.371443
 20
153.479065
 30
0.0
 11
244.476443
 21
153.657789
 31
0.0
  0
LINE
  5
3FD
100
AcDbEntity
  8
0095COMPONENTS
390
0
  6
KM_SOLID
 62
   255
100
AcDbLine
 10
243.321443
 20
219.117363
 30
0.0
 11
243.391443
 21
218.93864
 31
0.0
  0
LINE
  5
3FE
100
AcDbEntity
  8
0095COMPONENTS
390
0
  6
KM_SOLID
 62
   255
100
AcDbLine
 10
244.511443
 20
219.772682
 30
0.0
 11
244.441443
 21
219.951406
 31
0.0
  0
LINE
  5
3FF
100
AcDbEntity
  8
0095COMPONENTS
390
0
  6
KM_SOLID
 62
   255
100
AcDbLine
 10
244.266443
 20
220.964172
 30
0.0
 11
244.336443
 21
220.785448
 31
0.0
  0
LINE
  5
400
100
AcDbEntity
  8
0095COMPONENTS
390
0
  6
KM_SOLID
 62
   255
100
AcDbLine
 10
258.401443
 20
154.849278
 30
0.0
 11
258.436443
 21
155.206725
 31
0.0
  0
LINE
  5
401
100
AcDbEntity
  8
0095COMPONENTS
390
0
  6
KM_SOLID
 62
   255
100
AcDbLine
 10
258.296443
 20
146.623746
 30
0.0
 11
258.261443
 21
146.385448
 31
0.0
  0
LINE
  5
402
100
AcDbEntity
  8
0095COMPONENTS
390
0
  6
KM_SOLID
 62
   255
100
AcDbLine
 10
258.436443
 20
155.206725
 30
0.0
 11
258.471443
 21
155.385448
 31
0.0
  0
LINE
  5
403
100
AcDbEntity
  8
0095COMPONENTS
390
0
  6
KM_SOLID
 62
   255
100
AcDbLine
 10
244.126443
 20
147.040767
 30
0.0
 11
243.286443
 21
145.432257
 31
0.0
  0
LINE
  5
404
100
AcDbEntity
  8
0095COMPONENTS
390
0
  6
KM_SOLID
 62
   255
100
AcDbLine
 10
243.531443
 20
145.432257
 30
0.0
 11
244.126443
 21
146.564172
 31
0.0
  0
LINE
  5
405
100
AcDbEntity
  8
0095COMPONENTS
390
0
  6
KM_SOLID
 62
   255
100
AcDbLine
 10
243.566443
 20
155.504597
 30
0.0
 11
243.706443
 21
155.683321
 31
0.0
  0
LINE
  5
406
100
AcDbEntity
  8
0095COMPONENTS
390
0
  6
KM_SOLID
 62
   255
100
AcDbLine
 10
243.496443
 20
154.61098
 30
0.0
 11
243.356443
 21
154.432257
 31
0.0
  0
LINE
  5
407
100
AcDbEntity
  8
0095COMPONENTS
390
0
  6
KM_SOLID
 62
   255
100
AcDbLine
 10
244.266443
 20
155.028001
 30
0.0
 11
244.126443
 21
154.849278
 31
0.0
  0
LINE
  5
408
100
AcDbEntity
  8
0095COMPONENTS
390
0
  6
KM_SOLID
 62
   255
100
AcDbLine
 10
243.671443
 20
155.981193
 30
0.0
 11
243.496443
 21
155.80247
 31
0.0
  0
LINE
  5
409
100
AcDbEntity
  8
0095COMPONENTS
390
0
  6
KM_SOLID
 62
   255
100
AcDbLine
 10
254.786443
 20
191.040767
 30
0.0
 11
247.986443
 21
191.040767
 31
0.0
  0
LINE
  5
40A
100
AcDbEntity
  8
0095COMPONENTS
390
0
  6
KM_SOLID
 62
   255
100
AcDbLine
 10
259.451443
 20
146.028001
 30
0.0
 11
259.486443
 21
146.266299
 31
0.0
  0
LINE
  5
40B
100
AcDbEntity
  8
0095COMPONENTS
390
0
  6
KM_SOLID
 62
   255
100
AcDbLine
 10
258.436443
 20
154.253533
 30
0.0
 11
258.471443
 21
154.432257
 31
0.0
  0
LINE
  5
40C
100
AcDbEntity
  8
0095COMPONENTS
390
0
  6
KM_SOLID
 62
   255
100
AcDbLine
 10
259.311443
 20
154.07481
 30
0.0
 11
259.276443
 21
153.896087
 31
0.0
  0
LINE
  5
40D
100
AcDbEntity
  8
0095COMPONENTS
390
0
  6
KM_SOLID
 62
   255
100
AcDbLine
 10
258.331443
 20
155.564172
 30
0.0
 11
258.261443
 21
155.266299
 31
0.0
  0
LINE
  5
40E
100
AcDbEntity
  8
0095COMPONENTS
390
0
  6
KM_SOLID
 62
   255
100
AcDbLine
 10
259.416443
 20
153.717363
 30
0.0
 11
259.486443
 21
154.015236
 31
0.0
  0
LINE
  5
40F
100
AcDbEntity
  8
0095COMPONENTS
390
0
  6
KM_SOLID
 62
   255
100
AcDbLine
 10
244.196443
 20
153.300342
 30
0.0
 11
244.371443
 21
153.479065
 31
0.0
  0
LINE
  5
410
100
AcDbEntity
  8
0095COMPONENTS
390
0
  6
KM_SOLID
 62
   255
100
AcDbLine
 10
243.566443
 20
154.670555
 30
0.0
 11
243.496443
 21
154.61098
 31
0.0
  0
LINE
  5
411
100
AcDbEntity
  8
0095COMPONENTS
390
0
  6
KM_SOLID
 62
   255
100
AcDbLine
 10
256.786443
 20
193.540767
 30
0.0
 11
245.986443
 21
193.540767
 31
0.0
  0
LINE
  5
412
100
AcDbEntity
  8
0095COMPONENTS
390
0
  6
KM_SOLID
 62
   255
100
AcDbLine
 10
242.486443
 20
193.640767
 30
0.0
 11
257.386443
 21
193.640767
 31
0.0
  0
LINE
  5
413
100
AcDbEntity
  8
0095COMPONENTS
390
0
  6
KM_SOLID
 62
   255
100
AcDbLine
 10
243.566443
 20
219.057789
 30
0.0
 11
243.496443
 21
219.176938
 31
0.0
  0
LINE
  5
414
100
AcDbEntity
  8
0095COMPONENTS
390
0
  6
KM_SOLID
 62
   255
100
AcDbLine
 10
244.476443
 20
221.023746
 30
0.0
 11
244.336443
 21
221.262044
 31
0.0
  0
LINE
  5
415
100
AcDbEntity
  8
0095COMPONENTS
390
0
  6
KM_SOLID
 62
   255
100
AcDbLine
 10
259.486443
 20
210.653533
 30
0.0
 11
259.416443
 21
210.951406
 31
0.0
  0
LINE
  5
416
100
AcDbEntity
  8
0095COMPONENTS
390
0
  6
KM_SOLID
 62
   255
100
AcDbLine
 10
259.276443
 20
210.772682
 30
0.0
 11
259.311443
 21
210.593959
 31
0.0
  0
LINE
  5
417
100
AcDbEntity
  8
0095COMPONENTS
390
0
  6
KM_SOLID
 62
   255
100
AcDbLine
 10
259.276443
 20
146.266299
 30
0.0
 11
259.206443
 21
146.028001
 31
0.0
  0
LINE
  5
418
100
AcDbEntity
  8
0095COMPONENTS
390
0
  6
KM_SOLID
 62
   255
100
AcDbLine
 10
258.471443
 20
155.385448
 30
0.0
 11
258.541443
 21
155.564172
 31
0.0
  0
LINE
  5
419
100
AcDbEntity
  8
0095COMPONENTS
390
0
  6
KM_SOLID
 62
   255
100
AcDbLine
 10
259.276443
 20
153.896087
 30
0.0
 11
259.206443
 21
153.717363
 31
0.0
  0
LINE
  5
41A
100
AcDbEntity
  8
0095COMPONENTS
390
0
  6
KM_SOLID
 62
   255
100
AcDbLine
 10
258.436443
 20
155.80247
 30
0.0
 11
258.331443
 21
155.564172
 31
0.0
  0
LINE
  5
41B
100
AcDbEntity
  8
0095COMPONENTS
390
0
  6
KM_SOLID
 62
   255
100
AcDbLine
 10
243.566443
 20
154.372682
 30
0.0
 11
243.706443
 21
154.491831
 31
0.0
  0
LINE
  5
41C
100
AcDbEntity
  8
0095COMPONENTS
390
0
  6
KM_SOLID
 62
   255
100
AcDbLine
 10
244.266443
 20
154.670555
 30
0.0
 11
244.336443
 21
154.730129
 31
0.0
  0
LINE
  5
41D
100
AcDbEntity
  8
0095COMPONENTS
390
0
  6
KM_SOLID
 62
   255
100
AcDbLine
 10
244.266443
 20
153.717363
 30
0.0
 11
244.126443
 21
153.598214
 31
0.0
  0
LINE
  5
41E
100
AcDbEntity
  8
0095COMPONENTS
390
0
  6
KM_SOLID
 62
   255
100
AcDbLine
 10
258.226443
 20
210.355661
 30
0.0
 11
258.296443
 21
210.117363
 31
0.0
  0
LINE
  5
41F
100
AcDbEntity
  8
0095COMPONENTS
390
0
  6
KM_SOLID
 62
   255
100
AcDbLine
 10
258.506443
 20
210.117363
 30
0.0
 11
258.436443
 21
210.355661
 31
0.0
  0
LINE
  5
420
100
AcDbEntity
  8
0095COMPONENTS
390
0
  6
KM_SOLID
 62
   255
100
AcDbLine
 10
258.436443
 20
146.385448
 30
0.0
 11
258.506443
 21
146.564172
 31
0.0
  0
LINE
  5
421
100
AcDbEntity
  8
0095COMPONENTS
390
0
  6
KM_SOLID
 62
   255
100
AcDbLine
 10
259.381443
 20
145.849278
 30
0.0
 11
259.451443
 21
146.028001
 31
0.0
  0
LINE
  5
422
100
AcDbEntity
  8
0095COMPONENTS
390
0
  6
KM_SOLID
 62
   255
100
AcDbLine
 10
259.311443
 20
153.479065
 30
0.0
 11
259.416443
 21
153.717363
 31
0.0
  0
LINE
  5
423
100
AcDbEntity
  8
0095COMPONENTS
390
0
  6
KM_SOLID
 62
   255
100
AcDbLine
 10
258.471443
 20
154.432257
 30
0.0
 11
258.541443
 21
154.551406
 31
0.0
  0
LINE
  5
424
100
AcDbEntity
  8
0095COMPONENTS
390
0
  6
KM_SOLID
 62
   255
100
AcDbLine
 10
243.706443
 20
155.683321
 30
0.0
 11
243.846443
 21
155.742895
 31
0.0
  0
LINE
  5
425
100
AcDbEntity
  8
0095COMPONENTS
390
0
  6
KM_SOLID
 62
   255
100
AcDbLine
 10
243.391443
 20
218.93864
 30
0.0
 11
243.496443
 21
218.819491
 31
0.0
  0
LINE
  5
426
100
AcDbEntity
  8
0095COMPONENTS
390
0
  6
KM_SOLID
 62
   255
100
AcDbLine
 10
244.196443
 20
219.891831
 30
0.0
 11
244.301443
 21
219.772682
 31
0.0
  0
LINE
  5
427
100
AcDbEntity
  8
0095COMPONENTS
390
0
  6
KM_SOLID
 62
   255
100
AcDbLine
 10
258.296443
 20
210.117363
 30
0.0
 11
258.401443
 21
209.879065
 31
0.0
  0
LINE
  5
428
100
AcDbEntity
  8
0095COMPONENTS
390
0
  6
KM_SOLID
 62
   255
100
AcDbLine
 10
259.416443
 20
210.951406
 30
0.0
 11
259.311443
 21
211.189704
 31
0.0
  0
LINE
  5
429
100
AcDbEntity
  8
0095COMPONENTS
390
0
  6
KM_SOLID
 62
   255
100
AcDbLine
 10
259.206443
 20
210.951406
 30
0.0
 11
259.276443
 21
210.772682
 31
0.0
  0
LINE
  5
42A
100
AcDbEntity
  8
0095COMPONENTS
390
0
  6
KM_SOLID
 62
   255
100
AcDbLine
 10
258.436443
 20
146.862044
 30
0.0
 11
258.296443
 21
146.623746
 31
0.0
  0
LINE
  5
42B
100
AcDbEntity
  8
0095COMPONENTS
390
0
  6
KM_SOLID
 62
   255
100
AcDbLine
 10
258.541443
 20
155.564172
 30
0.0
 11
258.646443
 21
155.683321
 31
0.0
  0
LINE
  5
42C
100
AcDbEntity
  8
0095COMPONENTS
390
0
  6
KM_SOLID
 62
   255
100
AcDbLine
 10
258.611443
 20
154.968427
 30
0.0
 11
258.401443
 21
154.730129
 31
0.0
  0
LINE
  5
42D
100
AcDbEntity
  8
0095COMPONENTS
390
0
  6
KM_SOLID
 62
   255
100
AcDbLine
 10
258.541443
 20
154.551406
 30
0.0
 11
258.646443
 21
154.670555
 31
0.0
  0
LINE
  5
42E
100
AcDbEntity
  8
0095COMPONENTS
390
0
  6
KM_SOLID
 62
   255
100
AcDbLine
 10
258.611443
 20
155.981193
 30
0.0
 11
258.436443
 21
155.80247
 31
0.0
  0
LINE
  5
42F
100
AcDbEntity
  8
0095COMPONENTS
390
0
  6
KM_SOLID
 62
   255
100
AcDbLine
 10
244.126443
 20
154.849278
 30
0.0
 11
243.986443
 21
154.789704
 31
0.0
  0
LINE
  5
430
100
AcDbEntity
  8
0095COMPONENTS
390
0
  6
KM_SOLID
 62
   255
100
AcDbLine
 10
243.706443
 20
154.491831
 30
0.0
 11
243.846443
 21
154.551406
 31
0.0
  0
LINE
  5
431
100
AcDbEntity
  8
0095COMPONENTS
390
0
  6
KM_SOLID
 62
   255
100
AcDbLine
 10
244.126443
 20
153.598214
 30
0.0
 11
243.986443
 21
153.53864
 31
0.0
  0
LINE
  5
432
100
AcDbEntity
  8
0095COMPONENTS
390
0
  6
KM_SOLID
 62
   255
100
AcDbLine
 10
243.846443
 20
156.040767
 30
0.0
 11
243.671443
 21
155.981193
 31
0.0
  0
LINE
  5
433
100
AcDbEntity
  8
0095COMPONENTS
390
0
  6
KM_SOLID
 62
   255
100
AcDbLine
 10
244.161443
 20
221.083321
 30
0.0
 11
244.266443
 21
220.964172
 31
0.0
  0
LINE
  5
434
100
AcDbEntity
  8
0095COMPONENTS
390
0
  6
KM_SOLID
 62
   255
100
AcDbLine
 10
259.206443
 20
146.028001
 30
0.0
 11
258.226443
 21
144.53864
 31
0.0
  0
LINE
  5
435
100
AcDbEntity
  8
0095COMPONENTS
390
0
  6
KM_SOLID
 62
   255
100
AcDbLine
 10
258.506443
 20
144.53864
 30
0.0
 11
259.381443
 21
145.849278
 31
0.0
  0
LINE
  5
436
100
AcDbEntity
  8
0095COMPONENTS
390
0
  6
KM_SOLID
 62
   255
100
AcDbLine
 10
259.206443
 20
153.717363
 30
0.0
 11
259.101443
 21
153.598214
 31
0.0
  0
LINE
  5
437
100
AcDbEntity
  8
0095COMPONENTS
390
0
  6
KM_SOLID
 62
   255
100
AcDbLine
 10
259.136443
 20
153.300342
 30
0.0
 11
259.311443
 21
153.479065
 31
0.0
  0
LINE
  5
438
100
AcDbEntity
  8
0095COMPONENTS
390
0
  6
KM_SOLID
 62
   255
100
AcDbLine
 10
258.646443
 20
155.683321
 30
0.0
 11
258.751443
 21
155.742895
 31
0.0
  0
LINE
  5
439
100
AcDbEntity
  8
0095COMPONENTS
390
0
  6
KM_SOLID
 62
   255
100
AcDbLine
 10
258.646443
 20
154.670555
 30
0.0
 11
258.751443
 21
154.730129
 31
0.0
  0
LINE
  5
43A
100
AcDbEntity
  8
0095COMPONENTS
390
0
  6
KM_SOLID
 62
   255
100
AcDbLine
 10
244.021443
 20
153.240767
 30
0.0
 11
244.196443
 21
153.300342
 31
0.0
  0
LINE
  5
43B
100
AcDbEntity
  8
0095COMPONENTS
390
0
  6
KM_SOLID
 62
   255
100
AcDbLine
 10
258.786443
 20
156.040767
 30
0.0
 11
258.611443
 21
155.981193
 31
0.0
  0
LINE
  5
43C
100
AcDbEntity
  8
0095COMPONENTS
390
0
  6
KM_SOLID
 62
   255
100
AcDbLine
 10
260.286443
 20
204.537516
 30
0.0
 11
242.486443
 21
204.537287
 31
0.0
  0
LINE
  5
43D
100
AcDbEntity
  8
0095COMPONENTS
390
0
  6
KM_SOLID
 62
   255
100
AcDbLine
 10
260.286443
 20
205.340767
 30
0.0
 11
242.486443
 21
205.340767
 31
0.0
  0
LINE
  5
43E
100
AcDbEntity
  8
0095COMPONENTS
390
0
  6
KM_SOLID
 62
   255
100
AcDbLine
 10
243.496443
 20
218.819491
 30
0.0
 11
243.636443
 21
218.700342
 31
0.0
  0
LINE
  5
43F
100
AcDbEntity
  8
0095COMPONENTS
390
0
  6
KM_SOLID
 62
   255
100
AcDbLine
 10
243.636443
 20
218.998214
 30
0.0
 11
243.566443
 21
219.057789
 31
0.0
  0
LINE
  5
440
100
AcDbEntity
  8
0095COMPONENTS
390
0
  6
KM_SOLID
 62
   255
100
AcDbLine
 10
244.336443
 20
221.262044
 30
0.0
 11
244.196443
 21
221.381193
 31
0.0
  0
LINE
  5
441
100
AcDbEntity
  8
0095COMPONENTS
390
0
  6
KM_SOLID
 62
   255
100
AcDbLine
 10
258.401443
 20
209.879065
 30
0.0
 11
258.576443
 21
209.700342
 31
0.0
  0
LINE
  5
442
100
AcDbEntity
  8
0095COMPONENTS
390
0
  6
KM_SOLID
 62
   255
100
AcDbLine
 10
258.611443
 20
209.998214
 30
0.0
 11
258.506443
 21
210.117363
 31
0.0
  0
LINE
  5
443
100
AcDbEntity
  8
0095COMPONENTS
390
0
  6
KM_SOLID
 62
   255
100
AcDbLine
 10
259.101443
 20
211.070555
 30
0.0
 11
259.206443
 21
210.951406
 31
0.0
  0
LINE
  5
444
100
AcDbEntity
  8
0095COMPONENTS
390
0
  6
KM_SOLID
 62
   255
100
AcDbLine
 10
258.506443
 20
146.564172
 30
0.0
 11
258.611443
 21
146.683321
 31
0.0
  0
LINE
  5
445
100
AcDbEntity
  8
0095COMPONENTS
390
0
  6
KM_SOLID
 62
   255
100
AcDbLine
 10
259.101443
 20
153.598214
 30
0.0
 11
258.996443
 21
153.53864
 31
0.0
  0
LINE
  5
446
100
AcDbEntity
  8
0095COMPONENTS
390
0
  6
KM_SOLID
 62
   255
100
AcDbLine
 10
258.786443
 20
155.028001
 30
0.0
 11
258.611443
 21
154.968427
 31
0.0
  0
LINE
  5
447
100
AcDbEntity
  8
0095COMPONENTS
390
0
  6
KM_SOLID
 62
   255
100
AcDbLine
 10
258.961443
 20
153.240767
 30
0.0
 11
259.136443
 21
153.300342
 31
0.0
  0
LINE
  5
448
100
AcDbEntity
  8
0095COMPONENTS
390
0
  6
KM_SOLID
 62
   255
100
AcDbLine
 10
243.636443
 20
209.640767
 30
0.0
 11
243.846443
 21
209.640767
 31
0.0
  0
LINE
  5
449
100
AcDbEntity
  8
0095COMPONENTS
390
0
  6
KM_SOLID
 62
   255
100
AcDbLine
 10
258.751443
 20
209.640767
 30
0.0
 11
258.961443
 21
209.640767
 31
0.0
  0
LINE
  5
44A
100
AcDbEntity
  8
0095COMPONENTS
390
0
  6
KM_SOLID
 62
   255
100
AcDbLine
 10
258.961443
 20
209.93864
 30
0.0
 11
258.751443
 21
209.93864
 31
0.0
  0
LINE
  5
44B
100
AcDbEntity
  8
0095COMPONENTS
390
0
  6
KM_SOLID
 62
   255
100
AcDbLine
 10
244.441443
 20
219.951406
 30
0.0
 11
244.266443
 21
220.070555
 31
0.0
  0
LINE
  5
44C
100
AcDbEntity
  8
0095COMPONENTS
390
0
  6
KM_SOLID
 62
   255
100
AcDbLine
 10
259.311443
 20
211.189704
 30
0.0
 11
259.136443
 21
211.368427
 31
0.0
  0
LINE
  5
44D
100
AcDbEntity
  8
0095COMPONENTS
390
0
  6
KM_SOLID
 62
   255
100
AcDbLine
 10
258.576443
 20
146.981193
 30
0.0
 11
258.436443
 21
146.862044
 31
0.0
  0
LINE
  5
44E
100
AcDbEntity
  8
0095COMPONENTS
390
0
  6
KM_SOLID
 62
   255
100
AcDbLine
 10
258.436443
 20
210.355661
 30
0.0
 11
258.226443
 21
210.355661
 31
0.0
  0
LINE
  5
44F
100
AcDbEntity
  8
0095COMPONENTS
390
0
  6
KM_SOLID
 62
   255
100
AcDbLine
 10
258.226443
 20
210.891831
 30
0.0
 11
258.471443
 21
210.891831
 31
0.0
  0
LINE
  5
450
100
AcDbEntity
  8
0095COMPONENTS
390
0
  6
KM_SOLID
 62
   255
100
AcDbLine
 10
258.751443
 20
211.130129
 30
0.0
 11
258.961443
 21
211.130129
 31
0.0
  0
LINE
  5
451
100
AcDbEntity
  8
0095COMPONENTS
390
0
  6
KM_SOLID
 62
   255
100
AcDbLine
 10
258.961443
 20
211.428001
 30
0.0
 11
258.751443
 21
211.428001
 31
0.0
  0
LINE
  5
452
100
AcDbEntity
  8
0095COMPONENTS
390
0
  6
KM_SOLID
 62
   255
100
AcDbLine
 10
243.286443
 20
212.142895
 30
0.0
 11
244.336443
 21
212.142895
 31
0.0
  0
LINE
  5
453
100
AcDbEntity
  8
0095COMPONENTS
390
0
  6
KM_SOLID
 62
   255
100
AcDbLine
 10
258.401443
 20
212.142895
 30
0.0
 11
259.416443
 21
212.142895
 31
0.0
  0
LINE
  5
454
100
AcDbEntity
  8
0095COMPONENTS
390
0
  6
KM_SOLID
 62
   255
100
AcDbLine
 10
259.416443
 20
212.440767
 30
0.0
 11
258.226443
 21
212.440767
 31
0.0
  0
LINE
  5
455
100
AcDbEntity
  8
0095COMPONENTS
390
0
  6
KM_SOLID
 62
   255
100
AcDbLine
 10
244.546443
 20
212.440767
 30
0.0
 11
243.286443
 21
212.440767
 31
0.0
  0
LINE
  5
456
100
AcDbEntity
  8
0095COMPONENTS
390
0
  6
KM_SOLID
 62
   255
100
AcDbLine
 10
258.576443
 20
209.700342
 30
0.0
 11
258.751443
 21
209.640767
 31
0.0
  0
LINE
  5
457
100
AcDbEntity
  8
0095COMPONENTS
390
0
  6
KM_SOLID
 62
   255
100
AcDbLine
 10
259.136443
 20
211.368427
 30
0.0
 11
258.961443
 21
211.428001
 31
0.0
  0
LINE
  5
458
100
AcDbEntity
  8
0095COMPONENTS
390
0
  6
KM_SOLID
 62
   255
100
AcDbLine
 10
258.751443
 20
209.93864
 30
0.0
 11
258.611443
 21
209.998214
 31
0.0
  0
LINE
  5
459
100
AcDbEntity
  8
0095COMPONENTS
390
0
  6
KM_SOLID
 62
   255
100
AcDbLine
 10
258.961443
 20
211.130129
 30
0.0
 11
259.101443
 21
211.070555
 31
0.0
  0
LINE
  5
45A
100
AcDbEntity
  8
0095COMPONENTS
390
0
  6
KM_SOLID
 62
   255
100
AcDbLine
 10
243.636443
 20
218.700342
 30
0.0
 11
243.776443
 21
218.640767
 31
0.0
  0
LINE
  5
45B
100
AcDbEntity
  8
0095COMPONENTS
390
0
  6
KM_SOLID
 62
   255
100
AcDbLine
 10
258.611443
 20
146.683321
 30
0.0
 11
258.786443
 21
146.742895
 31
0.0
  0
LINE
  5
45C
100
AcDbEntity
  8
0095COMPONENTS
390
0
  6
KM_SOLID
 62
   255
100
AcDbLine
 10
242.486443
 20
213.340767
 30
0.0
 11
260.286443
 21
213.340767
 31
0.0
  0
LINE
  5
45D
100
AcDbEntity
  8
0095COMPONENTS
390
0
  6
KM_SOLID
 62
   255
100
AcDbLine
 10
260.286443
 20
214.340767
 30
0.0
 11
242.486443
 21
214.340767
 31
0.0
  0
LINE
  5
45E
100
AcDbEntity
  8
0095COMPONENTS
390
0
  6
KM_SOLID
 62
   255
100
AcDbLine
 10
243.811443
 20
218.93864
 30
0.0
 11
243.636443
 21
218.998214
 31
0.0
  0
LINE
  5
45F
100
AcDbEntity
  8
0095COMPONENTS
390
0
  6
KM_SOLID
 62
   255
100
AcDbLine
 10
257.590331
 20
216.590767
 30
0.0
 11
253.382556
 21
216.590767
 31
0.0
  0
LINE
  5
460
100
AcDbEntity
  8
0095COMPONENTS
390
0
  6
KM_SOLID
 62
   255
100
AcDbLine
 10
257.590331
 20
218.090767
 30
0.0
 11
253.382556
 21
218.090767
 31
0.0
  0
LINE
  5
461
100
AcDbEntity
  8
0095COMPONENTS
390
0
  6
KM_SOLID
 62
   255
100
AcDbLine
 10
243.776443
 20
218.640767
 30
0.0
 11
244.056443
 21
218.640767
 31
0.0
  0
LINE
  5
462
100
AcDbEntity
  8
0095COMPONENTS
390
0
  6
KM_SOLID
 62
   255
100
AcDbLine
 10
258.736443
 20
218.640767
 30
0.0
 11
259.086443
 21
218.640767
 31
0.0
  0
LINE
  5
463
100
AcDbEntity
  8
0095COMPONENTS
390
0
  6
KM_SOLID
 62
   255
100
AcDbLine
 10
244.196443
 20
221.381193
 30
0.0
 11
243.951443
 21
221.440767
 31
0.0
  0
LINE
  5
464
100
AcDbEntity
  8
0095COMPONENTS
390
0
  6
KM_SOLID
 62
   255
100
AcDbLine
 10
243.986443
 20
219.951406
 30
0.0
 11
244.196443
 21
219.891831
 31
0.0
  0
LINE
  5
465
100
AcDbEntity
  8
0095COMPONENTS
390
0
  6
KM_SOLID
 62
   255
100
AcDbLine
 10
243.986443
 20
221.142895
 30
0.0
 11
244.161443
 21
221.083321
 31
0.0
  0
LINE
  5
466
100
AcDbEntity
  8
0095COMPONENTS
390
0
  6
KM_SOLID
 62
   255
100
AcDbLine
 10
243.881443
 20
221.440767
 30
0.0
 11
243.636443
 21
221.381193
 31
0.0
  0
LINE
  5
467
100
AcDbEntity
  8
0095COMPONENTS
390
0
  6
KM_SOLID
 62
   255
100
AcDbLine
 10
244.021443
 20
218.93864
 30
0.0
 11
243.811443
 21
218.93864
 31
0.0
  0
LINE
  5
468
100
AcDbEntity
  8
0095COMPONENTS
390
0
  6
KM_SOLID
 62
   255
100
AcDbLine
 10
243.461443
 20
219.296087
 30
0.0
 11
243.286443
 21
219.296087
 31
0.0
  0
LINE
  5
469
100
AcDbEntity
  8
0095COMPONENTS
390
0
  6
KM_SOLID
 62
   255
100
AcDbLine
 10
243.846443
 20
219.951406
 30
0.0
 11
243.986443
 21
219.951406
 31
0.0
  0
LINE
  5
46A
100
AcDbEntity
  8
0095COMPONENTS
390
0
  6
KM_SOLID
 62
   255
100
AcDbLine
 10
243.986443
 20
220.189704
 30
0.0
 11
243.846443
 21
220.189704
 31
0.0
  0
LINE
  5
46B
100
AcDbEntity
  8
0095COMPONENTS
390
0
  6
KM_SOLID
 62
   255
100
AcDbLine
 10
243.321443
 20
220.785448
 30
0.0
 11
243.496443
 21
220.785448
 31
0.0
  0
LINE
  5
46C
100
AcDbEntity
  8
0095COMPONENTS
390
0
  6
KM_SOLID
 62
   255
100
AcDbLine
 10
243.846443
 20
221.142895
 30
0.0
 11
243.986443
 21
221.142895
 31
0.0
  0
LINE
  5
46D
100
AcDbEntity
  8
0095COMPONENTS
390
0
  6
KM_SOLID
 62
   255
100
AcDbLine
 10
259.086443
 20
221.440767
 30
0.0
 11
258.736443
 21
221.440767
 31
0.0
  0
LINE
  5
46E
100
AcDbEntity
  8
0095COMPONENTS
390
0
  6
KM_SOLID
 62
   255
100
AcDbLine
 10
243.951443
 20
221.440767
 30
0.0
 11
243.881443
 21
221.440767
 31
0.0
  0
LINE
  5
46F
100
AcDbEntity
  8
0095COMPONENTS
390
0
  6
KM_SOLID
 62
   255
100
AcDbLine
 10
242.486443
 20
222.340767
 30
0.0
 11
260.286443
 21
222.340767
 31
0.0
  0
LINE
  5
470
100
AcDbEntity
  8
0095COMPONENTS
390
0
  6
KM_SOLID
 62
   255
100
AcDbLine
 10
242.486443
 20
223.340767
 30
0.0
 11
260.286443
 21
223.340767
 31
0.0
  0
LINE
  5
471
100
AcDbEntity
  8
0095COMPONENTS
390
0
  6
KM_SOLID
 62
   255
100
AcDbLine
 10
247.986443
 20
184.240767
 30
0.0
 11
245.486443
 21
182.240767
 31
0.0
  0
LINE
  5
472
100
AcDbEntity
  8
0095COMPONENTS
390
0
  6
KM_SOLID
 62
   255
100
AcDbLine
 10
254.786443
 20
191.040767
 30
0.0
 11
257.286443
 21
193.040767
 31
0.0
  0
LINE
  5
473
100
AcDbEntity
  8
0095COMPONENTS
390
0
  6
KM_SOLID
 62
   255
100
AcDbLine
 10
254.786443
 20
191.040767
 30
0.0
 11
256.786443
 21
193.540767
 31
0.0
  0
LINE
  5
474
100
AcDbEntity
  8
0095COMPONENTS
390
0
  6
KM_SOLID
 62
   255
100
AcDbLine
 10
247.986443
 20
184.240767
 30
0.0
 11
245.986443
 21
181.740767
 31
0.0
  0
LINE
  5
475
100
AcDbEntity
  8
0095COMPONENTS
390
0
  6
KM_SOLID
 62
   255
100
AcDbLine
 10
245.486443
 20
193.040767
 30
0.0
 11
247.986443
 21
191.040767
 31
0.0
  0
LINE
  5
476
100
AcDbEntity
  8
0095COMPONENTS
390
0
  6
KM_SOLID
 62
   255
100
AcDbLine
 10
245.986443
 20
193.540767
 30
0.0
 11
247.986443
 21
191.040767
 31
0.0
  0
LINE
  5
477
100
AcDbEntity
  8
0095COMPONENTS
390
0
  6
KM_SOLID
 62
   255
100
AcDbLine
 10
254.786443
 20
184.240767
 30
0.0
 11
256.786443
 21
181.740767
 31
0.0
  0
LINE
  5
478
100
AcDbEntity
  8
0095COMPONENTS
390
0
  6
KM_SOLID
 62
   255
100
AcDbLine
 10
254.786443
 20
184.240767
 30
0.0
 11
257.286443
 21
182.240767
 31
0.0
  0
ARC
  5
479
100
AcDbEntity
  8
0095COMPONENTS
390
0
  6
KM_SOLID
 62
   255
100
AcDbCircle
 10
100.425712
 20
147.254371
 30
0.0
 40
5.0
100
AcDbArc
 50
55.0
 51
90.0
  0
ARC
  5
47A
100
AcDbEntity
  8
0095COMPONENTS
390
0
  6
KM_SOLID
 62
   255
100
AcDbCircle
 10
109.291292
 20
153.254371
 30
0.0
 40
5.0
100
AcDbArc
 50
235.0
 51
270.0
  0
ARC
  5
47B
100
AcDbEntity
  8
0095COMPONENTS
390
0
  6
KM_SOLID
 62
   255
100
AcDbCircle
 10
128.314798
 20
206.541371
 30
0.0
 40
2.5
100
AcDbArc
 50
0.0
 51
90.0
  0
ARC
  5
47C
100
AcDbEntity
  8
0095COMPONENTS
390
0
  6
KM_SOLID
 62
   255
100
AcDbCircle
 10
121.514798
 20
206.541371
 30
0.0
 40
2.5
100
AcDbArc
 50
90.0
 51
180.0
  0
ARC
  5
47D
100
AcDbEntity
  8
0095COMPONENTS
390
0
  6
KM_SOLID
 62
   255
100
AcDbCircle
 10
109.214798
 20
202.254371
 30
0.0
 40
2.0
100
AcDbArc
 50
126.751797
 51
180.0
  0
CIRCLE
  5
47E
100
AcDbEntity
  8
0095COMPONENTS
390
0
  6
KM_SOLID
 62
   255
100
AcDbCircle
 10
101.714798
 20
147.254371
 30
0.0
 40
2.0
  0
CIRCLE
  5
47F
100
AcDbEntity
  8
0095COMPONENTS
390
0
  6
KM_SOLID
 62
   255
100
AcDbCircle
 10
109.714798
 20
180.254371
 30
0.0
 40
2.0
  0
ARC
  5
480
100
AcDbEntity
  8
0095COMPONENTS
390
0
  6
KM_SOLID
 62
   255
100
AcDbCircle
 10
111.714798
 20
168.254371
 30
0.0
 40
2.0
100
AcDbArc
 50
270.0
 51
0.0
  0
ARC
  5
481
100
AcDbEntity
  8
0095COMPONENTS
390
0
  6
KM_SOLID
 62
   255
100
AcDbCircle
 10
115.714798
 20
191.254371
 30
0.0
 40
2.0
100
AcDbArc
 50
90.0
 51
180.0
  0
CIRCLE
  5
482
100
AcDbEntity
  8
0095COMPONENTS
390
0
  6
KM_SOLID
 62
   255
100
AcDbCircle
 10
109.714798
 20
180.254371
 30
0.0
 40
1.1
  0
CIRCLE
  5
483
100
AcDbEntity
  8
0095COMPONENTS
390
0
  6
KM_SOLID
 62
   255
100
AcDbCircle
 10
101.714798
 20
147.254371
 30
0.0
 40
1.1
  0
ARC
  5
484
100
AcDbEntity
  8
0095COMPONENTS
390
0
  6
KM_SOLID
 62
   255
100
AcDbCircle
 10
108.214798
 20
202.454371
 30
0.0
 40
0.3
100
AcDbArc
 50
90.0
 51
180.0
  0
ARC
  5
485
100
AcDbEntity
  8
0095COMPONENTS
390
0
  6
KM_SOLID
 62
   255
100
AcDbCircle
 10
108.314798
 20
202.454371
 30
0.0
 40
0.3
100
AcDbArc
 50
90.0
 51
180.0
  0
ARC
  5
486
100
AcDbEntity
  8
0095COMPONENTS
390
0
  6
KM_SOLID
 62
   255
100
AcDbCircle
 10
129.714798
 20
-10.045629
 30
0.0
 40
215.0
100
AcDbArc
 50
84.208131
 51
95.79185
  0
ARC
  5
487
100
AcDbEntity
  8
0095COMPONENTS
390
0
  6
KM_SOLID
 62
     4
100
AcDbCircle
 10
136.213767
 20
161.804062
 30
0.0
 40
7.189815
100
AcDbArc
 50
50.653291
 51
99.076408
  0
ARC
  5
488
100
AcDbEntity
  8
0095COMPONENTS
390
0
  6
KM_SOLID
 62
     4
100
AcDbCircle
 10
129.967629
 20
158.819849
 30
0.0
 40
0.664169
100
AcDbArc
 50
105.024935
 51
195.024935
  0
ARC
  5
489
100
AcDbEntity
  8
0095COMPONENTS
390
0
  6
KM_SOLID
 62
     4
100
AcDbCircle
 10
142.233559
 20
159.894289
 30
0.0
 40
0.499996
100
AcDbArc
 50
0.0
 51
90.0
  0
ARC
  5
48A
100
AcDbEntity
  8
0095COMPONENTS
390
0
  6
KM_SOLID
 62
     4
100
AcDbCircle
 10
141.348033
 20
168.817344
 30
0.0
 40
0.448948
100
AcDbArc
 50
107.62341
 51
184.207329
  0
ARC
  5
48B
100
AcDbEntity
  8
0095COMPONENTS
390
0
  6
KM_SOLID
 62
     4
100
AcDbCircle
 10
141.681875
 20
168.922562
 30
0.0
 40
0.399965
100
AcDbArc
 50
10.280351
 51
101.052811
  0
ARC
  5
48C
100
AcDbEntity
  8
0095COMPONENTS
390
0
  6
KM_SOLID
 62
     4
100
AcDbCircle
 10
131.593534
 20
161.994306
 30
0.0
 40
0.399965
100
AcDbArc
 50
104.474978
 51
194.480046
  0
ARC
  5
48D
100
AcDbEntity
  8
0095COMPONENTS
390
0
  6
KM_SOLID
 62
     4
100
AcDbCircle
 10
140.473567
 20
161.924316
 30
0.0
 40
0.399965
100
AcDbArc
 50
18.192389
 51
105.964498
  0
ARC
  5
48E
100
AcDbEntity
  8
0095COMPONENTS
390
0
  6
KM_SOLID
 62
     4
100
AcDbCircle
 10
137.283568
 20
163.524315
 30
0.0
 40
0.399965
100
AcDbArc
 50
14.474899
 51
108.197486
  0
ARC
  5
48F
100
AcDbEntity
  8
0095COMPONENTS
390
0
  6
KM_SOLID
 62
     4
100
AcDbCircle
 10
139.663576
 20
162.394308
 30
0.0
 40
0.399965
100
AcDbArc
 50
0.0
 51
90.0
  0
ARC
  5
490
100
AcDbEntity
  8
0095COMPONENTS
390
0
  6
KM_SOLID
 62
     4
100
AcDbCircle
 10
133.783535
 20
162.394308
 30
0.0
 40
0.399965
100
AcDbArc
 50
90.0
 51
180.0
  0
ARC
  5
491
100
AcDbEntity
  8
0095COMPONENTS
390
0
  6
KM_SOLID
 62
     4
100
AcDbCircle
 10
131.114762
 20
159.99432
 30
0.0
 40
0.399965
100
AcDbArc
 50
90.0
 51
180.0
  0
ARC
  5
492
100
AcDbEntity
  8
0095COMPONENTS
390
0
  6
KM_SOLID
 62
     4
100
AcDbCircle
 10
138.80352
 20
153.674143
 30
0.0
 40
0.199968
100
AcDbArc
 50
90.0
 51
180.0
  0
ARC
  5
493
100
AcDbEntity
  8
0095COMPONENTS
390
0
  6
KM_SOLID
 62
     4
100
AcDbCircle
 10
138.403584
 20
153.104222
 30
0.0
 40
0.199968
100
AcDbArc
 50
270.0
 51
0.0
  0
ARC
  5
494
100
AcDbEntity
  8
0095COMPONENTS
390
0
  6
KM_SOLID
 62
     4
100
AcDbCircle
 10
135.093527
 20
153.104222
 30
0.0
 40
0.199968
100
AcDbArc
 50
180.0
 51
270.0
  0
ARC
  5
495
100
AcDbEntity
  8
0095COMPONENTS
390
0
  6
KM_SOLID
 62
     4
100
AcDbCircle
 10
134.693591
 20
153.674143
 30
0.0
 40
0.199968
100
AcDbArc
 50
0.0
 51
90.0
  0
ARC
  5
496
100
AcDbEntity
  8
0095COMPONENTS
390
0
  6
KM_SOLID
 62
     4
100
AcDbCircle
 10
134.543614
 20
153.52426
 30
0.0
 40
0.199968
100
AcDbArc
 50
0.0
 51
90.0
  0
ARC
  5
497
100
AcDbEntity
  8
0095COMPONENTS
390
0
  6
KM_SOLID
 62
     4
100
AcDbCircle
 10
134.94355
 20
152.954339
 30
0.0
 40
0.199968
100
AcDbArc
 50
180.0
 51
270.0
  0
ARC
  5
498
100
AcDbEntity
  8
0095COMPONENTS
390
0
  6
KM_SOLID
 62
     4
100
AcDbCircle
 10
138.553614
 20
152.954339
 30
0.0
 40
0.199968
100
AcDbArc
 50
270.0
 51
0.0
  0
ARC
  5
499
100
AcDbEntity
  8
0095COMPONENTS
390
0
  6
KM_SOLID
 62
     4
100
AcDbCircle
 10
138.95355
 20
153.52426
 30
0.0
 40
0.199968
100
AcDbArc
 50
90.0
 51
180.0
  0
ARC
  5
49A
100
AcDbEntity
  8
0095COMPONENTS
390
0
  6
KM_SOLID
 62
   255
100
AcDbCircle
 10
142.214798
 20
197.688746
 30
0.0
 40
10.765625
100
AcDbArc
 50
54.510657
 51
125.489343
  0
ARC
  5
49B
100
AcDbEntity
  8
0095COMPONENTS
390
0
  6
KM_SOLID
 62
   255
100
AcDbCircle
 10
133.860262
 20
207.80379
 30
0.0
 40
2.5
100
AcDbArc
 50
296.840717
 51
327.33218
  0
ARC
  5
49C
100
AcDbEntity
  8
0095COMPONENTS
390
0
  6
KM_SOLID
 62
   255
100
AcDbCircle
 10
134.676639
 20
191.254371
 30
0.0
 40
2.0
100
AcDbArc
 50
35.134193
 51
90.0
  0
CIRCLE
  5
49D
100
AcDbEntity
  8
0095COMPONENTS
390
0
  6
KM_SOLID
 62
   255
100
AcDbCircle
 10
139.716351
 20
182.954371
 30
0.0
 40
1.5
  0
CIRCLE
  5
49E
100
AcDbEntity
  8
0095COMPONENTS
390
0
  6
KM_SOLID
 62
   255
100
AcDbCircle
 10
139.716351
 20
182.954371
 30
0.0
 40
1.2
  0
ARC
  5
49F
100
AcDbEntity
  8
0095COMPONENTS
390
0
  6
KM_SOLID
 62
   255
100
AcDbCircle
 10
135.214798
 20
205.126994
 30
0.0
 40
0.5
100
AcDbArc
 50
116.840717
 51
180.0
  0
ARC
  5
4A0
100
AcDbEntity
  8
0095COMPONENTS
390
0
  6
KM_SOLID
 62
   255
100
AcDbCircle
 10
157.003884
 20
147.254371
 30
0.0
 40
5.0
100
AcDbArc
 50
90.0
 51
125.0
  0
ARC
  5
4A1
100
AcDbEntity
  8
0095COMPONENTS
390
0
  6
KM_SOLID
 62
   255
100
AcDbCircle
 10
148.138304
 20
153.254371
 30
0.0
 40
5.0
100
AcDbArc
 50
270.0
 51
305.0
  0
CIRCLE
  5
4A2
100
AcDbEntity
  8
0095COMPONENTS
390
0
  6
KM_SOLID
 62
   255
100
AcDbCircle
 10
157.714798
 20
147.254371
 30
0.0
 40
2.0
  0
ARC
  5
4A3
100
AcDbEntity
  8
0095COMPONENTS
390
0
  6
KM_SOLID
 62
   255
100
AcDbCircle
 10
155.752957
 20
168.254371
 30
0.0
 40
2.0
100
AcDbArc
 50
215.134193
 51
270.0
  0
CIRCLE
  5
4A4
100
AcDbEntity
  8
0095COMPONENTS
390
0
  6
KM_SOLID
 62
   255
100
AcDbCircle
 10
157.714798
 20
147.254371
 30
0.0
 40
1.1
  0
ARC
  5
4A5
100
AcDbEntity
  8
0095COMPONENTS
390
0
  6
KM_SOLID
 62
   255
100
AcDbCircle
 10
150.569333
 20
207.80379
 30
0.0
 40
2.5
100
AcDbArc
 50
212.66782
 51
243.159283
  0
ARC
  5
4A6
100
AcDbEntity
  8
0095COMPONENTS
390
0
  6
KM_SOLID
 62
   255
100
AcDbCircle
 10
150.214798
 20
202.254371
 30
0.0
 40
2.0
100
AcDbArc
 50
0.0
 51
53.246457
  0
CIRCLE
  5
4A7
100
AcDbEntity
  8
0095COMPONENTS
390
0
  6
KM_SOLID
 62
   255
100
AcDbCircle
 10
149.714798
 20
180.254371
 30
0.0
 40
2.0
  0
CIRCLE
  5
4A8
100
AcDbEntity
  8
0095COMPONENTS
390
0
  6
KM_SOLID
 62
   255
100
AcDbCircle
 10
149.714798
 20
180.254371
 30
0.0
 40
1.1
  0
ARC
  5
4A9
100
AcDbEntity
  8
0095COMPONENTS
390
0
  6
KM_SOLID
 62
   255
100
AcDbCircle
 10
149.214798
 20
205.126994
 30
0.0
 40
0.5
100
AcDbArc
 50
0.0
 51
63.159283
  0
ARC
  5
4AA
100
AcDbEntity
  8
0095COMPONENTS
390
0
  6
KM_SOLID
 62
   255
100
AcDbCircle
 10
151.214798
 20
202.454371
 30
0.0
 40
0.3
100
AcDbArc
 50
0.0
 51
90.0
  0
ARC
  5
4AB
100
AcDbEntity
  8
0095COMPONENTS
390
0
  6
KM_SOLID
 62
   255
100
AcDbCircle
 10
151.114798
 20
202.454371
 30
0.0
 40
0.3
100
AcDbArc
 50
0.0
 51
90.0
  0
ARC
  5
4AC
100
AcDbEntity
  8
0095COMPONENTS
390
0
  6
KM_SOLID
 62
   255
100
AcDbCircle
 10
251.386443
 20
170.340767
 30
0.0
 40
7.8
100
AcDbArc
 50
321.691128
 51
218.308872
  0
CIRCLE
  5
4AD
100
AcDbEntity
  8
0095COMPONENTS
390
0
  6
KM_SOLID
 62
   255
100
AcDbCircle
 10
251.386443
 20
170.340767
 30
0.0
 40
7.5
  0
CIRCLE
  5
4AE
100
AcDbEntity
  8
0095COMPONENTS
390
0
  6
KM_SOLID
 62
   255
100
AcDbCircle
 10
251.386443
 20
170.340767
 30
0.0
 40
7.225756
  0
CIRCLE
  5
4AF
100
AcDbEntity
  8
0095COMPONENTS
390
0
  6
KM_SOLID
 62
   255
100
AcDbCircle
 10
251.386443
 20
170.340767
 30
0.0
 40
6.25
  0
CIRCLE
  5
4B0
100
AcDbEntity
  8
0095COMPONENTS
390
0
  6
KM_SOLID
 62
   255
100
AcDbCircle
 10
247.286443
 20
208.840767
 30
0.0
 40
2.25
  0
CIRCLE
  5
4B1
100
AcDbEntity
  8
0095COMPONENTS
390
0
  6
KM_SOLID
 62
   255
100
AcDbCircle
 10
247.286443
 20
217.340767
 30
0.0
 40
2.25
  0
CIRCLE
  5
4B2
100
AcDbEntity
  8
0095COMPONENTS
390
0
  6
KM_SOLID
 62
   255
100
AcDbCircle
 10
247.286443
 20
148.340767
 30
0.0
 40
2.25
  0
CIRCLE
  5
4B3
100
AcDbEntity
  8
0095COMPONENTS
390
0
  6
KM_SOLID
 62
   255
100
AcDbCircle
 10
247.286443
 20
156.840767
 30
0.0
 40
2.25
  0
CIRCLE
  5
4B4
100
AcDbEntity
  8
0095COMPONENTS
390
0
  6
KM_SOLID
 62
   255
100
AcDbCircle
 10
255.486443
 20
208.840767
 30
0.0
 40
2.25
  0
CIRCLE
  5
4B5
100
AcDbEntity
  8
0095COMPONENTS
390
0
  6
KM_SOLID
 62
   255
100
AcDbCircle
 10
255.486443
 20
217.340767
 30
0.0
 40
2.25
  0
CIRCLE
  5
4B6
100
AcDbEntity
  8
0095COMPONENTS
390
0
  6
KM_SOLID
 62
   255
100
AcDbCircle
 10
255.486443
 20
148.340767
 30
0.0
 40
2.25
  0
CIRCLE
  5
4B7
100
AcDbEntity
  8
0095COMPONENTS
390
0
  6
KM_SOLID
 62
   255
100
AcDbCircle
 10
255.486443
 20
156.840767
 30
0.0
 40
2.25
  0
ARC
  5
4B8
100
AcDbEntity
  8
0095COMPONENTS
390
0
  6
KM_SOLID
 62
   255
100
AcDbCircle
 10
251.383443
 20
141.740767
 30
0.0
 40
1.8
100
AcDbArc
 50
192.839588
 51
347.160412
  0
ARC
  5
4B9
100
AcDbEntity
  8
0095COMPONENTS
390
0
  6
KM_SOLID
 62
   255
100
AcDbCircle
 10
248.633443
 20
142.340767
 30
0.0
 40
1.0
100
AcDbArc
 50
180.0
 51
270.0
  0
ARC
  5
4BA
100
AcDbEntity
  8
0095COMPONENTS
390
0
  6
KM_SOLID
 62
   255
100
AcDbCircle
 10
254.133443
 20
142.340767
 30
0.0
 40
1.0
100
AcDbArc
 50
270.0
 51
0.0
  0
ARC
  5
4BB
100
AcDbEntity
  8
0095COMPONENTS
390
0
  6
KM_SOLID
 62
   255
100
AcDbCircle
 10
246.690443
 20
139.340767
 30
0.0
 40
1.0
100
AcDbArc
 50
180.0
 51
270.0
  0
ARC
  5
4BC
100
AcDbEntity
  8
0095COMPONENTS
390
0
  6
KM_SOLID
 62
   255
100
AcDbCircle
 10
256.076443
 20
139.340767
 30
0.0
 40
1.0
100
AcDbArc
 50
270.0
 51
0.0
  0
ARC
  5
4BD
100
AcDbEntity
  8
0095COMPONENTS
390
0
  6
KM_SOLID
 62
   255
100
AcDbCircle
 10
245.986443
 20
182.240767
 30
0.0
 40
0.5
100
AcDbArc
 50
180.0
 51
270.0
  0
ARC
  5
4BE
100
AcDbEntity
  8
0095COMPONENTS
390
0
  6
KM_SOLID
 62
   255
100
AcDbCircle
 10
256.786443
 20
182.240767
 30
0.0
 40
0.5
100
AcDbArc
 50
270.0
 51
0.0
  0
ARC
  5
4BF
100
AcDbEntity
  8
0095COMPONENTS
390
0
  6
KM_SOLID
 62
   255
100
AcDbCircle
 10
256.786443
 20
193.040767
 30
0.0
 40
0.5
100
AcDbArc
 50
0.0
 51
90.0
  0
ARC
  5
4C0
100
AcDbEntity
  8
0095COMPONENTS
390
0
  6
KM_SOLID
 62
   255
100
AcDbCircle
 10
245.986447
 20
193.040764
 30
0.0
 40
0.499999
100
AcDbArc
 50
90.000392
 51
179.999608
  0
DIMENSION
  5
4CB
100
AcDbEntity
  8
图层0352
370
    35
390
0
  6
KM_SOLID
100
AcDbDimension
  2
KmSimpleDim1
 10
46.714798
 20
125.0
 30
0.0
 11
131.714798
 21
125.0
 31
0.0
 70
   128
 71
     5
 72
     1
 41
1.0
 42
0.0
  1
85
  3
DS045GB
100
AcDbAlignedDimension
 13
89.214798
 23
140.454371
 33
0.0
 14
174.214798
 24
138.754371
 34
0.0
 50
180.0
100
AcDbRotatedDimension
1001
ACAD
1000
DSTYLE
1002
{
1070
   288
1070
     1
1070
   176
1070
     1
1070
   177
1070
     1
1070
   178
1070
     2
1070
   174
1070
     1
1002
}
  0
DIMENSION
  5
4D6
100
AcDbEntity
  8
图层0352
370
    35
390
0
  6
KM_SOLID
100
AcDbDimension
  2
KmSimpleDim2
 10
72.0
 20
103.610871
 30
0.0
 11
72.0
 21
173.897871
 31
0.0
 70
   128
 71
     5
 72
     1
 41
1.0
 42
0.0
 53
90.0
  1
71.6
  3
DS045GB
100
AcDbAlignedDimension
 13
99.214798
 23
138.754371
 33
0.0
 14
121.514798
 24
209.041371
 34
0.0
 50
270.0
100
AcDbRotatedDimension
1001
ACAD
1000
DSTYLE
1002
{
1070
   288
1070
     1
1070
   176
1070
     1
1070
   177
1070
     1
1070
   178
1070
     2
1070
   174
1070
     1
1002
}
  0
DIMENSION
  5
4E1
100
AcDbEntity
  8
图层0352
370
    35
390
0
  6
KM_SOLID
100
AcDbDimension
  2
KmSimpleDim3
 10
84.714798
 20
223.0
 30
0.0
 11
129.714798
 21
223.0
 31
0.0
 70
   128
 71
     5
 72
     1
 41
1.0
 42
0.0
  1
45
  3
DS045GB
100
AcDbAlignedDimension
 13
107.214798
 23
202.254371
 33
0.0
 14
152.214798
 24
202.254371
 34
0.0
 50
180.0
100
AcDbRotatedDimension
1001
ACAD
1000
DSTYLE
1002
{
1070
   288
1070
     1
1070
   176
1070
     1
1070
   177
1070
     1
1070
   178
1070
     2
1070
   174
1070
     1
1002
}
  0
DIMENSION
  5
4EC
100
AcDbEntity
  8
图层0352
370
    35
390
0
  6
KM_SOLID
100
AcDbDimension
  2
KmSimpleDim4
 10
233.586443
 20
235.0
 30
0.0
 11
251.386443
 21
235.0
 31
0.0
 70
   128
 71
     5
 72
     1
 41
1.0
 42
0.0
  1
18
  3
DS045GB
100
AcDbAlignedDimension
 13
242.486443
 23
223.340767
 33
0.0
 14
260.286443
 24
223.340767
 34
0.0
 50
180.0
100
AcDbRotatedDimension
1001
ACAD
1000
DSTYLE
1002
{
1070
   288
1070
     1
1070
     3
1000
<>
1070
   176
1070
     1
1070
   177
1070
     1
1070
   178
1070
     2
1002
}
  0
DIMENSION
  5
4F7
100
AcDbEntity
  8
图层0352
370
    35
390
0
  6
KM_SOLID
100
AcDbDimension
  2
KmSimpleDim5
 10
94.614798
 20
132.0
 30
0.0
 11
129.814798
 21
132.0
 31
0.0
 70
   128
 71
     5
 72
     1
 41
1.0
 42
0.0
  1
34.5
  3
DS045GB
100
AcDbAlignedDimension
 13
112.214798
 23
143.554371
 33
0.0
 14
147.414798
 24
140.954371
 34
0.0
 50
180.0
100
AcDbRotatedDimension
1001
ACAD
1000
DSTYLE
1002
{
1070
   176
1070
     1
1070
   177
1070
     1
1070
   178
1070
     2
1070
   174
1070
     1
1070
   289
1070
     2
1002
}
  0
INSERT
  5
4F8
100
AcDbEntity
  8
0
390
0
100
AcDbBlockReference
  2
KmLegend
 10
0.0
 20
0.0
 30
0.0
  0
SPLINE
  5
4F9
100
AcDbEntity
  8
0095COMPONENTS
390
0
  6
KM_SOLID
 62
   255
100
AcDbSpline
210
0.0
220
0.0
230
1.0
 70
     0
 71
     3
 72
    15
 73
    11
 74
     0
 42
0.000001
 43
0.0000001
 40
0.0
 40
0.0
 40
0.0
 40
0.0
 40
0.0994221016
 40
0.2017547968
 40
0.3098151785
 40
0.426281675
 40
0.5534144794
 40
0.6925007241
 40
0.8427207868
 40
1.0
 40
1.0
 40
1.0
 40
1.0
 10
128.31479763909999
 20
209.04137099490001
 30
0.0
 10
128.43210308299999
 20
209.04133741000001
 30
0.0
 10
128.6709413481
 20
209.01486588130001
 30
0.0
 10
129.0193730849
 20
208.8956971977
 30
0.0
 10
129.35230199540001
 20
208.69558261579999
 30
0.0
 10
129.65963428449999
 20
208.41284174730001
 30
0.0
 10
129.92861989369999
 20
208.04684013240001
 30
0.0
 10
130.14261850720001
 20
207.60145630779999
 30
0.0
 10
130.28246545979999
 20
207.0906222751
 30
0.0
 10
130.31478033400001
 20
206.72694048400001
 30
0.0
 10
130.31479763909999
 20
206.54137099490001
 30
0.0
  0
SPLINE
  5
4FA
100
AcDbEntity
  8
0095COMPONENTS
390
0
  6
KM_SOLID
 62
   255
100
AcDbSpline
210
0.0
220
0.0
230
1.0
 70
     0
 71
     3
 72
    15
 73
    11
 74
     0
 42
0.000001
 43
0.0000001
 40
0.0
 40
0.0
 40
0.0
 40
0.0
 40
0.1572792134
 40
0.3074992773
 40
0.4465855222
 40
0.5737183286000001
 40
0.6901848181
 40
0.7982452229
 40
0.9005778485
 40
1.0
 40
1.0
 40
1.0
 40
1.0
 10
119.5147976391
 20
206.54137099490001
 30
0.0
 10
119.51481503319999
 20
206.72694048369999
 30
0.0
 10
119.5471297624
 20
207.09062227730001
 30
0.0
 10
119.68697678149999
 20
207.60145630759999
 30
0.0
 10
119.9009753891
 20
208.04684013049999
 30
0.0
 10
120.16996097560001
 20
208.41284175269999
 30
0.0
 10
120.4772933345
 20
208.69558260509999
 30
0.0
 10
120.810222084
 20
208.895697165
 30
0.0
 10
121.1586539339
 20
209.0148662361
 30
0.0
 10
121.3974921371
 20
209.0413362029
 30
0.0
 10
121.5147976391
 20
209.04137099490001
 30
0.0
  0
SPLINE
  5
4FB
100
AcDbEntity
  8
0095COMPONENTS
390
0
  6
KM_SOLID
 62
   255
100
AcDbSpline
210
0.0
220
0.0
230
1.0
 70
     0
 71
     3
 72
     8
 73
     4
 74
     0
 42
0.000001
 43
0.0000001
 40
0.0
 40
0.0
 40
0.0
 40
0.0
 40
1.0
 40
1.0
 40
1.0
 40
1.0
 10
119.8935027409
 20
182.64187093530001
 30
0.0
 10
119.8935027409
 20
183.4335377411
 30
0.0
 10
119.77965090790001
 20
183.94187088769999
 30
0.0
 10
119.5550245327
 20
184.1668709711
 30
0.0
  0
SPLINE
  5
4FC
100
AcDbEntity
  8
0095COMPONENTS
390
0
  6
KM_SOLID
 62
   255
100
AcDbSpline
210
0.0
220
0.0
230
1.0
 70
     0
 71
     3
 72
     8
 73
     4
 74
     0
 42
0.000001
 43
0.0000001
 40
0.0
 40
0.0
 40
0.0
 40
0.0
 40
1.0
 40
1.0
 40
1.0
 40
1.0
 10
119.5550245327
 20
184.1668709711
 30
0.0
 10
119.3303981575
 20
184.3918710545
 30
0.0
 10
118.68728973810001
 20
184.50853790799999
 30
0.0
 10
117.6287765652
 20
184.50853790799999
 30
0.0
  0
SPLINE
  5
4FD
100
AcDbEntity
  8
0095COMPONENTS
390
0
  6
KM_SOLID
 62
   255
100
AcDbSpline
210
0.0
220
0.0
230
1.0
 70
     0
 71
     3
 72
     8
 73
     4
 74
     0
 42
0.000001
 43
0.0000001
 40
0.0
 40
0.0
 40
0.0
 40
0.0
 40
1.0
 40
1.0
 40
1.0
 40
1.0
 10
117.6287765652
 20
184.50853790799999
 30
0.0
 10
116.4471802374
 20
184.50853790799999
 30
0.0
 10
115.74868454689999
 20
184.3418711022
 30
0.0
 10
115.53626762819999
 20
184.0169897065
 30
0.0
  0
SPLINE
  5
4FE
100
AcDbEntity
  8
0095COMPONENTS
390
0
  6
KM_SOLID
 62
   255
100
AcDbSpline
210
0.0
220
0.0
230
1.0
 70
     0
 71
     3
 72
     8
 73
     4
 74
     0
 42
0.000001
 43
0.0000001
 40
0.0
 40
0.0
 40
0.0
 40
0.0
 40
1.0
 40
1.0
 40
1.0
 40
1.0
 10
115.53626762819999
 20
184.0169897065
 30
0.0
 10
115.3209713458
 20
183.6877044634
 30
0.0
 10
115.2163508348
 20
182.95853759799999
 30
0.0
 10
115.2163508348
 20
181.83353762780001
 30
0.0
  0
SPLINE
  5
4FF
100
AcDbEntity
  8
0095COMPONENTS
390
0
  6
KM_SOLID
 62
   255
100
AcDbSpline
210
0.0
220
0.0
230
1.0
 70
     0
 71
     3
 72
     8
 73
     4
 74
     0
 42
0.000001
 43
0.0000001
 40
0.0
 40
0.0
 40
0.0
 40
0.0
 40
1.0
 40
1.0
 40
1.0
 40
1.0
 10
115.2163508348
 20
181.83353762780001
 30
0.0
 10
115.2163508348
 20
180.68353768150001
 30
0.0
 10
115.3486650089
 20
179.9918710039
 30
0.0
 10
115.61329332939999
 20
179.75437098770001
 30
0.0
  0
SPLINE
  5
500
100
AcDbEntity
  8
0095COMPONENTS
390
0
  6
KM_SOLID
 62
   255
100
AcDbSpline
210
0.0
220
0.0
230
1.0
 70
     0
 71
     3
 72
     8
 73
     4
 74
     0
 42
0.000001
 43
0.0000001
 40
0.0
 40
0.0
 40
0.0
 40
0.0
 40
1.0
 40
1.0
 40
1.0
 40
1.0
 10
115.61329332939999
 20
179.75437098770001
 30
0.0
 10
115.8779216229
 20
179.51687099590001
 30
0.0
 10
116.5241071129
 20
179.4002043287
 30
0.0
 10
117.5549266503
 20
179.4002043287
 30
0.0
  0
SPLINE
  5
501
100
AcDbEntity
  8
0095COMPONENTS
390
0
  6
KM_SOLID
 62
   255
100
AcDbSpline
210
0.0
220
0.0
230
1.0
 70
     0
 71
     3
 72
     8
 73
     4
 74
     0
 42
0.000001
 43
0.0000001
 40
0.0
 40
0.0
 40
0.0
 40
0.0
 40
1.0
 40
1.0
 40
1.0
 40
1.0
 10
117.5549266503
 20
179.4002043287
 30
0.0
 10
118.5334362072
 20
179.4002043287
 30
0.0
 10
119.1673131947
 20
179.48770432910001
 30
0.0
 10
119.4571418562
 20
179.66932015590001
 30
0.0
  0
SPLINE
  5
502
100
AcDbEntity
  8
0095COMPONENTS
390
0
  6
KM_SOLID
 62
   255
100
AcDbSpline
210
0.0
220
0.0
230
1.0
 70
     0
 71
     3
 72
     8
 73
     4
 74
     0
 42
0.000001
 43
0.0000001
 40
0.0
 40
0.0
 40
0.0
 40
0.0
 40
1.0
 40
1.0
 40
1.0
 40
1.0
 10
119.4571418562
 20
179.66932015590001
 30
0.0
 10
119.745802911
 20
179.85020432330001
 30
0.0
 10
119.8935027409
 20
180.40437098300001
 30
0.0
 10
119.8935027409
 20
181.3335376576
 30
0.0
  0
SPLINE
  5
503
100
AcDbEntity
  8
0095COMPONENTS
390
0
  6
KM_SOLID
 62
   255
100
AcDbSpline
210
0.0
220
0.0
230
1.0
 70
     0
 71
     3
 72
     8
 73
     4
 74
     0
 42
0.000001
 43
0.0000001
 40
0.0
 40
0.0
 40
0.0
 40
0.0
 40
1.0
 40
1.0
 40
1.0
 40
1.0
 10
118.7796018566
 20
181.3335376576
 30
0.0
 10
118.7796018566
 20
181.08770426070001
 30
0.0
 10
118.7334460175
 20
180.9168709413
 30
0.0
 10
118.6411338867
 20
180.82520438469999
 30
0.0
  0
SPLINE
  5
504
100
AcDbEntity
  8
0095COMPONENTS
390
0
  6
KM_SOLID
 62
   255
100
AcDbSpline
210
0.0
220
0.0
230
1.0
 70
     0
 71
     3
 72
     8
 73
     4
 74
     0
 42
0.000001
 43
0.0000001
 40
0.0
 40
0.0
 40
0.0
 40
0.0
 40
1.0
 40
1.0
 40
1.0
 40
1.0
 10
118.6411338867
 20
180.82520438469999
 30
0.0
 10
118.5488215603
 20
180.73353763380001
 30
0.0
 10
118.1949579991
 20
180.6877043442
 30
0.0
 10
117.5826205059
 20
180.6877043442
 30
0.0
  0
SPLINE
  5
505
100
AcDbEntity
  8
0095COMPONENTS
390
0
  6
KM_SOLID
 62
   255
100
AcDbSpline
210
0.0
220
0.0
230
1.0
 70
     0
 71
     3
 72
     8
 73
     4
 74
     0
 42
0.000001
 43
0.0000001
 40
0.0
 40
0.0
 40
0.0
 40
0.0
 40
1.0
 40
1.0
 40
1.0
 40
1.0
 10
117.5826205059
 20
180.6877043442
 30
0.0
 10
117.01643885199999
 20
180.6877043442
 30
0.0
 10
116.67180661259999
 20
180.7460376219
 30
0.0
 10
116.5425695366
 20
180.87103765169999
 30
0.0
  0
SPLINE
  5
506
100
AcDbEntity
  8
0095COMPONENTS
390
0
  6
KM_SOLID
 62
   255
100
AcDbSpline
210
0.0
220
0.0
230
1.0
 70
     0
 71
     3
 72
     8
 73
     4
 74
     0
 42
0.000001
 43
0.0000001
 40
0.0
 40
0.0
 40
0.0
 40
0.0
 40
1.0
 40
1.0
 40
1.0
 40
1.0
 10
116.5425695366
 20
180.87103765169999
 30
0.0
 10
116.4133324606
 20
180.99603768150001
 30
0.0
 10
116.3487138676
 20
181.33770432029999
 30
0.0
 10
116.3487138676
 20
181.89603771719999
 30
0.0
  0
SPLINE
  5
507
100
AcDbEntity
  8
0095COMPONENTS
390
0
  6
KM_SOLID
 62
   255
100
AcDbSpline
210
0.0
220
0.0
230
1.0
 70
     0
 71
     3
 72
     8
 73
     4
 74
     0
 42
0.000001
 43
0.0000001
 40
0.0
 40
0.0
 40
0.0
 40
0.0
 40
1.0
 40
1.0
 40
1.0
 40
1.0
 10
116.3487138676
 20
181.89603771719999
 30
0.0
 10
116.3487138676
 20
182.5252043799
 30
0.0
 10
116.4133324606
 20
182.90437098300001
 30
0.0
 10
116.5456465556
 20
183.02937096400001
 30
0.0
  0
SPLINE
  5
508
100
AcDbEntity
  8
0095COMPONENTS
390
0
  6
KM_SOLID
 62
   255
100
AcDbSpline
210
0.0
220
0.0
230
1.0
 70
     0
 71
     3
 72
     8
 73
     4
 74
     0
 42
0.000001
 43
0.0000001
 40
0.0
 40
0.0
 40
0.0
 40
0.0
 40
1.0
 40
1.0
 40
1.0
 40
1.0
 10
116.5456465556
 20
183.02937096400001
 30
0.0
 10
116.6779607539
 20
183.15437104259999
 30
0.0
 10
117.05644076999999
 20
183.22103764569999
 30
0.0
 10
117.6780096951
 20
183.22103764569999
 30
0.0
  0
SPLINE
  5
509
100
AcDbEntity
  8
0095COMPONENTS
390
0
  6
KM_SOLID
 62
   255
100
AcDbSpline
210
0.0
220
0.0
230
1.0
 70
     0
 71
     3
 72
     8
 73
     4
 74
     0
 42
0.000001
 43
0.0000001
 40
0.0
 40
0.0
 40
0.0
 40
0.0
 40
1.0
 40
1.0
 40
1.0
 40
1.0
 10
117.6780096951
 20
183.22103764569999
 30
0.0
 10
118.0041794007
 20
183.22103764569999
 30
0.0
 10
118.26880791400001
 20
183.20437099489999
 30
0.0
 10
118.4718945764
 20
183.1710377112
 30
0.0
  0
SPLINE
  5
50A
100
AcDbEntity
  8
0095COMPONENTS
390
0
  6
KM_SOLID
 62
   255
100
AcDbSpline
210
0.0
220
0.0
230
1.0
 70
     0
 71
     3
 72
     8
 73
     4
 74
     0
 42
0.000001
 43
0.0000001
 40
0.0
 40
0.0
 40
0.0
 40
0.0
 40
1.0
 40
1.0
 40
1.0
 40
1.0
 10
118.4718945764
 20
183.1710377112
 30
0.0
 10
118.6749814556
 20
183.1377043919
 30
0.0
 10
118.7796018566
 20
182.95853759799999
 30
0.0
 10
118.7796018566
 20
182.64187093530001
 30
0.0
  0
INSERT
  5
516
100
AcDbEntity
  8
0
390
0
100
AcDbBlockReference
  2
KmLegend
 10
0.0
 20
0.0
 30
0.0
  0
ENDSEC
  0
SECTION
  2
OBJECTS
  0
DICTIONARY
  5
19
100
AcDbDictionary
280
     0
281
     1
  3
ACAD_GROUP
350
1A
  3
ACAD_MLINESTYLE
350
1B
  3
ACAD_LAYOUT
350
1E
  3
ACAD_PLOTSETTINGS
350
22
  3
ACAD_PLOTSTYLENAME
350
1F
  3
ACAD_WIPEOUT_VARS
350
23
  0
DICTIONARY
  5
1A
102
{ACAD_REACTORS
330
19
102
}
100
AcDbDictionary
280
     0
281
     1
  0
DICTIONARY
  5
1B
102
{ACAD_REACTORS
330
19
102
}
100
AcDbDictionary
280
     0
281
     1
  3
Standard
350
1C
  0
MLINESTYLE
  5
1C
102
{ACAD_REACTORS
330
1B
102
}
100
AcDbMlineStyle
  2
Standard
 70
     0
  3

 62
     0
 51
90.0
 52
90.0
 71
     2
 49
0.5
 62
   256
  6
ByLayer
 49
-0.5
 62
   256
  6
ByLayer
  0
ACDBDICTIONARYWDFLT
  5
1F
102
{ACAD_REACTORS
330
19
102
}
100
AcDbDictionary
281
     1
  3
Normal
350
1D
100
AcDbDictionaryWithDefault
340
1D
  0
ACDBPLACEHOLDER
  5
1D
102
{ACAD_REACTORS
330
1F
102
}
  0
LAYOUT
  5
20
102
{ACAD_REACTORS
330
1E
102
}
100
AcDbPlotSettings
  1

  2

  4

  6

 40
0.0
 41
0.0
 42
0.0
 43
0.0
 44
0.0
 45
0.0
 46
0.0
 47
0.0
 48
0.0
 49
0.0
140
0.0
141
0.0
142
1.0
143
1.0
 70
  1024
 72
     0
 73
     0
 74
     0
  7

 75
     0
147
1.0
148
0.0
149
0.0
100
AcDbLayout
  1
Model
 70
     0
 71
     0
 10
0.0
 20
0.0
 11
0.0
 21
0.0
 12
0.0
 22
0.0
 32
0.0
 14
0.0
 24
0.0
 34
0.0
 15
0.0
 25
0.0
 35
0.0
146
0.0
 13
0.0
 23
0.0
 33
0.0
 16
0.0
 26
0.0
 36
0.0
 17
0.0
 27
0.0
 37
0.0
 76
     0
330
A
331
0
345
0
346
0
  0
LAYOUT
  5
21
102
{ACAD_REACTORS
330
1E
102
}
100
AcDbPlotSettings
  1

  2

  4

  6

 40
0.0
 41
0.0
 42
0.0
 43
0.0
 44
0.0
 45
0.0
 46
0.0
 47
0.0
 48
0.0
 49
0.0
140
0.0
141
0.0
142
1.0
143
1.0
 70
     0
 72
     0
 73
     0
 74
     0
  7

 75
     0
147
1.0
148
0.0
149
0.0
100
AcDbLayout
  1
Layout1
 70
     0
 71
     0
 10
0.0
 20
0.0
 11
0.0
 21
0.0
 12
0.0
 22
0.0
 32
0.0
 14
0.0
 24
0.0
 34
0.0
 15
0.0
 25
0.0
 35
0.0
146
0.0
 13
0.0
 23
0.0
 33
0.0
 16
0.0
 26
0.0
 36
0.0
 17
0.0
 27
0.0
 37
0.0
 76
     0
330
B
331
0
345
0
346
0
  0
DICTIONARY
  5
1E
102
{ACAD_REACTORS
330
19
102
}
100
AcDbDictionary
280
     0
281
     1
  3
Layout1
350
21
  3
Model
350
20
  0
DICTIONARY
  5
22
102
{ACAD_REACTORS
330
19
102
}
100
AcDbDictionary
280
     0
281
     1
  0
WIPEOUTVARIABLES
  5
23
100
AcDbWipeoutVariables
 70
     1
  0
ENDSEC
  0
EOF
