  0
SECTION
  2
HEADER
  9
$ACADVER
  1
AC1015
  9
$ACADMAINTVER
 70
     6
  9
$DWGCODEPAGE
  3
ANSI_936
  9
$INSBASE
 10
0.0
 20
0.0
 30
0.0
  9
$EXTMIN
 10
-15.0
 20
-15.0
 30
0.0
  9
$EXTMAX
 10
435.0
 20
312.0
 30
0.0
  9
$LIMMIN
 10
0.0
 20
0.0
  9
$LIMMAX
 10
0.0
 20
0.0
  9
$ORTHOMODE
 70
     0
  9
$REGENMODE
 70
     1
  9
$FILLMODE
 70
     1
  9
$QTEXTMODE
 70
     0
  9
$MIRRTEXT
 70
     1
  9
$LTSCALE
 40
1.0
  9
$ATTMODE
 70
     1
  9
$TEXTSIZE
 40
0.2
  9
$TRACEWID
 40
0.05
  9
$TEXTSTYLE
  7
Standard
  9
$CLAYER
  8
0
  9
$CELTYPE
  6
Continuous
  9
$CECOLOR
 62
   256
  9
$CELTSCALE
 40
1.0
  9
$DISPSILH
 70
     0
  9
$DIMSCALE
 40
1.0
  9
$DIMASZ
 40
0.18
  9
$DIMEXO
 40
0.0625
  9
$DIMDLI
 40
0.38
  9
$DIMRND
 40
0.0
  9
$DIMDLE
 40
0.0
  9
$DIMEXE
 40
0.18
  9
$DIMTP
 40
0.0
  9
$DIMTM
 40
0.0
  9
$DIMTXT
 40
0.18
  9
$DIMCEN
 40
0.09
  9
$DIMTSZ
 40
0.0
  9
$DIMTOL
 70
     0
  9
$DIMLIM
 70
     0
  9
$DIMTIH
 70
     1
  9
$DIMTOH
 70
     1
  9
$DIMSE1
 70
     0
  9
$DIMSE2
 70
     0
  9
$DIMTAD
 70
     0
  9
$DIMZIN
 70
     0
  9
$DIMBLK
  1

  9
$DIMASO
 70
     1
  9
$DIMSHO
 70
     1
  9
$DIMPOST
  1

  9
$DIMAPOST
  1

  9
$DIMALT
 70
     0
  9
$DIMALTD
 70
     2
  9
$DIMALTF
 40
25.4
  9
$DIMLFAC
 40
1.0
  9
$DIMTOFL
 70
     0
  9
$DIMTVP
 40
0.0
  9
$DIMTIX
 70
     0
  9
$DIMSOXD
 70
     0
  9
$DIMSAH
 70
     0
  9
$DIMBLK1
  1

  9
$DIMBLK2
  1

  9
$DIMSTYLE
  2
Standard
  9
$DIMCLRD
 70
     0
  9
$DIMCLRE
 70
     0
  9
$DIMCLRT
 70
     0
  9
$DIMTFAC
 40
1.0
  9
$DIMGAP
 40
0.09
  9
$DIMJUST
 70
     0
  9
$DIMSD1
 70
     0
  9
$DIMSD2
 70
     0
  9
$DIMTOLJ
 70
     1
  9
$DIMTZIN
 70
     0
  9
$DIMALTZ
 70
     0
  9
$DIMALTTZ
 70
     0
  9
$DIMUPT
 70
     0
  9
$DIMDEC
 70
     4
  9
$DIMTDEC
 70
     4
  9
$DIMALTU
 70
     2
  9
$DIMALTTD
 70
     2
  9
$DIMTXSTY
  7
Standard
  9
$DIMAUNIT
 70
     0
  9
$DIMADEC
 70
     0
  9
$DIMALTRND
 40
0.0
  9
$DIMAZIN
 70
     0
  9
$DIMDSEP
 70
     0
  9
$DIMATFIT
 70
     3
  9
$DIMFRAC
 70
     0
  9
$DIMLDRBLK
  1

  9
$DIMLUNIT
 70
     2
  9
$DIMLWD
 70
     0
  9
$DIMLWE
 70
     0
  9
$DIMTMOVE
 70
     0
  9
$LUNITS
 70
     2
  9
$LUPREC
 70
     4
  9
$SKETCHINC
 40
0.1
  9
$FILLETRAD
 40
0.0
  9
$AUNITS
 70
     0
  9
$AUPREC
 70
     0
  9
$MENU
  1
acad
  9
$ELEVATION
 40
0.0
  9
$PELEVATION
 40
0.0
  9
$THICKNESS
 40
0.0
  9
$LIMCHECK
 70
     0
  9
$CHAMFERA
 40
0.0
  9
$CHAMFERB
 40
0.0
  9
$CHAMFERC
 40
0.0
  9
$CHAMFERD
 40
0.0
  9
$SKPOLY
 70
     0
  9
$TDCREATE
 40
0.000000000
  9
$TDUCREATE
 40
0.000000000
  9
$TDUPDATE
 40
0.000000000
  9
$TDUUPDATE
 40
0.000000000
  9
$TDINDWG
 40
0.0000000000
  9
$TDUSRTIMER
 40
0.0000000000
  9
$USRTIMER
 70
     1
  9
$ANGBASE
 50
0.0
  9
$ANGDIR
 70
     0
  9
$PDMODE
 70
     0
  9
$PDSIZE
 40
0.0
  9
$PLINEWID
 40
0.0
  9
$SPLFRAME
 70
     0
  9
$SPLINETYPE
 70
     6
  9
$SPLINESEGS
 70
     8
  9
$HANDSEED
  5
466
  9
$SURFTAB1
 70
     6
  9
$SURFTAB2
 70
     6
  9
$SURFTYPE
 70
     6
  9
$SURFU
 70
     6
  9
$SURFV
 70
     6
  9
$UCSBASE
  2

  9
$UCSNAME
  2

  9
$UCSORG
 10
0.0
 20
0.0
 30
0.0
  9
$UCSXDIR
 10
1.0
 20
0.0
 30
0.0
  9
$UCSYDIR
 10
0.0
 20
1.0
 30
0.0
  9
$UCSORTHOREF
  2

  9
$UCSORTHOVIEW
 70
     0
  9
$UCSORGTOP
 10
0.0
 20
0.0
 30
0.0
  9
$UCSORGBOTTOM
 10
0.0
 20
0.0
 30
0.0
  9
$UCSORGLEFT
 10
0.0
 20
0.0
 30
0.0
  9
$UCSORGRIGHT
 10
0.0
 20
0.0
 30
0.0
  9
$UCSORGFRONT
 10
0.0
 20
0.0
 30
0.0
  9
$UCSORGBACK
 10
0.0
 20
0.0
 30
0.0
  9
$PUCSBASE
  2

  9
$PUCSNAME
  2

  9
$PUCSORG
 10
0.0
 20
0.0
 30
0.0
  9
$PUCSXDIR
 10
1.0
 20
0.0
 30
0.0
  9
$PUCSYDIR
 10
0.0
 20
1.0
 30
0.0
  9
$PUCSORTHOREF
  2

  9
$PUCSORTHOVIEW
 70
     0
  9
$PUCSORGTOP
 10
0.0
 20
0.0
 30
0.0
  9
$PUCSORGBOTTOM
 10
0.0
 20
0.0
 30
0.0
  9
$PUCSORGLEFT
 10
0.0
 20
0.0
 30
0.0
  9
$PUCSORGRIGHT
 10
0.0
 20
0.0
 30
0.0
  9
$PUCSORGFRONT
 10
0.0
 20
0.0
 30
0.0
  9
$PUCSORGBACK
 10
0.0
 20
0.0
 30
0.0
  9
$USERI1
 70
     0
  9
$USERI2
 70
     0
  9
$USERI3
 70
     0
  9
$USERI4
 70
     0
  9
$USERI5
 70
     0
  9
$USERR1
 40
0.0
  9
$USERR2
 40
0.0
  9
$USERR3
 40
0.0
  9
$USERR4
 40
0.0
  9
$USERR5
 40
0.0
  9
$WORLDVIEW
 70
     1
  9
$SHADEDGE
 70
     3
  9
$SHADEDIF
 70
    70
  9
$TILEMODE
 70
     1
  9
$MAXACTVP
 70
    16
  9
$PINSBASE
 10
0.0
 20
0.0
 30
0.0
  9
$PLIMCHECK
 70
     0
  9
$PEXTMIN
 10
0.0
 20
0.0
 30
0.0
  9
$PEXTMAX
 10
450.0
 20
327.0
 30
0.0
  9
$PLIMMIN
 10
0.0
 20
0.0
  9
$PLIMMAX
 10
450.0
 20
327.0
  9
$UNITMODE
 70
     0
  9
$VISRETAIN
 70
     0
  9
$PLINEGEN
 70
     1
  9
$PSLTSCALE
 70
     0
  9
$TREEDEPTH
 70
  3020
  9
$CMLSTYLE
  2
Standard
  9
$CMLJUST
 70
     0
  9
$CMLSCALE
 40
1.0
  9
$PROXYGRAPHICS
 70
     1
  9
$MEASUREMENT
 70
     0
  9
$CELWEIGHT
370
     0
  9
$ENDCAPS
280
     0
  9
$JOINSTYLE
280
     0
  9
$LWDISPLAY
290
     0
  9
$INSUNITS
 70
     0
  9
$HYPERLINKBASE
  1

  9
$STYLESHEET
  1

  9
$XEDIT
290
     1
  9
$CEPSNTYPE
380
     0
  9
$PSTYLEMODE
290
     1
  9
$FINGERPRINTGUID
  2

  9
$VERSIONGUID
  2

  9
$EXTNAMES
290
     1
  9
$PSVPSCALE
 40
0.0
  0
ENDSEC
  0
SECTION
  2
CLASSES
  0
CLASS
  1
LWPOLYLINE
  2
AcDbPolyline
  3
AutoCAD 2000
 90
        0
280
     0
281
     1
  0
CLASS
  1
IMAGE
  2
AcDbRasterImage
  3
ISM
 90
      127
280
     0
281
     1
  0
CLASS
  1
OLE2FRAME
  2
AcDbOle2Frame
  3
AutoCAD 2000
 90
        0
280
     0
281
     1
  0
CLASS
  1
HATCH
  2
AcDbHatch
  3
AutoCAD 2000
 90
        0
280
     0
281
     1
  0
CLASS
  1
DICTIONARYVAR
  2
AcDbDictionaryVar
  3
AutoCAD 2000
 90
        0
280
     0
281
     0
  0
CLASS
  1
RASTERVARIABLES
  2
AcDbRasterVariables
  3
ISM
 90
        0
280
     0
281
     0
  0
CLASS
  1
IMAGEDEF
  2
AcDbRasterImageDef
  3
ISM
 90
        0
280
     0
281
     0
  0
CLASS
  1
IMAGEDEF_REACTOR
  2
AcDbRasterImageDefReactor
  3
ISM
 90
        1
280
     0
281
     0
  0
CLASS
  1
IDBUFFER
  2
AcDbIdBuffer
  3
AutoCAD 2000
 90
        0
280
     0
281
     0
  0
CLASS
  1
SPATIAL_FILTER
  2
AcDbSpatialFilter
  3
AutoCAD 2000
 90
        0
280
     0
281
     0
  0
CLASS
  1
XRECORD
  2
AcDbXrecord
  3
AutoCAD 2000
 90
        0
280
     0
281
     0
  0
CLASS
  1
SORTENTSTABLE
  2
AcDbSortentsTable
  3
AutoCAD 2000
 90
        0
280
     0
281
     0
  0
CLASS
  1
LAYER_INDEX
  2
AcDbLayerIndex
  3
AutoCAD 2000
 90
        0
280
     0
281
     0
  0
CLASS
  1
SPATIAL_INDEX
  2
AcDbSpatialIndex
  3
AutoCAD 2000
 90
        0
280
     0
281
     0
  0
CLASS
  1
OBJECT_PTR
  2
CAseDLPNTableRecord
  3
"ASE-LPNTableRecord"
 90
        1
280
     0
281
     0
  0
CLASS
  1
LAYOUT
  2
AcDbLayout
  3
AutoCAD 2000
 90
        0
280
     0
281
     0
  0
CLASS
  1
PLOTSETTINGS
  2
AcDbPlotSettings
  3
AutoCAD 2000
 90
        0
280
     0
281
     0
  0
CLASS
  1
ACDBDICTIONARYWDFLT
  2
AcDbDictionaryWithDefault
  3
AutoCAD 2000
 90
        0
280
     0
281
     0
  0
CLASS
  1
ACDBPLACEHOLDER
  2
AcDbPlaceHolder
  3
AutoCAD 2000
 90
        0
280
     0
281
     0
  0
CLASS
  1
VBA_PROJECT
  2
AcDbVbaProject
  3
acadvba
 90
        0
280
     0
281
     0
  0
CLASS
  1
WIPEOUT
  2
AcDbWipeout
  3
WipeOut|AutoCAD Express Tool|expresstools@autodesk.com
 90
      127
280
     0
281
     1
  0
CLASS
  1
WIPEOUTVARIABLES
  2
AcDbWipeoutVariables
  3
WipeOut|AutoCAD Express Tool|expresstools@autodesk.com
 90
        0
280
     0
281
     0
  0
CLASS
  1
RTEXT
  2
RText
  3
RText|AutoCAD Express Tool|expresstools@autodesk.com
 90
        0
280
     0
281
     1
  0
CLASS
  1
ARCALIGNEDTEXT
  2
AcDbArcAlignedText
  3
ATEXT|AutoCAD Express Tool|expresstools@autodesk.com
 90
        0
280
     0
281
     1
  0
CLASS
  1
KmSymbl
  2
KmSymbl
  3
KMCAD2005
 90
        0
280
     0
281
     1
  0
CLASS
  1
KmYinChuBZ
  2
KmYinChuBZ
  3
KMCAD2005
 90
        0
280
     0
281
     1
  0
CLASS
  1
KmRough
  2
KmRough
  3
KMCAD2005
 90
        0
280
     0
281
     1
  0
CLASS
  1
KmPouQie
  2
KmPouQie
  3
KMCAD2005
 90
        0
280
     0
281
     1
  0
CLASS
  1
KmDaoJiao
  2
KmDaoJiao
  3
KMCAD2005
 90
        0
280
     0
281
     1
  0
CLASS
  1
KmTolerance
  2
KmTolerance
  3
KMCAD2005
 90
        0
280
     0
281
     1
  0
CLASS
  1
KmBiaoGao
  2
KmBiaoGao
  3
KMCAD2005
 90
        0
280
     0
281
     1
  0
CLASS
  1
KmWeld
  2
KmWeld
  3
KMCAD2005
 90
        0
280
     0
281
     1
  0
CLASS
  1
KmWZDJ
  2
KmWZDJ
  3
KMCAD2005
 90
        0
280
     0
281
     1
  0
CLASS
  1
KmWZYJ
  2
KmWZYJ
  3
KMCAD2005
 90
        0
280
     0
281
     1
  0
CLASS
  1
KmXieDu
  2
KmXieDu
  3
KMCAD2005
 90
        0
280
     0
281
     1
  0
CLASS
  1
KmZhuiDu
  2
KmZhuiDu
  3
KMCAD2005
 90
        0
280
     0
281
     1
  0
CLASS
  1
KmDXBZ
  2
KmDXBZ
  3
KMCAD2005
 90
        0
280
     0
281
     1
  0
CLASS
  1
KmNormSymbl
  2
KmNormSymbl
  3
KMCAD2005
 90
        0
280
     0
281
     1
  0
CLASS
  1
KmBiaoShi
  2
KmBiaoShi
  3
KMCAD2005
 90
        0
280
     0
281
     1
  0
ENDSEC
  0
SECTION
  2
TABLES
  0
TABLE
  2
VPORT
  5
7
100
AcDbSymbolTable
 70
     1
  0
VPORT
  5
15
100
AcDbSymbolTableRecord
100
AcDbViewportTableRecord
  2
*ACTIVE
 70
     0
 10
0.0
 20
0.0
 11
1.0
 21
1.0
 12
210.0
 22
148.5
 13
0.0
 23
0.0
 14
1.0
 24
1.0
 15
0.0
 25
0.0
 16
0.0
 26
0.0
 36
1.0
 17
0.0
 27
0.0
 37
0.0
 40
327.0
 41
1.376147
 42
50.0
 43
0.0
 44
0.0
 50
0.0
 51
0.0
 71
     0
 72
   100
 73
     1
 74
     1
 75
     0
 76
     0
 77
     0
 78
     0
281
     0
 65
     0
110
0.0
120
0.0
130
0.0
111
1.0
121
0.0
131
0.0
112
0.0
122
1.0
132
0.0
345
0
346
0
 79
     0
146
0.0
  0
ENDTAB
  0
TABLE
  2
LTYPE
  5
4
100
AcDbSymbolTable
 70
    18
  0
LTYPE
  5
11
100
AcDbSymbolTableRecord
100
AcDbLinetypeTableRecord
  2
ByBlock
 70
    64
  3

 72
    65
 73
     0
 40
0.0
  0
LTYPE
  5
12
100
AcDbSymbolTableRecord
100
AcDbLinetypeTableRecord
  2
ByLayer
 70
    64
  3

 72
    65
 73
     0
 40
0.0
  0
LTYPE
  5
13
100
AcDbSymbolTableRecord
100
AcDbLinetypeTableRecord
  2
Continuous
 70
    64
  3
Solid line
 72
    65
 73
     0
 40
0.0
  0
LTYPE
  5
24
100
AcDbSymbolTableRecord
100
AcDbLinetypeTableRecord
  2
KM_SOLID
 70
    64
  3
开目实线
 72
    65
 73
     0
 40
0.0
  0
LTYPE
  5
25
100
AcDbSymbolTableRecord
100
AcDbLinetypeTableRecord
  2
KM_DASH
 70
    64
  3
开目虚线
 72
    65
 73
     2
 40
7.0
 49
5.0
 74
     0
 49
-2.0
 74
     0
  0
LTYPE
  5
26
100
AcDbSymbolTableRecord
100
AcDbLinetypeTableRecord
  2
KM_DOT
 70
    64
  3
开目点线
 72
    65
 73
     2
 40
4.0
 49
2.0
 74
     0
 49
-2.0
 74
     0
  0
LTYPE
  5
27
100
AcDbSymbolTableRecord
100
AcDbLinetypeTableRecord
  2
KM_SPACE
 70
    64
  3
开目间隔线
 72
    65
 73
     2
 40
10.0
 49
5.0
 74
     0
 49
-7.0
 74
     0
  0
LTYPE
  5
28
100
AcDbSymbolTableRecord
100
AcDbLinetypeTableRecord
  2
KM_LONGDASH_SHORTDASH
 70
    64
  3
开目长画短画线
 72
    65
 73
     4
 40
17.0
 49
10.0
 74
     0
 49
-2.0
 74
     0
 49
3.0
 74
     0
 49
-2.0
 74
     0
  0
LTYPE
  5
29
100
AcDbSymbolTableRecord
100
AcDbLinetypeTableRecord
  2
KM_LONGDASH_2SHORTDASH
 70
    64
  3
开目长画双短画线
 72
    65
 73
     6
 40
22.0
 49
10.0
 74
     0
 49
-2.0
 74
     0
 49
3.0
 74
     0
 49
-2.0
 74
     0
 49
3.0
 74
     0
 49
-2.0
 74
     0
  0
LTYPE
  5
2A
100
AcDbSymbolTableRecord
100
AcDbLinetypeTableRecord
  2
KM_SHORTDASH_DOT
 70
    64
  3
开目短画点线
 72
    65
 73
     4
 40
10.0
 49
5.0
 74
     0
 49
-2.0
 74
     0
 49
1.0
 74
     0
 49
-2.0
 74
     0
  0
LTYPE
  5
2B
100
AcDbSymbolTableRecord
100
AcDbLinetypeTableRecord
  2
KM_2SHORTDASH_DOT
 70
    64
  3
开目双短画点线
 72
    65
 73
     6
 40
17.0
 49
5.0
 74
     0
 49
-2.0
 74
     0
 49
5.0
 74
     0
 49
-2.0
 74
     0
 49
1.0
 74
     0
 49
-2.0
 74
     0
  0
LTYPE
  5
2C
100
AcDbSymbolTableRecord
100
AcDbLinetypeTableRecord
  2
KM_POINT
 70
    64
  3
开目点划线
 72
    65
 73
     4
 40
15.0
 49
10.0
 74
     0
 49
-2.0
 74
     0
 49
1.0
 74
     0
 49
-2.0
 74
     0
  0
LTYPE
  5
2D
100
AcDbSymbolTableRecord
100
AcDbLinetypeTableRecord
  2
KM_SHORTDASH_2DOT
 70
    64
  3
开目短画双点线
 72
    65
 73
     6
 40
13.0
 49
5.0
 74
     0
 49
-2.0
 74
     0
 49
1.0
 74
     0
 49
-2.0
 74
     0
 49
1.0
 74
     0
 49
-2.0
 74
     0
  0
LTYPE
  5
2E
100
AcDbSymbolTableRecord
100
AcDbLinetypeTableRecord
  2
KM_2SHORTDASH_2DOT
 70
    64
  3
开目双短画双点线
 72
    65
 73
     8
 40
20.0
 49
5.0
 74
     0
 49
-2.0
 74
     0
 49
5.0
 74
     0
 49
-2.0
 74
     0
 49
1.0
 74
     0
 49
-2.0
 74
     0
 49
1.0
 74
     0
 49
-2.0
 74
     0
  0
LTYPE
  5
2F
100
AcDbSymbolTableRecord
100
AcDbLinetypeTableRecord
  2
KM_POINT_POINT
 70
    64
  3
开目双点划线
 72
    65
 73
     6
 40
18.0
 49
10.0
 74
     0
 49
-2.0
 74
     0
 49
1.0
 74
     0
 49
-2.0
 74
     0
 49
1.0
 74
     0
 49
-2.0
 74
     0
  0
LTYPE
  5
30
100
AcDbSymbolTableRecord
100
AcDbLinetypeTableRecord
  2
KM_SHORTDASH_3DOT
 70
    64
  3
开目短画三点线
 72
    65
 73
     8
 40
16.0
 49
5.0
 74
     0
 49
-2.0
 74
     0
 49
1.0
 74
     0
 49
-2.0
 74
     0
 49
1.0
 74
     0
 49
-2.0
 74
     0
 49
1.0
 74
     0
 49
-2.0
 74
     0
  0
LTYPE
  5
31
100
AcDbSymbolTableRecord
100
AcDbLinetypeTableRecord
  2
KM_2SHORTDASH_3DOT
 70
    64
  3
开目双点画三点线
 72
    65
 73
    10
 40
23.0
 49
5.0
 74
     0
 49
-2.0
 74
     0
 49
5.0
 74
     0
 49
-2.0
 74
     0
 49
1.0
 74
     0
 49
-2.0
 74
     0
 49
1.0
 74
     0
 49
-2.0
 74
     0
 49
1.0
 74
     0
 49
-2.0
 74
     0
  0
LTYPE
  5
32
100
AcDbSymbolTableRecord
100
AcDbLinetypeTableRecord
  2
KM_3DOT
 70
    64
  3
开目三点线
 72
    65
 73
     8
 40
21.0
 49
10.0
 74
     0
 49
-2.0
 74
     0
 49
1.0
 74
     0
 49
-2.0
 74
     0
 49
1.0
 74
     0
 49
-2.0
 74
     0
 49
1.0
 74
     0
 49
-2.0
 74
     0
  0
ENDTAB
  0
TABLE
  2
LAYER
  5
2
100
AcDbSymbolTable
 70
    41
  0
LAYER
  5
14
100
AcDbSymbolTableRecord
100
AcDbLayerTableRecord
  2
0
 70
     0
 62
     7
  6
Continuous
290
     1
370
    -3
390
1D
  0
LAYER
  5
33
100
AcDbSymbolTableRecord
100
AcDbLayerTableRecord
  2
图层
 70
     0
 62
     7
  6
KM_SOLID
290
     1
370
    50
390
1D
  0
LAYER
  5
34
100
AcDbSymbolTableRecord
100
AcDbLayerTableRecord
  2
0
 70
     0
 62
   255
  6
KM_SOLID
290
     1
370
    13
390
1D
  0
LAYER
  5
35
100
AcDbSymbolTableRecord
100
AcDbLayerTableRecord
  2
图层0352
 70
     0
 62
   255
  6
KM_SOLID
290
     1
370
    50
390
1D
  0
LAYER
  5
36
100
AcDbSymbolTableRecord
100
AcDbLayerTableRecord
  2
图层0352
 70
     0
 62
   255
  6
KM_SOLID
290
     1
370
    50
390
1D
  0
LAYER
  5
37
100
AcDbSymbolTableRecord
100
AcDbLayerTableRecord
  2
DEFAULT0951
 70
     0
 62
   255
  6
KM_DASH
290
     1
370
    13
390
1D
  0
LAYER
  5
38
100
AcDbSymbolTableRecord
100
AcDbLayerTableRecord
  2
DEFAULT0952
 70
     0
 62
     8
  6
KM_DASH
290
     1
370
    13
390
1D
  0
LAYER
  5
39
100
AcDbSymbolTableRecord
100
AcDbLayerTableRecord
  2
DEFAULT0953
 70
     0
 62
   255
  6
KM_DASH
290
     1
370
    13
390
1D
  0
LAYER
  5
3A
100
AcDbSymbolTableRecord
100
AcDbLayerTableRecord
  2
01095ALL095DTM095PLN
 70
     0
 62
   255
  6
KM_SOLID
290
     1
370
    13
390
1D
  0
LAYER
  5
3B
100
AcDbSymbolTableRecord
100
AcDbLayerTableRecord
  2
01095095ASM095ALL095DTM095PLN
 70
     0
 62
   255
  6
KM_SOLID
290
     1
370
    13
390
1D
  0
LAYER
  5
3C
100
AcDbSymbolTableRecord
100
AcDbLayerTableRecord
  2
01095095ASM095DEF095DTM095PLN
 70
     0
 62
   255
  6
KM_SOLID
290
     1
370
    13
390
1D
  0
LAYER
  5
3D
100
AcDbSymbolTableRecord
100
AcDbLayerTableRecord
  2
01095095095PRT095ALL095DTM095PLN
 70
     0
 62
   255
  6
KM_SOLID
290
     1
370
    13
390
1D
  0
LAYER
  5
3E
100
AcDbSymbolTableRecord
100
AcDbLayerTableRecord
  2
01095095095PRT095DEF095DTM095PLN
 70
     0
 62
   255
  6
KM_SOLID
290
     1
370
    13
390
1D
  0
LAYER
  5
3F
100
AcDbSymbolTableRecord
100
AcDbLayerTableRecord
  2
02095ALL095AXES
 70
     0
 62
   255
  6
KM_SOLID
290
     1
370
    13
390
1D
  0
LAYER
  5
40
100
AcDbSymbolTableRecord
100
AcDbLayerTableRecord
  2
02095095ASM095ALL095AXES
 70
     0
 62
   255
  6
KM_SOLID
290
     1
370
    13
390
1D
  0
LAYER
  5
41
100
AcDbSymbolTableRecord
100
AcDbLayerTableRecord
  2
02095095095PRT095ALL095AXES
 70
     0
 62
   255
  6
KM_SOLID
290
     1
370
    13
390
1D
  0
LAYER
  5
42
100
AcDbSymbolTableRecord
100
AcDbLayerTableRecord
  2
03095ALL095CURVES
 70
     0
 62
   255
  6
KM_SOLID
290
     1
370
    13
390
1D
  0
LAYER
  5
43
100
AcDbSymbolTableRecord
100
AcDbLayerTableRecord
  2
03095095ASM095ALL095CURVES
 70
     0
 62
   255
  6
KM_SOLID
290
     1
370
    13
390
1D
  0
LAYER
  5
44
100
AcDbSymbolTableRecord
100
AcDbLayerTableRecord
  2
03095095095PRT095ALL095CURVES
 70
     0
 62
   255
  6
KM_SOLID
290
     1
370
    13
390
1D
  0
LAYER
  5
45
100
AcDbSymbolTableRecord
100
AcDbLayerTableRecord
  2
04095ALL095DTM095PNT
 70
     0
 62
   255
  6
KM_SOLID
290
     1
370
    13
390
1D
  0
LAYER
  5
46
100
AcDbSymbolTableRecord
100
AcDbLayerTableRecord
  2
04095095ASM095ALL095DTM095PNT
 70
     0
 62
   255
  6
KM_SOLID
290
     1
370
    13
390
1D
  0
LAYER
  5
47
100
AcDbSymbolTableRecord
100
AcDbLayerTableRecord
  2
04095095095PRT095ALL095DTM095PNT
 70
     0
 62
   255
  6
KM_SOLID
290
     1
370
    13
390
1D
  0
LAYER
  5
48
100
AcDbSymbolTableRecord
100
AcDbLayerTableRecord
  2
05095ALL095DTM095CSYS
 70
     0
 62
   255
  6
KM_SOLID
290
     1
370
    13
390
1D
  0
LAYER
  5
49
100
AcDbSymbolTableRecord
100
AcDbLayerTableRecord
  2
05095095ASM095ALL095DTM095CSYS
 70
     0
 62
   255
  6
KM_SOLID
290
     1
370
    13
390
1D
  0
LAYER
  5
4A
100
AcDbSymbolTableRecord
100
AcDbLayerTableRecord
  2
05095095ASM095DEF095DTM095CSYS
 70
     0
 62
   255
  6
KM_SOLID
290
     1
370
    13
390
1D
  0
LAYER
  5
4B
100
AcDbSymbolTableRecord
100
AcDbLayerTableRecord
  2
05095095095PRT095ALL095DTM095CSYS
 70
     0
 62
   255
  6
KM_SOLID
290
     1
370
    13
390
1D
  0
LAYER
  5
4C
100
AcDbSymbolTableRecord
100
AcDbLayerTableRecord
  2
05095095095PRT095DEF095DTM095CSYS
 70
     0
 62
   255
  6
KM_SOLID
290
     1
370
    13
390
1D
  0
LAYER
  5
4D
100
AcDbSymbolTableRecord
100
AcDbLayerTableRecord
  2
06095ALL095SURFS
 70
     0
 62
   255
  6
KM_SOLID
290
     1
370
    13
390
1D
  0
LAYER
  5
4E
100
AcDbSymbolTableRecord
100
AcDbLayerTableRecord
  2
06095095ASM095ALL095SURFS
 70
     0
 62
   255
  6
KM_SOLID
290
     1
370
    13
390
1D
  0
LAYER
  5
4F
100
AcDbSymbolTableRecord
100
AcDbLayerTableRecord
  2
06095095095PRT095ALL095SURFS
 70
     0
 62
   255
  6
KM_SOLID
290
     1
370
    13
390
1D
  0
LAYER
  5
50
100
AcDbSymbolTableRecord
100
AcDbLayerTableRecord
  2
07095095ASM095ALL095SKELETONS
 70
     0
 62
   255
  6
KM_SOLID
290
     1
370
    13
390
1D
  0
LAYER
  5
51
100
AcDbSymbolTableRecord
100
AcDbLayerTableRecord
  2
0095COMPONENTS
 70
     0
 62
   255
  6
KM_SOLID
290
     1
370
    13
390
1D
  0
LAYER
  5
52
100
AcDbSymbolTableRecord
100
AcDbLayerTableRecord
  2
1095ALL095PLANES
 70
     0
 62
   255
  6
KM_SOLID
290
     1
370
    13
390
1D
  0
LAYER
  5
53
100
AcDbSymbolTableRecord
100
AcDbLayerTableRecord
  2
2095ALL095CSYS
 70
     0
 62
   255
  6
KM_SOLID
290
     1
370
    13
390
1D
  0
LAYER
  5
54
100
AcDbSymbolTableRecord
100
AcDbLayerTableRecord
  2
2095ALL095NOTES
 70
     0
 62
   255
  6
KM_SOLID
290
     1
370
    13
390
1D
  0
LAYER
  5
55
100
AcDbSymbolTableRecord
100
AcDbLayerTableRecord
  2
3095ALL095AXES
 70
     0
 62
   255
  6
KM_SOLID
290
     1
370
    13
390
1D
  0
LAYER
  5
56
100
AcDbSymbolTableRecord
100
AcDbLayerTableRecord
  2
3095ALL095SYMBOLS
 70
     0
 62
   255
  6
KM_SOLID
290
     1
370
    13
390
1D
  0
LAYER
  5
57
100
AcDbSymbolTableRecord
100
AcDbLayerTableRecord
  2
4095ALL095POINTS
 70
     0
 62
   255
  6
KM_SOLID
290
     1
370
    13
390
1D
  0
LAYER
  5
58
100
AcDbSymbolTableRecord
100
AcDbLayerTableRecord
  2
5095ALL095CURVES
 70
     0
 62
   255
  6
KM_SOLID
290
     1
370
    13
390
1D
  0
LAYER
  5
59
100
AcDbSymbolTableRecord
100
AcDbLayerTableRecord
  2
AXIS
 70
     0
 62
   255
  6
KM_SOLID
290
     1
370
    13
390
1D
  0
LAYER
  5
5A
100
AcDbSymbolTableRecord
100
AcDbLayerTableRecord
  2
DATUM
 70
     0
 62
   255
  6
KM_SOLID
290
     1
370
    13
390
1D
  0
ENDTAB
  0
TABLE
  2
STYLE
  5
3
100
AcDbSymbolTable
 70
    39
  0
STYLE
  5
17
100
AcDbSymbolTableRecord
100
AcDbTextStyleTableRecord
  2
Standard
 70
     0
 40
0.0
 41
1.0
 50
0.0
 71
     0
 42
0.0
  3
txt
  4

  0
STYLE
  5
5B
100
AcDbSymbolTableRecord
100
AcDbTextStyleTableRecord
  2
标准字
 70
     0
 40
3.5
 41
1.0
 50
0.0
 71
     0
 42
0.0
  3
romans.shx
  4
bzdft.shx
  0
STYLE
  5
5C
100
AcDbSymbolTableRecord
100
AcDbTextStyleTableRecord
  2
国标宋体
 70
     0
 40
3.5
 41
1.0
 50
0.0
 71
     0
 42
0.0
  3
仿宋_GB2312
  4

  0
STYLE
  5
5D
100
AcDbSymbolTableRecord
100
AcDbTextStyleTableRecord
  2
序号标注
 70
     0
 40
5.0
 41
1.0
 50
0.0
 71
     0
 42
0.0
  3
romans.shx
  4
bzdft.shx
  0
STYLE
  5
5E
100
AcDbSymbolTableRecord
100
AcDbTextStyleTableRecord
  2
Standard035CONV1
 70
     0
 40
5.0
 41
1.0
 50
0.0
 71
     0
 42
0.0
  3
txt.shx
  4
bzdft.shx
  0
STYLE
  5
5F
100
AcDbSymbolTableRecord
100
AcDbTextStyleTableRecord
  2
标准字035CONV2
 70
     0
 40
3.5
 41
1.0
 50
0.0
 71
     0
 42
0.0
  3
romans.shx
  4
bzdft.shx
  0
STYLE
  5
60
100
AcDbSymbolTableRecord
100
AcDbTextStyleTableRecord
  2
国标宋体035CONV3
 70
     0
 40
3.5
 41
1.0
 50
0.0
 71
     0
 42
0.0
  3
romans.shx
  4
bzdft.shx
  0
STYLE
  5
61
100
AcDbSymbolTableRecord
100
AcDbTextStyleTableRecord
  2
序号标注035CONV4
 70
     0
 40
5.0
 41
1.0
 50
0.0
 71
     0
 42
0.0
  3
romans.shx
  4
bzdft.shx
  0
STYLE
  5
62
100
AcDbSymbolTableRecord
100
AcDbTextStyleTableRecord
  2
Standard035CONV1035CONV5
 70
     0
 40
5.0
 41
1.0
 50
0.0
 71
     0
 42
0.0
  3
txt.shx
  4
bzdft.shx
  0
STYLE
  5
63
100
AcDbSymbolTableRecord
100
AcDbTextStyleTableRecord
  2
标准字035CONV2035CONV6
 70
     0
 40
3.5
 41
1.0
 50
0.0
 71
     0
 42
0.0
  3
romans.shx
  4
bzdft.shx
  0
STYLE
  5
64
100
AcDbSymbolTableRecord
100
AcDbTextStyleTableRecord
  2
国标宋体035CONV3035CONV7
 70
     0
 40
3.5
 41
1.0
 50
0.0
 71
     0
 42
0.0
  3
romans.shx
  4
bzdft.shx
  0
STYLE
  5
65
100
AcDbSymbolTableRecord
100
AcDbTextStyleTableRecord
  2
序号标注035CONV4035CONV8
 70
     0
 40
5.0
 41
1.0
 50
0.0
 71
     0
 42
0.0
  3
romans.shx
  4
bzdft.shx
  0
STYLE
  5
66
100
AcDbSymbolTableRecord
100
AcDbTextStyleTableRecord
  2
STANDARD035CONV1035CONV5035CONV9
 70
     0
 40
5.0
 41
0.85
 50
0.0
 71
     0
 42
0.0
  3
txt.shx
  4
bzdft.shx
  0
STYLE
  5
67
100
AcDbSymbolTableRecord
100
AcDbTextStyleTableRecord
  2
TEXTSTYLE0951035CONV2035CONV6035CONV10
 70
     0
 40
5.0
 41
0.8
 50
0.0
 71
     0
 42
0.0
  3
gdt.shx
  4
bzdft.shx
  0
STYLE
  5
68
100
AcDbSymbolTableRecord
100
AcDbTextStyleTableRecord
  2
1035CONV7035CONV11
 70
     0
 40
5.0
 41
1.0
 50
0.0
 71
     0
 42
0.0
  3
romans.shx
  4
bzdft.shx
  0
STYLE
  5
69
100
AcDbSymbolTableRecord
100
AcDbTextStyleTableRecord
  2
2035CONV8035CONV12
 70
     0
 40
5.0
 41
1.0
 50
0.0
 71
     0
 42
0.0
  3
romans.shx
  4
bzdft.shx
  0
STYLE
  5
6A
100
AcDbSymbolTableRecord
100
AcDbTextStyleTableRecord
  2
3035CONV9035CONV13
 70
     0
 40
5.0
 41
1.0
 50
0.0
 71
     0
 42
0.0
  3
romans.shx
  4
bzdft.shx
  0
STYLE
  5
6B
100
AcDbSymbolTableRecord
100
AcDbTextStyleTableRecord
  2
4035CONV10035CONV14
 70
     0
 40
5.0
 41
1.0
 50
0.0
 71
     0
 42
0.0
  3
romans.shx
  4
bzdft.shx
  0
STYLE
  5
6C
100
AcDbSymbolTableRecord
100
AcDbTextStyleTableRecord
  2
1035CONV15
 70
     0
 40
5.0
 41
1.0
 50
0.0
 71
     0
 42
0.0
  3
romans.shx
  4
bzdft.shx
  0
STYLE
  5
6D
100
AcDbSymbolTableRecord
100
AcDbTextStyleTableRecord
  2
2035CONV16
 70
     0
 40
5.0
 41
1.0
 50
0.0
 71
     0
 42
0.0
  3
romans.shx
  4
bzdft.shx
  0
STYLE
  5
6E
100
AcDbSymbolTableRecord
100
AcDbTextStyleTableRecord
  2
3035CONV17
 70
     0
 40
5.0
 41
1.0
 50
0.0
 71
     0
 42
0.0
  3
romans.shx
  4
bzdft.shx
  0
STYLE
  5
6F
100
AcDbSymbolTableRecord
100
AcDbTextStyleTableRecord
  2
4035CONV18
 70
     0
 40
5.0
 41
1.0
 50
0.0
 71
     0
 42
0.0
  3
romans.shx
  4
bzdft.shx
  0
STYLE
  5
70
100
AcDbSymbolTableRecord
100
AcDbTextStyleTableRecord
  2
5035CONV19
 70
     0
 40
5.0
 41
1.0
 50
0.0
 71
     0
 42
0.0
  3
romans.shx
  4
bzdft.shx
  0
STYLE
  5
71
100
AcDbSymbolTableRecord
100
AcDbTextStyleTableRecord
  2
6035CONV20
 70
     0
 40
5.0
 41
2.0
 50
0.0
 71
     0
 42
0.0
  3
romans.shx
  4
bzdft.shx
  0
STYLE
  5
72
100
AcDbSymbolTableRecord
100
AcDbTextStyleTableRecord
  2
7035CONV21
 70
     0
 40
5.0
 41
1.0
 50
0.0
 71
     0
 42
0.0
  3
romans.shx
  4
bzdft.shx
  0
STYLE
  5
73
100
AcDbSymbolTableRecord
100
AcDbTextStyleTableRecord
  2
8035CONV22
 70
     0
 40
5.0
 41
1.0
 50
0.0
 71
     0
 42
0.0
  3
romans.shx
  4
bzdft.shx
  0
STYLE
  5
99
100
AcDbSymbolTableRecord
100
AcDbTextStyleTableRecord
  2
1
 70
     0
 40
0.0
 41
1.0
 50
0.0
 71
     0
 42
5.0
  3
romans.shx
  4
bzdft.shx
  0
STYLE
  5
A2
100
AcDbSymbolTableRecord
100
AcDbTextStyleTableRecord
  2
2
 70
     0
 40
0.0
 41
1.0
 50
0.0
 71
     0
 42
5.0
  3
romans.shx
  4
bzdft.shx
  0
STYLE
  5
AB
100
AcDbSymbolTableRecord
100
AcDbTextStyleTableRecord
  2
3
 70
     0
 40
0.0
 41
1.0
 50
0.0
 71
     0
 42
5.0
  3
romans.shx
  4
bzdft.shx
  0
STYLE
  5
B4
100
AcDbSymbolTableRecord
100
AcDbTextStyleTableRecord
  2
4
 70
     0
 40
0.0
 41
1.0
 50
0.0
 71
     0
 42
5.0
  3
romans.shx
  4
bzdft.shx
  0
STYLE
  5
C7
100
AcDbSymbolTableRecord
100
AcDbTextStyleTableRecord
  2
5
 70
     0
 40
0.0
 41
1.0
 50
0.0
 71
     0
 42
5.0
  3
romans.shx
  4
bzdft.shx
  0
STYLE
  5
D0
100
AcDbSymbolTableRecord
100
AcDbTextStyleTableRecord
  2
6
 70
     0
 40
0.0
 41
2.0
 50
0.0
 71
     0
 42
5.0
  3
romans.shx
  4
bzdft.shx
  0
STYLE
  5
D9
100
AcDbSymbolTableRecord
100
AcDbTextStyleTableRecord
  2
7
 70
     0
 40
0.0
 41
1.0
 50
0.0
 71
     0
 42
5.0
  3
romans.shx
  4
bzdft.shx
  0
STYLE
  5
E2
100
AcDbSymbolTableRecord
100
AcDbTextStyleTableRecord
  2
8
 70
     0
 40
0.0
 41
1.0
 50
0.0
 71
     0
 42
5.0
  3
romans.shx
  4
bzdft.shx
  0
STYLE
  5
418
100
AcDbSymbolTableRecord
100
AcDbTextStyleTableRecord
  2
9
 70
     0
 40
0.0
 41
1.0
 50
0.0
 71
     0
 42
5.0
  3
romans.shx
  4
bzdft.shx
  0
STYLE
  5
423
100
AcDbSymbolTableRecord
100
AcDbTextStyleTableRecord
  2
10
 70
     0
 40
0.0
 41
1.0
 50
0.0
 71
     0
 42
5.0
  3
romans.shx
  4
bzdft.shx
  0
STYLE
  5
42E
100
AcDbSymbolTableRecord
100
AcDbTextStyleTableRecord
  2
11
 70
     0
 40
0.0
 41
1.0
 50
0.0
 71
     0
 42
5.0
  3
romans.shx
  4
bzdft.shx
  0
STYLE
  5
439
100
AcDbSymbolTableRecord
100
AcDbTextStyleTableRecord
  2
12
 70
     0
 40
0.0
 41
1.0
 50
0.0
 71
     0
 42
5.0
  3
romans.shx
  4
bzdft.shx
  0
STYLE
  5
444
100
AcDbSymbolTableRecord
100
AcDbTextStyleTableRecord
  2
13
 70
     0
 40
0.0
 41
2.0
 50
0.0
 71
     0
 42
5.0
  3
romans.shx
  4
bzdft.shx
  0
ENDTAB
  0
TABLE
  2
VIEW
  5
5
100
AcDbSymbolTable
 70
     0
  0
ENDTAB
  0
TABLE
  2
UCS
  5
6
100
AcDbSymbolTable
 70
     0
  0
ENDTAB
  0
TABLE
  2
APPID
  5
8
100
AcDbSymbolTable
 70
     1
  0
APPID
  5
16
100
AcDbSymbolTableRecord
100
AcDbRegAppTableRecord
  2
ACAD
 70
     0
  0
ENDTAB
  0
TABLE
  2
DIMSTYLE
  5
9
100
AcDbSymbolTable
 70
    22
100
AcDbDimStyleTable
 71
     0
  0
DIMSTYLE
105
18
100
AcDbSymbolTableRecord
100
AcDbDimStyleTableRecord
  2
Standard
 70
     0
  3

  4

 40
1.0
 41
0.18
 42
0.0625
 43
0.38
 44
0.18
 45
0.0
 46
0.0
 47
0.0
 48
0.0
 71
     0
 72
     0
 73
     1
 74
     1
 75
     0
 76
     0
 77
     0
 78
     0
 79
     0
140
0.18
141
0.09
142
0.0
143
25.4
144
1.0
145
0.0
146
1.0
147
0.09
148
0.0
170
     0
171
     2
172
     0
173
     0
174
     0
175
     0
176
     0
177
     0
178
     0
179
     0
271
     4
272
     4
273
     2
274
     2
275
     0
276
     0
277
     2
278
    46
279
     0
280
     0
281
     0
282
     0
283
     1
284
     0
285
     0
286
     0
288
     0
289
     3
340
17
341
0
342
0
343
0
344
0
371
    -2
372
    -2
  0
DIMSTYLE
105
74
100
AcDbSymbolTableRecord
100
AcDbDimStyleTableRecord
  2
ISO25
 70
     0
  3

  4

 40
1.0
 41
2.5
 42
0.0625
 43
8.0
 44
1.25
 45
0.0
 46
0.0
 47
0.0
 48
0.0
 71
     0
 72
     0
 73
     0
 74
     0
 75
     0
 76
     0
 77
     1
 78
     8
 79
     0
140
2.5
141
2.5
142
0.0
143
0.03937
144
1.0
145
0.0
146
0.7
147
0.625
148
0.0
170
     0
171
     4
172
     1
173
     0
174
     0
175
     0
176
     5
177
     5
178
     5
179
     0
271
     4
272
     4
273
     8
274
     4
275
     0
276
     0
277
     6
278
    46
279
     0
280
     0
281
     0
282
     0
283
     1
284
     8
285
     0
286
     0
288
     0
289
     2
340
5B
341
0
342
0
343
0
344
0
371
    -2
372
    -2
  0
DIMSTYLE
105
75
100
AcDbSymbolTableRecord
100
AcDbDimStyleTableRecord
  2
DS045GB
 70
     0
  3

  4

 40
1.0
 41
4.0
 42
0.0
 43
8.0
 44
3.0
 45
0.0
 46
0.0
 47
0.0
 48
0.0
 71
     0
 72
     0
 73
     0
 74
     0
 75
     0
 76
     0
 77
     1
 78
     8
 79
     2
140
3.5
141
2.5
142
0.0
143
0.03937
144
1.0
145
0.0
146
0.7
147
0.625
148
0.0
170
     0
171
     4
172
     1
173
     0
174
     0
175
     0
176
     5
177
     5
178
     5
179
     2
271
     2
272
     3
273
     2
274
     3
275
     1
276
     0
277
     2
278
    46
279
     0
280
     0
281
     0
282
     0
283
     0
284
     8
285
     0
286
     0
288
     0
289
     2
340
5B
341
0
342
0
343
0
344
0
371
    25
372
    25
  0
DIMSTYLE
105
76
100
AcDbSymbolTableRecord
100
AcDbDimStyleTableRecord
  2
DS045COSERIAL
 70
     0
  3

  4

 40
1.0
 41
4.0
 42
0.0
 43
8.0
 44
3.0
 45
0.0
 46
0.0
 47
0.0
 48
0.0
 71
     0
 72
     0
 73
     0
 74
     0
 75
     0
 76
     0
 77
     0
 78
     8
 79
     2
140
3.5
141
2.5
142
0.0
143
0.03937
144
1.0
145
0.0
146
0.7
147
0.625
148
0.0
170
     0
171
     4
172
     1
173
     0
174
     0
175
     0
176
     5
177
     5
178
     5
179
     2
271
     2
272
     3
273
     2
274
     3
275
     1
276
     0
277
     2
278
    46
279
     0
280
     4
281
     0
282
     0
283
     0
284
     8
285
     0
286
     0
288
     0
289
     2
340
5B
341
0
342
0
343
0
344
0
371
    25
372
    25
  0
DIMSTYLE
105
77
100
AcDbSymbolTableRecord
100
AcDbDimStyleTableRecord
  2
DS045GESERIAL
 70
     0
  3

  4

 40
1.0
 41
4.0
 42
0.0
 43
8.0
 44
3.0
 45
0.0
 46
0.0
 47
0.0
 48
0.0
 71
     0
 72
     0
 73
     0
 74
     0
 75
     0
 76
     0
 77
     1
 78
     8
 79
     2
140
3.5
141
2.5
142
0.0
143
0.03937
144
1.0
145
0.0
146
0.7
147
0.625
148
0.0
170
     0
171
     4
172
     1
173
     0
174
     0
175
     0
176
     5
177
     5
178
     5
179
     2
271
     2
272
     3
273
     2
274
     3
275
     1
276
     0
277
     2
278
    46
279
     0
280
     0
281
     0
282
     0
283
     0
284
     8
285
     0
286
     0
288
     0
289
     2
340
5B
341
0
342
0
343
0
344
0
371
    25
372
    25
  0
DIMSTYLE
105
78
100
AcDbSymbolTableRecord
100
AcDbDimStyleTableRecord
  2
DS045ANGLE
 70
     0
  3

  4

 40
1.0
 41
4.0
 42
0.0
 43
8.0
 44
3.0
 45
0.0
 46
0.0
 47
0.0
 48
0.0
 71
     0
 72
     0
 73
     1
 74
     1
 75
     0
 76
     0
 77
     1
 78
     8
 79
     2
140
3.5
141
2.5
142
0.0
143
0.03937
144
1.0
145
0.0
146
0.7
147
0.625
148
0.0
170
     0
171
     4
172
     1
173
     0
174
     0
175
     0
176
     5
177
     5
178
     5
179
     2
271
     2
272
     3
273
     2
274
     3
275
     1
276
     0
277
     2
278
    46
279
     0
280
     0
281
     0
282
     0
283
     0
284
     8
285
     0
286
     0
288
     0
289
     2
340
5B
341
0
342
0
343
0
344
0
371
    25
372
    25
  0
DIMSTYLE
105
79
100
AcDbSymbolTableRecord
100
AcDbDimStyleTableRecord
  2
DS045KM
 70
     0
  3

  4

 40
1.0
 41
4.0
 42
0.0
 43
8.0
 44
3.0
 45
0.0
 46
0.0
 47
0.0
 48
0.0
 71
     0
 72
     0
 73
     0
 74
     0
 75
     0
 76
     0
 77
     1
 78
     8
 79
     2
140
3.5
141
2.5
142
0.0
143
0.03937
144
1.0
145
0.0
146
0.7
147
0.625
148
0.0
170
     0
171
     4
172
     1
173
     0
174
     0
175
     0
176
     5
177
     5
178
     5
179
     2
271
     2
272
     3
273
     2
274
     3
275
     0
276
     0
277
     2
278
    46
279
     0
280
     0
281
     0
282
     0
283
     0
284
     8
285
     0
286
     0
288
     1
289
     2
340
5C
341
0
342
0
343
0
344
0
371
    25
372
    25
  0
DIMSTYLE
105
7A
100
AcDbSymbolTableRecord
100
AcDbDimStyleTableRecord
  2
Standard
 70
     0
  3

  4

 40
1.0
 41
0.18
 42
0.0625
 43
0.38
 44
0.18
 45
0.0
 46
0.0
 47
0.0
 48
0.0
 71
     0
 72
     0
 73
     1
 74
     1
 75
     0
 76
     0
 77
     0
 78
     0
 79
     0
140
0.18
141
0.09
142
0.0
143
25.4
144
1.0
145
0.0
146
1.0
147
0.09
148
0.0
170
     0
171
     2
172
     0
173
     0
174
     0
175
     0
176
     0
177
     0
178
     0
179
     0
271
     4
272
     4
273
     2
274
     2
275
     0
276
     0
277
     2
278
    46
279
     0
280
     0
281
     0
282
     0
283
     1
284
     0
285
     0
286
     0
288
     0
289
     3
340
5E
341
0
342
0
343
0
344
0
371
    -2
372
    -2
  0
DIMSTYLE
105
7B
100
AcDbSymbolTableRecord
100
AcDbDimStyleTableRecord
  2
ISO250
 70
     0
  3

  4

 40
1.0
 41
2.5
 42
0.0625
 43
8.0
 44
1.25
 45
0.0
 46
0.0
 47
0.0
 48
0.0
 71
     0
 72
     0
 73
     0
 74
     0
 75
     0
 76
     0
 77
     1
 78
     8
 79
     0
140
2.5
141
2.5
142
0.0
143
0.03937
144
1.0
145
0.0
146
0.7
147
0.625
148
0.0
170
     0
171
     4
172
     1
173
     0
174
     0
175
     0
176
     5
177
     5
178
     5
179
     0
271
     4
272
     4
273
     8
274
     4
275
     0
276
     0
277
     6
278
    46
279
     0
280
     0
281
     0
282
     0
283
     1
284
     8
285
     0
286
     0
288
     0
289
     3
340
5F
341
0
342
0
343
0
344
0
371
    -2
372
    -2
  0
DIMSTYLE
105
7C
100
AcDbSymbolTableRecord
100
AcDbDimStyleTableRecord
  2
DS045GB
 70
     0
  3

  4

 40
1.0
 41
4.0
 42
0.0
 43
8.0
 44
3.0
 45
0.0
 46
0.0
 47
0.0
 48
0.0
 71
     0
 72
     0
 73
     0
 74
     0
 75
     0
 76
     0
 77
     1
 78
     8
 79
     2
140
3.5
141
2.5
142
0.0
143
0.03937
144
1.0
145
0.0
146
0.7
147
0.625
148
0.0
170
     0
171
     4
172
     1
173
     0
174
     0
175
     0
176
     5
177
     5
178
     5
179
     2
271
     2
272
     3
273
     2
274
     3
275
     1
276
     0
277
     2
278
    46
279
     0
280
     0
281
     0
282
     0
283
     0
284
     8
285
     0
286
     0
288
     0
289
     3
340
5F
341
0
342
0
343
0
344
0
371
    25
372
    25
  0
DIMSTYLE
105
7D
100
AcDbSymbolTableRecord
100
AcDbDimStyleTableRecord
  2
DS045COSERIAL
 70
     0
  3

  4

 40
1.0
 41
4.0
 42
0.0
 43
8.0
 44
3.0
 45
0.0
 46
0.0
 47
0.0
 48
0.0
 71
     0
 72
     0
 73
     0
 74
     0
 75
     0
 76
     0
 77
     0
 78
     8
 79
     2
140
3.5
141
2.5
142
0.0
143
0.03937
144
1.0
145
0.0
146
0.7
147
0.625
148
0.0
170
     0
171
     4
172
     1
173
     0
174
     0
175
     0
176
     5
177
     5
178
     5
179
     2
271
     2
272
     3
273
     2
274
     3
275
     1
276
     0
277
     2
278
    46
279
     0
280
     4
281
     0
282
     0
283
     0
284
     8
285
     0
286
     0
288
     0
289
     3
340
5F
341
0
342
0
343
0
344
0
371
    25
372
    25
  0
DIMSTYLE
105
7E
100
AcDbSymbolTableRecord
100
AcDbDimStyleTableRecord
  2
DS045GESERIAL
 70
     0
  3

  4

 40
1.0
 41
4.0
 42
0.0
 43
8.0
 44
3.0
 45
0.0
 46
0.0
 47
0.0
 48
0.0
 71
     0
 72
     0
 73
     0
 74
     0
 75
     0
 76
     0
 77
     1
 78
     8
 79
     2
140
3.5
141
2.5
142
0.0
143
0.03937
144
1.0
145
0.0
146
0.7
147
0.625
148
0.0
170
     0
171
     4
172
     1
173
     0
174
     0
175
     0
176
     5
177
     5
178
     5
179
     2
271
     2
272
     3
273
     2
274
     3
275
     1
276
     0
277
     2
278
    46
279
     0
280
     0
281
     0
282
     0
283
     0
284
     8
285
     0
286
     0
288
     0
289
     3
340
5F
341
0
342
0
343
0
344
0
371
    25
372
    25
  0
DIMSTYLE
105
7F
100
AcDbSymbolTableRecord
100
AcDbDimStyleTableRecord
  2
DS045ANGLE
 70
     0
  3

  4

 40
1.0
 41
4.0
 42
0.0
 43
8.0
 44
3.0
 45
0.0
 46
0.0
 47
0.0
 48
0.0
 71
     0
 72
     0
 73
     1
 74
     1
 75
     0
 76
     0
 77
     1
 78
     8
 79
     2
140
3.5
141
2.5
142
0.0
143
0.03937
144
1.0
145
0.0
146
0.7
147
0.625
148
0.0
170
     0
171
     4
172
     1
173
     0
174
     0
175
     0
176
     5
177
     5
178
     5
179
     2
271
     2
272
     3
273
     2
274
     3
275
     1
276
     0
277
     2
278
    46
279
     0
280
     0
281
     0
282
     0
283
     0
284
     8
285
     0
286
     0
288
     0
289
     3
340
5F
341
0
342
0
343
0
344
0
371
    25
372
    25
  0
DIMSTYLE
105
80
100
AcDbSymbolTableRecord
100
AcDbDimStyleTableRecord
  2
DS045KM
 70
     0
  3

  4

 40
1.0
 41
4.0
 42
0.0
 43
8.0
 44
3.0
 45
0.0
 46
0.0
 47
0.0
 48
0.0
 71
     0
 72
     0
 73
     0
 74
     0
 75
     0
 76
     0
 77
     1
 78
     8
 79
     2
140
3.5
141
2.5
142
0.0
143
0.03937
144
1.0
145
0.0
146
0.7
147
0.625
148
0.0
170
     0
171
     4
172
     1
173
     0
174
     0
175
     0
176
     5
177
     5
178
     5
179
     2
271
     2
272
     3
273
     2
274
     3
275
     0
276
     0
277
     2
278
    46
279
     0
280
     0
281
     0
282
     0
283
     0
284
     8
285
     0
286
     0
288
     1
289
     3
340
60
341
0
342
0
343
0
344
0
371
    25
372
    25
  0
DIMSTYLE
105
81
100
AcDbSymbolTableRecord
100
AcDbDimStyleTableRecord
  2
Standard0
 70
     0
  3

  4

 40
1.0
 41
0.18
 42
0.0625
 43
0.38
 44
0.18
 45
0.0
 46
0.0
 47
0.0
 48
0.0
 71
     0
 72
     0
 73
     1
 74
     1
 75
     0
 76
     0
 77
     0
 78
     0
 79
     0
140
0.18
141
0.09
142
0.0
143
25.4
144
1.0
145
0.0
146
1.0
147
0.09
148
0.0
170
     0
171
     2
172
     0
173
     0
174
     0
175
     0
176
     0
177
     0
178
     0
179
     0
271
     4
272
     4
273
     2
274
     2
275
     0
276
     0
277
     2
278
    46
279
     0
280
     0
281
     0
282
     0
283
     1
284
     0
285
     0
286
     0
288
     0
289
     3
340
62
341
0
342
0
343
0
344
0
371
    -2
372
    -2
  0
DIMSTYLE
105
82
100
AcDbSymbolTableRecord
100
AcDbDimStyleTableRecord
  2
ISO2500
 70
     0
  3

  4

 40
1.0
 41
2.5
 42
0.0625
 43
8.0
 44
1.25
 45
0.0
 46
0.0
 47
0.0
 48
0.0
 71
     0
 72
     0
 73
     0
 74
     0
 75
     0
 76
     0
 77
     1
 78
     8
 79
     0
140
2.5
141
2.5
142
0.0
143
0.03937
144
1.0
145
0.0
146
0.7
147
0.625
148
0.0
170
     0
171
     4
172
     1
173
     0
174
     0
175
     0
176
     5
177
     5
178
     5
179
     0
271
     4
272
     4
273
     8
274
     4
275
     0
276
     0
277
     6
278
    46
279
     0
280
     0
281
     0
282
     0
283
     1
284
     8
285
     0
286
     0
288
     0
289
     3
340
63
341
0
342
0
343
0
344
0
371
    -2
372
    -2
  0
DIMSTYLE
105
83
100
AcDbSymbolTableRecord
100
AcDbDimStyleTableRecord
  2
DS045GB0
 70
     0
  3

  4

 40
1.0
 41
4.0
 42
0.0
 43
8.0
 44
3.0
 45
0.0
 46
0.0
 47
0.0
 48
0.0
 71
     0
 72
     0
 73
     0
 74
     0
 75
     0
 76
     0
 77
     1
 78
     8
 79
     2
140
3.5
141
2.5
142
0.0
143
0.03937
144
1.0
145
0.0
146
0.7
147
0.625
148
0.0
170
     0
171
     4
172
     1
173
     0
174
     0
175
     0
176
     5
177
     5
178
     5
179
     2
271
     2
272
     3
273
     2
274
     3
275
     1
276
     0
277
     2
278
    46
279
     0
280
     0
281
     0
282
     0
283
     0
284
     8
285
     0
286
     0
288
     0
289
     3
340
63
341
0
342
0
343
0
344
0
371
    25
372
    25
  0
DIMSTYLE
105
84
100
AcDbSymbolTableRecord
100
AcDbDimStyleTableRecord
  2
DS045COSERIAL0
 70
     0
  3

  4

 40
1.0
 41
4.0
 42
0.0
 43
8.0
 44
3.0
 45
0.0
 46
0.0
 47
0.0
 48
0.0
 71
     0
 72
     0
 73
     0
 74
     0
 75
     0
 76
     0
 77
     0
 78
     8
 79
     2
140
3.5
141
2.5
142
0.0
143
0.03937
144
1.0
145
0.0
146
0.7
147
0.625
148
0.0
170
     0
171
     4
172
     1
173
     0
174
     0
175
     0
176
     5
177
     5
178
     5
179
     2
271
     2
272
     3
273
     2
274
     3
275
     1
276
     0
277
     2
278
    46
279
     0
280
     4
281
     0
282
     0
283
     0
284
     8
285
     0
286
     0
288
     0
289
     3
340
63
341
0
342
0
343
0
344
0
371
    25
372
    25
  0
DIMSTYLE
105
85
100
AcDbSymbolTableRecord
100
AcDbDimStyleTableRecord
  2
DS045GESERIAL0
 70
     0
  3

  4

 40
1.0
 41
4.0
 42
0.0
 43
8.0
 44
3.0
 45
0.0
 46
0.0
 47
0.0
 48
0.0
 71
     0
 72
     0
 73
     0
 74
     0
 75
     0
 76
     0
 77
     1
 78
     8
 79
     2
140
3.5
141
2.5
142
0.0
143
0.03937
144
1.0
145
0.0
146
0.7
147
0.625
148
0.0
170
     0
171
     4
172
     1
173
     0
174
     0
175
     0
176
     5
177
     5
178
     5
179
     2
271
     2
272
     3
273
     2
274
     3
275
     1
276
     0
277
     2
278
    46
279
     0
280
     0
281
     0
282
     0
283
     0
284
     8
285
     0
286
     0
288
     0
289
     3
340
63
341
0
342
0
343
0
344
0
371
    25
372
    25
  0
DIMSTYLE
105
86
100
AcDbSymbolTableRecord
100
AcDbDimStyleTableRecord
  2
DS045ANGLE0
 70
     0
  3

  4

 40
1.0
 41
4.0
 42
0.0
 43
8.0
 44
3.0
 45
0.0
 46
0.0
 47
0.0
 48
0.0
 71
     0
 72
     0
 73
     1
 74
     1
 75
     0
 76
     0
 77
     1
 78
     8
 79
     2
140
3.5
141
2.5
142
0.0
143
0.03937
144
1.0
145
0.0
146
0.7
147
0.625
148
0.0
170
     0
171
     4
172
     1
173
     0
174
     0
175
     0
176
     5
177
     5
178
     5
179
     2
271
     2
272
     3
273
     2
274
     3
275
     1
276
     0
277
     2
278
    46
279
     0
280
     0
281
     0
282
     0
283
     0
284
     8
285
     0
286
     0
288
     0
289
     3
340
63
341
0
342
0
343
0
344
0
371
    25
372
    25
  0
DIMSTYLE
105
87
100
AcDbSymbolTableRecord
100
AcDbDimStyleTableRecord
  2
DS045KM0
 70
     0
  3

  4

 40
1.0
 41
4.0
 42
0.0
 43
8.0
 44
3.0
 45
0.0
 46
0.0
 47
0.0
 48
0.0
 71
     0
 72
     0
 73
     0
 74
     0
 75
     0
 76
     0
 77
     1
 78
     8
 79
     2
140
3.5
141
2.5
142
0.0
143
0.03937
144
1.0
145
0.0
146
0.7
147
0.625
148
0.0
170
     0
171
     4
172
     1
173
     0
174
     0
175
     0
176
     5
177
     5
178
     5
179
     2
271
     2
272
     3
273
     2
274
     3
275
     0
276
     0
277
     2
278
    46
279
     0
280
     0
281
     0
282
     0
283
     0
284
     8
285
     0
286
     0
288
     1
289
     3
340
64
341
0
342
0
343
0
344
0
371
    25
372
    25
  0
DIMSTYLE
105
88
100
AcDbSymbolTableRecord
100
AcDbDimStyleTableRecord
  2
STANDARD
 70
     0
  3

  4

 40
1.0
 41
3.5
 42
0.0625
 43
0.38
 44
0.18
 45
0.0
 46
0.0
 47
0.01
 48
0.01
 71
     1
 72
     0
 73
     0
 74
     0
 75
     0
 76
     0
 77
     1
 78
     8
 79
     0
140
3.5
141
0.09
142
0.0
143
25.4
144
1.0
145
0.0
146
1.0
147
0.09
148
0.0
170
     0
171
     2
172
     0
173
     0
174
     0
175
     0
176
     0
177
     0
178
     0
179
     0
271
     2
272
     2
273
     2
274
     2
275
     0
276
     0
277
     2
278
    46
279
     0
280
     0
281
     0
282
     0
283
     1
284
     8
285
     0
286
     0
288
     0
289
     3
340
63
341
0
342
0
343
0
344
0
371
    -2
372
    -2
  0
ENDTAB
  0
TABLE
  2
BLOCK_RECORD
  5
1
100
AcDbSymbolTable
 70
    16
  0
BLOCK_RECORD
  5
A
100
AcDbSymbolTableRecord
100
AcDbBlockTableRecord
  2
*MODEL_SPACE
340
20
  0
BLOCK_RECORD
  5
B
100
AcDbSymbolTableRecord
100
AcDbBlockTableRecord
  2
*PAPER_SPACE
340
21
  0
BLOCK_RECORD
  5
89
100
AcDbSymbolTableRecord
100
AcDbBlockTableRecord
  2
KmSimpleDim1
340
0
  0
BLOCK_RECORD
  5
8A
100
AcDbSymbolTableRecord
100
AcDbBlockTableRecord
  2
KmSimpleDim2
340
0
  0
BLOCK_RECORD
  5
8B
100
AcDbSymbolTableRecord
100
AcDbBlockTableRecord
  2
KmSimpleDim3
340
0
  0
BLOCK_RECORD
  5
8C
100
AcDbSymbolTableRecord
100
AcDbBlockTableRecord
  2
KmSimpleDim4
340
0
  0
BLOCK_RECORD
  5
8D
100
AcDbSymbolTableRecord
100
AcDbBlockTableRecord
  2
KmLegend
340
0
102
{BLKREFS
331
448
331
449
102
}
  0
BLOCK_RECORD
  5
8E
100
AcDbSymbolTableRecord
100
AcDbBlockTableRecord
  2
KmSimpleDim10351
340
0
  0
BLOCK_RECORD
  5
8F
100
AcDbSymbolTableRecord
100
AcDbBlockTableRecord
  2
KmSimpleDim20352
340
0
  0
BLOCK_RECORD
  5
90
100
AcDbSymbolTableRecord
100
AcDbBlockTableRecord
  2
KmSimpleDim30353
340
0
  0
BLOCK_RECORD
  5
91
100
AcDbSymbolTableRecord
100
AcDbBlockTableRecord
  2
KmSimpleDim40354
340
0
  0
BLOCK_RECORD
  5
92
100
AcDbSymbolTableRecord
100
AcDbBlockTableRecord
  2
KmLegend0355
340
0
  0
BLOCK_RECORD
  5
411
100
AcDbSymbolTableRecord
100
AcDbBlockTableRecord
  2
KmSimpleDim1
340
0
  0
BLOCK_RECORD
  5
41C
100
AcDbSymbolTableRecord
100
AcDbBlockTableRecord
  2
KmSimpleDim2
340
0
  0
BLOCK_RECORD
  5
427
100
AcDbSymbolTableRecord
100
AcDbBlockTableRecord
  2
KmSimpleDim3
340
0
  0
BLOCK_RECORD
  5
432
100
AcDbSymbolTableRecord
100
AcDbBlockTableRecord
  2
KmSimpleDim4
340
0
  0
BLOCK_RECORD
  5
43D
100
AcDbSymbolTableRecord
100
AcDbBlockTableRecord
  2
KmSimpleDim5
340
0
  0
BLOCK_RECORD
  5
45A
100
AcDbSymbolTableRecord
100
AcDbBlockTableRecord
  2
KmLegend
340
0
102
{BLKREFS
331
465
102
}
  0
ENDTAB
  0
ENDSEC
  0
SECTION
  2
BLOCKS
  0
BLOCK
  5
D
100
AcDbEntity
  8
0
390
0
100
AcDbBlockBegin
  2
*MODEL_SPACE
 70
     0
 10
0.0
 20
0.0
 30
0.0
  3
*MODEL_SPACE
  1

  0
ENDBLK
  5
E
100
AcDbEntity
  8
0
390
0
100
AcDbBlockEnd
  0
BLOCK
  5
F
100
AcDbEntity
 67
     1
  8
0
390
0
100
AcDbBlockBegin
  2
*PAPER_SPACE
 70
     0
 10
0.0
 20
0.0
 30
0.0
  3
*PAPER_SPACE
  1

  0
ENDBLK
  5
10
100
AcDbEntity
 67
     1
  8
0
390
0
100
AcDbBlockEnd
  0
BLOCK
  5
93
100
AcDbEntity
  8
0
390
0
100
AcDbBlockBegin
  2
KmSimpleDim1
 70
     0
 10
0.0
 20
0.0
 30
0.0
  3

  1

  0
LINE
  5
94
100
AcDbEntity
  8
0
370
    25
390
0
  6
KM_SOLID
 62
     1
100
AcDbLine
 10
68.213322
 20
147.0
 30
0.0
 11
146.213322
 21
147.0
 31
0.0
  0
LINE
  5
95
100
AcDbEntity
  8
0
370
    25
390
0
  6
KM_SOLID
 62
     1
100
AcDbLine
 10
64.213322
 20
159.273377
 30
0.0
 11
64.213322
 21
144.0
 31
0.0
  0
LINE
  5
96
100
AcDbEntity
  8
0
370
    25
390
0
  6
KM_SOLID
 62
     1
100
AcDbLine
 10
150.213322
 20
157.573377
 30
0.0
 11
150.213322
 21
144.0
 31
0.0
  0
SOLID
  5
97
100
AcDbEntity
  8
0
390
0
 62
     1
100
AcDbTrace
 10
68.213322
 20
146.5
 30
0.0
 11
68.213322
 21
147.5
 31
0.0
 12
64.213322
 22
147.0
 32
0.0
 13
64.213322
 23
147.0
 33
0.0
  0
SOLID
  5
98
100
AcDbEntity
  8
0
390
0
 62
     1
100
AcDbTrace
 10
146.213322
 20
147.5
 30
0.0
 11
146.213322
 21
146.5
 31
0.0
 12
150.213322
 22
147.0
 32
0.0
 13
150.213322
 23
147.0
 33
0.0
  0
MTEXT
  5
9A
100
AcDbEntity
  8
0
390
0
 62
     2
100
AcDbMText
 10
105.546655
 20
151.125
 30
0.0
 40
3.5
 41
0.0
 71
     1
 72
     1
  1
{\W0.50;86}
  7
1
 73
     1
 44
1.0
  0
ENDBLK
  5
9B
100
AcDbEntity
  8
0
390
0
100
AcDbBlockEnd
  0
BLOCK
  5
9C
100
AcDbEntity
  8
0
390
0
100
AcDbBlockBegin
  2
KmSimpleDim2
 70
     0
 10
0.0
 20
0.0
 30
0.0
  3

  1

  0
LINE
  5
9D
100
AcDbEntity
  8
0
370
    25
390
0
  6
KM_SOLID
 62
     1
100
AcDbLine
 10
49.0
 20
223.273377
 30
0.0
 11
49.0
 21
161.573377
 31
0.0
  0
LINE
  5
9E
100
AcDbEntity
  8
0
370
    25
390
0
  6
KM_SOLID
 62
     1
100
AcDbLine
 10
117.213322
 20
227.273377
 30
0.0
 11
46.0
 21
227.273377
 31
0.0
  0
LINE
  5
9F
100
AcDbEntity
  8
0
370
    25
390
0
  6
KM_SOLID
 62
     1
100
AcDbLine
 10
74.213322
 20
157.573377
 30
0.0
 11
46.0
 21
157.573377
 31
0.0
  0
SOLID
  5
A0
100
AcDbEntity
  8
0
390
0
 62
     1
100
AcDbTrace
 10
48.5
 20
223.273377
 30
0.0
 11
49.5
 21
223.273377
 31
0.0
 12
49.0
 22
227.273377
 32
0.0
 13
49.0
 23
227.273377
 33
0.0
  0
SOLID
  5
A1
100
AcDbEntity
  8
0
390
0
 62
     1
100
AcDbTrace
 10
49.5
 20
161.573377
 30
0.0
 11
48.5
 21
161.573377
 31
0.0
 12
49.0
 22
157.573377
 32
0.0
 13
49.0
 23
157.573377
 33
0.0
  0
MTEXT
  5
A3
100
AcDbEntity
  8
0
390
0
 62
     2
100
AcDbMText
 10
44.875
 20
189.50671
 30
0.0
 40
3.5
 41
0.0
 71
     1
 72
     1
  1
{\W0.50;69.7}
  7
2
 11
0.0
 21
1.0
 31
0.0
 73
     1
 44
1.0
  0
ENDBLK
  5
A4
100
AcDbEntity
  8
0
390
0
100
AcDbBlockEnd
  0
BLOCK
  5
A5
100
AcDbEntity
  8
0
390
0
100
AcDbBlockBegin
  2
KmSimpleDim3
 70
     0
 10
0.0
 20
0.0
 30
0.0
  3

  1

  0
LINE
  5
A6
100
AcDbEntity
  8
0
370
    25
390
0
  6
KM_SOLID
 62
     1
100
AcDbLine
 10
86.213322
 20
244.0
 30
0.0
 11
123.213322
 21
244.0
 31
0.0
  0
LINE
  5
A7
100
AcDbEntity
  8
0
370
    25
390
0
  6
KM_SOLID
 62
     1
100
AcDbLine
 10
82.213322
 20
220.784579
 30
0.0
 11
82.213322
 21
247.0
 31
0.0
  0
LINE
  5
A8
100
AcDbEntity
  8
0
370
    25
390
0
  6
KM_SOLID
 62
     1
100
AcDbLine
 10
127.213322
 20
220.784579
 30
0.0
 11
127.213322
 21
247.0
 31
0.0
  0
SOLID
  5
A9
100
AcDbEntity
  8
0
390
0
 62
     1
100
AcDbTrace
 10
86.213322
 20
243.5
 30
0.0
 11
86.213322
 21
244.5
 31
0.0
 12
82.213322
 22
244.0
 32
0.0
 13
82.213322
 23
244.0
 33
0.0
  0
SOLID
  5
AA
100
AcDbEntity
  8
0
390
0
 62
     1
100
AcDbTrace
 10
123.213322
 20
244.5
 30
0.0
 11
123.213322
 21
243.5
 31
0.0
 12
127.213322
 22
244.0
 32
0.0
 13
127.213322
 23
244.0
 33
0.0
  0
MTEXT
  5
AC
100
AcDbEntity
  8
0
390
0
 62
     2
100
AcDbMText
 10
103.046655
 20
248.125
 30
0.0
 40
3.5
 41
0.0
 71
     1
 72
     1
  1
{\W0.50;45}
  7
3
 73
     1
 44
1.0
  0
ENDBLK
  5
AD
100
AcDbEntity
  8
0
390
0
100
AcDbBlockEnd
  0
BLOCK
  5
AE
100
AcDbEntity
  8
0
390
0
100
AcDbBlockBegin
  2
KmSimpleDim4
 70
     0
 10
0.0
 20
0.0
 30
0.0
  3

  1

  0
LINE
  5
AF
100
AcDbEntity
  8
0
370
    25
390
0
  6
KM_SOLID
 62
     1
100
AcDbLine
 10
205.595623
 20
250.0
 30
0.0
 11
215.395623
 21
250.0
 31
0.0
  0
LINE
  5
B0
100
AcDbEntity
  8
0
370
    25
390
0
  6
KM_SOLID
 62
     1
100
AcDbLine
 10
201.595623
 20
240.238412
 30
0.0
 11
201.595623
 21
253.0
 31
0.0
  0
LINE
  5
B1
100
AcDbEntity
  8
0
370
    25
390
0
  6
KM_SOLID
 62
     1
100
AcDbLine
 10
219.395623
 20
240.238412
 30
0.0
 11
219.395623
 21
253.0
 31
0.0
  0
SOLID
  5
B2
100
AcDbEntity
  8
0
390
0
 62
     1
100
AcDbTrace
 10
205.595623
 20
249.5
 30
0.0
 11
205.595623
 21
250.5
 31
0.0
 12
201.595623
 22
250.0
 32
0.0
 13
201.595623
 23
250.0
 33
0.0
  0
SOLID
  5
B3
100
AcDbEntity
  8
0
390
0
 62
     1
100
AcDbTrace
 10
215.395623
 20
250.5
 30
0.0
 11
215.395623
 21
249.5
 31
0.0
 12
219.395623
 22
250.0
 32
0.0
 13
219.395623
 23
250.0
 33
0.0
  0
MTEXT
  5
B5
100
AcDbEntity
  8
0
390
0
 62
     2
100
AcDbMText
 10
208.828956
 20
254.125
 30
0.0
 40
3.5
 41
0.0
 71
     1
 72
     1
  1
{\W0.50;18}
  7
4
 73
     1
 44
1.0
  0
ENDBLK
  5
B6
100
AcDbEntity
  8
0
390
0
100
AcDbBlockEnd
  0
BLOCK
  5
B7
100
AcDbEntity
  8
0
390
0
100
AcDbBlockBegin
  2
KmLegend
 70
     0
 10
0.0
 20
0.0
 30
0.0
  3

  1

  0
LINE
  5
B8
100
AcDbEntity
  8
0
370
   100
390
0
  6
KM_SOLID
 62
   255
100
AcDbLine
 10
20.0
 20
0.0
 30
0.0
 11
20.0
 21
297.0
 31
0.0
  0
LINE
  5
B9
100
AcDbEntity
  8
0
370
   100
390
0
  6
KM_SOLID
 62
   255
100
AcDbLine
 10
20.0
 20
297.0
 30
0.0
 11
420.0
 21
297.0
 31
0.0
  0
LINE
  5
BA
100
AcDbEntity
  8
0
370
   100
390
0
  6
KM_SOLID
 62
   255
100
AcDbLine
 10
420.0
 20
297.0
 30
0.0
 11
420.0
 21
0.0
 31
0.0
  0
LINE
  5
BB
100
AcDbEntity
  8
0
370
   100
390
0
  6
KM_SOLID
 62
   255
100
AcDbLine
 10
420.0
 20
0.0
 30
0.0
 11
20.0
 21
0.0
 31
0.0
  0
LINE
  5
BC
100
AcDbEntity
  8
0
370
    35
390
0
  6
KM_SOLID
 62
   255
100
AcDbLine
 10
-5.0
 20
-5.0
 30
0.0
 11
-5.0
 21
302.0
 31
0.0
  0
LINE
  5
BD
100
AcDbEntity
  8
0
370
    35
390
0
  6
KM_SOLID
 62
   255
100
AcDbLine
 10
-5.0
 20
302.0
 30
0.0
 11
425.0
 21
302.0
 31
0.0
  0
LINE
  5
BE
100
AcDbEntity
  8
0
370
    35
390
0
  6
KM_SOLID
 62
   255
100
AcDbLine
 10
425.0
 20
302.0
 30
0.0
 11
425.0
 21
-5.0
 31
0.0
  0
LINE
  5
BF
100
AcDbEntity
  8
0
370
    35
390
0
  6
KM_SOLID
 62
   255
100
AcDbLine
 10
425.0
 20
-5.0
 30
0.0
 11
-5.0
 21
-5.0
 31
0.0
  0
ENDBLK
  5
C0
100
AcDbEntity
  8
0
390
0
100
AcDbBlockEnd
  0
BLOCK
  5
C1
100
AcDbEntity
  8
0
390
0
100
AcDbBlockBegin
  2
KmSimpleDim10351
 70
     0
 10
0.0
 20
0.0
 30
0.0
  3

  1

  0
LINE
  5
C2
100
AcDbEntity
  8
0
370
    25
390
0
  6
KM_SOLID
 62
     1
100
AcDbLine
 10
68.213322
 20
147.0
 30
0.0
 11
146.213322
 21
147.0
 31
0.0
  0
LINE
  5
C3
100
AcDbEntity
  8
0
370
    25
390
0
  6
KM_SOLID
 62
     1
100
AcDbLine
 10
64.213322
 20
159.273377
 30
0.0
 11
64.213322
 21
144.0
 31
0.0
  0
LINE
  5
C4
100
AcDbEntity
  8
0
370
    25
390
0
  6
KM_SOLID
 62
     1
100
AcDbLine
 10
150.213322
 20
157.573377
 30
0.0
 11
150.213322
 21
144.0
 31
0.0
  0
SOLID
  5
C5
100
AcDbEntity
  8
0
390
0
 62
     1
100
AcDbTrace
 10
68.213322
 20
146.5
 30
0.0
 11
68.213322
 21
147.5
 31
0.0
 12
64.213322
 22
147.0
 32
0.0
 13
64.213322
 23
147.0
 33
0.0
  0
SOLID
  5
C6
100
AcDbEntity
  8
0
390
0
 62
     1
100
AcDbTrace
 10
146.213322
 20
147.5
 30
0.0
 11
146.213322
 21
146.5
 31
0.0
 12
150.213322
 22
147.0
 32
0.0
 13
150.213322
 23
147.0
 33
0.0
  0
MTEXT
  5
C8
100
AcDbEntity
  8
0
390
0
 62
     2
100
AcDbMText
 10
105.546655
 20
151.125
 30
0.0
 40
3.5
 41
0.0
 71
     1
 72
     1
  1
{\W0.50;86}
  7
5
 73
     1
 44
1.0
  0
ENDBLK
  5
C9
100
AcDbEntity
  8
0
390
0
100
AcDbBlockEnd
  0
BLOCK
  5
CA
100
AcDbEntity
  8
0
390
0
100
AcDbBlockBegin
  2
KmSimpleDim20352
 70
     0
 10
0.0
 20
0.0
 30
0.0
  3

  1

  0
LINE
  5
CB
100
AcDbEntity
  8
0
370
    25
390
0
  6
KM_SOLID
 62
     1
100
AcDbLine
 10
49.0
 20
223.273377
 30
0.0
 11
49.0
 21
161.573377
 31
0.0
  0
LINE
  5
CC
100
AcDbEntity
  8
0
370
    25
390
0
  6
KM_SOLID
 62
     1
100
AcDbLine
 10
117.213322
 20
227.273377
 30
0.0
 11
46.0
 21
227.273377
 31
0.0
  0
LINE
  5
CD
100
AcDbEntity
  8
0
370
    25
390
0
  6
KM_SOLID
 62
     1
100
AcDbLine
 10
74.213322
 20
157.573377
 30
0.0
 11
46.0
 21
157.573377
 31
0.0
  0
SOLID
  5
CE
100
AcDbEntity
  8
0
390
0
 62
     1
100
AcDbTrace
 10
48.5
 20
223.273377
 30
0.0
 11
49.5
 21
223.273377
 31
0.0
 12
49.0
 22
227.273377
 32
0.0
 13
49.0
 23
227.273377
 33
0.0
  0
SOLID
  5
CF
100
AcDbEntity
  8
0
390
0
 62
     1
100
AcDbTrace
 10
49.5
 20
161.573377
 30
0.0
 11
48.5
 21
161.573377
 31
0.0
 12
49.0
 22
157.573377
 32
0.0
 13
49.0
 23
157.573377
 33
0.0
  0
MTEXT
  5
D1
100
AcDbEntity
  8
0
390
0
 62
     2
100
AcDbMText
 10
44.875
 20
189.090044
 30
0.0
 40
3.5
 41
0.0
 71
     1
 72
     1
  1
{\W1.00;71}
  7
6
 11
0.0
 21
1.0
 31
0.0
 73
     1
 44
1.0
  0
ENDBLK
  5
D2
100
AcDbEntity
  8
0
390
0
100
AcDbBlockEnd
  0
BLOCK
  5
D3
100
AcDbEntity
  8
0
390
0
100
AcDbBlockBegin
  2
KmSimpleDim30353
 70
     0
 10
0.0
 20
0.0
 30
0.0
  3

  1

  0
LINE
  5
D4
100
AcDbEntity
  8
0
370
    25
390
0
  6
KM_SOLID
 62
     1
100
AcDbLine
 10
86.213322
 20
244.0
 30
0.0
 11
123.213322
 21
244.0
 31
0.0
  0
LINE
  5
D5
100
AcDbEntity
  8
0
370
    25
390
0
  6
KM_SOLID
 62
     1
100
AcDbLine
 10
82.213322
 20
220.784579
 30
0.0
 11
82.213322
 21
247.0
 31
0.0
  0
LINE
  5
D6
100
AcDbEntity
  8
0
370
    25
390
0
  6
KM_SOLID
 62
     1
100
AcDbLine
 10
127.213322
 20
220.784579
 30
0.0
 11
127.213322
 21
247.0
 31
0.0
  0
SOLID
  5
D7
100
AcDbEntity
  8
0
390
0
 62
     1
100
AcDbTrace
 10
86.213322
 20
243.5
 30
0.0
 11
86.213322
 21
244.5
 31
0.0
 12
82.213322
 22
244.0
 32
0.0
 13
82.213322
 23
244.0
 33
0.0
  0
SOLID
  5
D8
100
AcDbEntity
  8
0
390
0
 62
     1
100
AcDbTrace
 10
123.213322
 20
244.5
 30
0.0
 11
123.213322
 21
243.5
 31
0.0
 12
127.213322
 22
244.0
 32
0.0
 13
127.213322
 23
244.0
 33
0.0
  0
MTEXT
  5
DA
100
AcDbEntity
  8
0
390
0
 62
     2
100
AcDbMText
 10
103.046655
 20
248.125
 30
0.0
 40
3.5
 41
0.0
 71
     1
 72
     1
  1
{\W0.50;45}
  7
7
 73
     1
 44
1.0
  0
ENDBLK
  5
DB
100
AcDbEntity
  8
0
390
0
100
AcDbBlockEnd
  0
BLOCK
  5
DC
100
AcDbEntity
  8
0
390
0
100
AcDbBlockBegin
  2
KmSimpleDim40354
 70
     0
 10
0.0
 20
0.0
 30
0.0
  3

  1

  0
LINE
  5
DD
100
AcDbEntity
  8
0
370
    25
390
0
  6
KM_SOLID
 62
     1
100
AcDbLine
 10
205.595623
 20
250.0
 30
0.0
 11
215.395623
 21
250.0
 31
0.0
  0
LINE
  5
DE
100
AcDbEntity
  8
0
370
    25
390
0
  6
KM_SOLID
 62
     1
100
AcDbLine
 10
201.595623
 20
240.238412
 30
0.0
 11
201.595623
 21
253.0
 31
0.0
  0
LINE
  5
DF
100
AcDbEntity
  8
0
370
    25
390
0
  6
KM_SOLID
 62
     1
100
AcDbLine
 10
219.395623
 20
240.238412
 30
0.0
 11
219.395623
 21
253.0
 31
0.0
  0
SOLID
  5
E0
100
AcDbEntity
  8
0
390
0
 62
     1
100
AcDbTrace
 10
205.595623
 20
249.5
 30
0.0
 11
205.595623
 21
250.5
 31
0.0
 12
201.595623
 22
250.0
 32
0.0
 13
201.595623
 23
250.0
 33
0.0
  0
SOLID
  5
E1
100
AcDbEntity
  8
0
390
0
 62
     1
100
AcDbTrace
 10
215.395623
 20
250.5
 30
0.0
 11
215.395623
 21
249.5
 31
0.0
 12
219.395623
 22
250.0
 32
0.0
 13
219.395623
 23
250.0
 33
0.0
  0
MTEXT
  5
E3
100
AcDbEntity
  8
0
390
0
 62
     2
100
AcDbMText
 10
208.828956
 20
254.125
 30
0.0
 40
3.5
 41
0.0
 71
     1
 72
     1
  1
{\W0.50;18}
  7
8
 73
     1
 44
1.0
  0
ENDBLK
  5
E4
100
AcDbEntity
  8
0
390
0
100
AcDbBlockEnd
  0
BLOCK
  5
E5
100
AcDbEntity
  8
0
390
0
100
AcDbBlockBegin
  2
KmLegend0355
 70
     0
 10
0.0
 20
0.0
 30
0.0
  3

  1

  0
LINE
  5
E6
100
AcDbEntity
  8
0
370
   100
390
0
  6
KM_SOLID
 62
   255
100
AcDbLine
 10
15.0
 20
-5.0
 30
0.0
 11
15.0
 21
302.0
 31
0.0
  0
LINE
  5
E7
100
AcDbEntity
  8
0
370
   100
390
0
  6
KM_SOLID
 62
   255
100
AcDbLine
 10
15.0
 20
302.0
 30
0.0
 11
425.0
 21
302.0
 31
0.0
  0
LINE
  5
E8
100
AcDbEntity
  8
0
370
   100
390
0
  6
KM_SOLID
 62
   255
100
AcDbLine
 10
425.0
 20
302.0
 30
0.0
 11
425.0
 21
-5.0
 31
0.0
  0
LINE
  5
E9
100
AcDbEntity
  8
0
370
   100
390
0
  6
KM_SOLID
 62
   255
100
AcDbLine
 10
425.0
 20
-5.0
 30
0.0
 11
15.0
 21
-5.0
 31
0.0
  0
LINE
  5
EA
100
AcDbEntity
  8
0
370
    35
390
0
  6
KM_SOLID
 62
   255
100
AcDbLine
 10
-10.0
 20
-10.0
 30
0.0
 11
-10.0
 21
307.0
 31
0.0
  0
LINE
  5
EB
100
AcDbEntity
  8
0
370
    35
390
0
  6
KM_SOLID
 62
   255
100
AcDbLine
 10
-10.0
 20
307.0
 30
0.0
 11
430.0
 21
307.0
 31
0.0
  0
LINE
  5
EC
100
AcDbEntity
  8
0
370
    35
390
0
  6
KM_SOLID
 62
   255
100
AcDbLine
 10
430.0
 20
307.0
 30
0.0
 11
430.0
 21
-10.0
 31
0.0
  0
LINE
  5
ED
100
AcDbEntity
  8
0
370
    35
390
0
  6
KM_SOLID
 62
   255
100
AcDbLine
 10
430.0
 20
-10.0
 30
0.0
 11
-10.0
 21
-10.0
 31
0.0
  0
ENDBLK
  5
EE
100
AcDbEntity
  8
0
390
0
100
AcDbBlockEnd
  0
BLOCK
  5
412
100
AcDbEntity
  8
0
390
0
100
AcDbBlockBegin
  2
KmSimpleDim1
 70
     0
 10
0.0
 20
0.0
 30
0.0
  3

  1

  0
LINE
  5
413
100
AcDbEntity
  8
图层0352
370
    25
390
0
  6
KM_SOLID
 62
     1
100
AcDbLine
 10
68.213322
 20
147.0
 30
0.0
 11
146.213322
 21
147.0
 31
0.0
  0
LINE
  5
414
100
AcDbEntity
  8
图层0352
370
    25
390
0
  6
KM_SOLID
 62
     1
100
AcDbLine
 10
64.213322
 20
159.273377
 30
0.0
 11
64.213322
 21
144.0
 31
0.0
  0
LINE
  5
415
100
AcDbEntity
  8
图层0352
370
    25
390
0
  6
KM_SOLID
 62
     1
100
AcDbLine
 10
150.213322
 20
157.573377
 30
0.0
 11
150.213322
 21
144.0
 31
0.0
  0
SOLID
  5
416
100
AcDbEntity
  8
图层0352
370
    35
390
0
  6
KM_SOLID
 62
     1
100
AcDbTrace
 10
68.213322
 20
146.5
 30
0.0
 11
68.213322
 21
147.5
 31
0.0
 12
64.213322
 22
147.0
 32
0.0
 13
64.213322
 23
147.0
 33
0.0
  0
SOLID
  5
417
100
AcDbEntity
  8
图层0352
370
    35
390
0
  6
KM_SOLID
 62
     1
100
AcDbTrace
 10
146.213322
 20
147.5
 30
0.0
 11
146.213322
 21
146.5
 31
0.0
 12
150.213322
 22
147.0
 32
0.0
 13
150.213322
 23
147.0
 33
0.0
  0
MTEXT
  5
419
100
AcDbEntity
  8
图层0352
370
    35
390
0
  6
KM_SOLID
 62
     2
100
AcDbMText
 10
105.546655
 20
151.125
 30
0.0
 40
3.5
 41
0.0
 71
     1
 72
     1
  1
{\W0.50;86}
  7
9
 73
     1
 44
1.0
  0
ENDBLK
  5
41A
100
AcDbEntity
  8
0
390
0
100
AcDbBlockEnd
  0
BLOCK
  5
41D
100
AcDbEntity
  8
0
390
0
100
AcDbBlockBegin
  2
KmSimpleDim2
 70
     0
 10
0.0
 20
0.0
 30
0.0
  3

  1

  0
LINE
  5
41E
100
AcDbEntity
  8
图层0352
370
    25
390
0
  6
KM_SOLID
 62
     1
100
AcDbLine
 10
49.0
 20
223.273377
 30
0.0
 11
49.0
 21
161.573377
 31
0.0
  0
LINE
  5
41F
100
AcDbEntity
  8
图层0352
370
    25
390
0
  6
KM_SOLID
 62
     1
100
AcDbLine
 10
117.213322
 20
227.273377
 30
0.0
 11
46.0
 21
227.273377
 31
0.0
  0
LINE
  5
420
100
AcDbEntity
  8
图层0352
370
    25
390
0
  6
KM_SOLID
 62
     1
100
AcDbLine
 10
74.213322
 20
157.573377
 30
0.0
 11
46.0
 21
157.573377
 31
0.0
  0
SOLID
  5
421
100
AcDbEntity
  8
图层0352
370
    35
390
0
  6
KM_SOLID
 62
     1
100
AcDbTrace
 10
48.5
 20
223.273377
 30
0.0
 11
49.5
 21
223.273377
 31
0.0
 12
49.0
 22
227.273377
 32
0.0
 13
49.0
 23
227.273377
 33
0.0
  0
SOLID
  5
422
100
AcDbEntity
  8
图层0352
370
    35
390
0
  6
KM_SOLID
 62
     1
100
AcDbTrace
 10
49.5
 20
161.573377
 30
0.0
 11
48.5
 21
161.573377
 31
0.0
 12
49.0
 22
157.573377
 32
0.0
 13
49.0
 23
157.573377
 33
0.0
  0
MTEXT
  5
424
100
AcDbEntity
  8
图层0352
370
    35
390
0
  6
KM_SOLID
 62
     2
100
AcDbMText
 10
44.875
 20
189.50671
 30
0.0
 40
3.5
 41
0.0
 71
     1
 72
     1
  1
{\W0.50;69.7}
  7
10
 11
0.0
 21
1.0
 31
0.0
 73
     1
 44
1.0
  0
ENDBLK
  5
425
100
AcDbEntity
  8
0
390
0
100
AcDbBlockEnd
  0
BLOCK
  5
428
100
AcDbEntity
  8
0
390
0
100
AcDbBlockBegin
  2
KmSimpleDim3
 70
     0
 10
0.0
 20
0.0
 30
0.0
  3

  1

  0
LINE
  5
429
100
AcDbEntity
  8
图层0352
370
    25
390
0
  6
KM_SOLID
 62
     1
100
AcDbLine
 10
86.213322
 20
244.0
 30
0.0
 11
123.213322
 21
244.0
 31
0.0
  0
LINE
  5
42A
100
AcDbEntity
  8
图层0352
370
    25
390
0
  6
KM_SOLID
 62
     1
100
AcDbLine
 10
82.213322
 20
220.784579
 30
0.0
 11
82.213322
 21
247.0
 31
0.0
  0
LINE
  5
42B
100
AcDbEntity
  8
图层0352
370
    25
390
0
  6
KM_SOLID
 62
     1
100
AcDbLine
 10
127.213322
 20
220.784579
 30
0.0
 11
127.213322
 21
247.0
 31
0.0
  0
SOLID
  5
42C
100
AcDbEntity
  8
图层0352
370
    35
390
0
  6
KM_SOLID
 62
     1
100
AcDbTrace
 10
86.213322
 20
243.5
 30
0.0
 11
86.213322
 21
244.5
 31
0.0
 12
82.213322
 22
244.0
 32
0.0
 13
82.213322
 23
244.0
 33
0.0
  0
SOLID
  5
42D
100
AcDbEntity
  8
图层0352
370
    35
390
0
  6
KM_SOLID
 62
     1
100
AcDbTrace
 10
123.213322
 20
244.5
 30
0.0
 11
123.213322
 21
243.5
 31
0.0
 12
127.213322
 22
244.0
 32
0.0
 13
127.213322
 23
244.0
 33
0.0
  0
MTEXT
  5
42F
100
AcDbEntity
  8
图层0352
370
    35
390
0
  6
KM_SOLID
 62
     2
100
AcDbMText
 10
103.046655
 20
248.125
 30
0.0
 40
3.5
 41
0.0
 71
     1
 72
     1
  1
{\W0.50;45}
  7
11
 73
     1
 44
1.0
  0
ENDBLK
  5
430
100
AcDbEntity
  8
0
390
0
100
AcDbBlockEnd
  0
BLOCK
  5
433
100
AcDbEntity
  8
0
390
0
100
AcDbBlockBegin
  2
KmSimpleDim4
 70
     0
 10
0.0
 20
0.0
 30
0.0
  3

  1

  0
LINE
  5
434
100
AcDbEntity
  8
图层0352
370
    25
390
0
  6
KM_SOLID
 62
     1
100
AcDbLine
 10
205.595623
 20
250.0
 30
0.0
 11
215.395623
 21
250.0
 31
0.0
  0
LINE
  5
435
100
AcDbEntity
  8
图层0352
370
    25
390
0
  6
KM_SOLID
 62
     1
100
AcDbLine
 10
201.595623
 20
240.238412
 30
0.0
 11
201.595623
 21
253.0
 31
0.0
  0
LINE
  5
436
100
AcDbEntity
  8
图层0352
370
    25
390
0
  6
KM_SOLID
 62
     1
100
AcDbLine
 10
219.395623
 20
240.238412
 30
0.0
 11
219.395623
 21
253.0
 31
0.0
  0
SOLID
  5
437
100
AcDbEntity
  8
图层0352
370
    35
390
0
  6
KM_SOLID
 62
     1
100
AcDbTrace
 10
205.595623
 20
249.5
 30
0.0
 11
205.595623
 21
250.5
 31
0.0
 12
201.595623
 22
250.0
 32
0.0
 13
201.595623
 23
250.0
 33
0.0
  0
SOLID
  5
438
100
AcDbEntity
  8
图层0352
370
    35
390
0
  6
KM_SOLID
 62
     1
100
AcDbTrace
 10
215.395623
 20
250.5
 30
0.0
 11
215.395623
 21
249.5
 31
0.0
 12
219.395623
 22
250.0
 32
0.0
 13
219.395623
 23
250.0
 33
0.0
  0
MTEXT
  5
43A
100
AcDbEntity
  8
图层0352
370
    35
390
0
  6
KM_SOLID
 62
     2
100
AcDbMText
 10
208.828956
 20
254.125
 30
0.0
 40
3.5
 41
0.0
 71
     1
 72
     1
  1
{\W0.50;18}
  7
12
 73
     1
 44
1.0
  0
ENDBLK
  5
43B
100
AcDbEntity
  8
0
390
0
100
AcDbBlockEnd
  0
BLOCK
  5
43E
100
AcDbEntity
  8
0
390
0
100
AcDbBlockBegin
  2
KmSimpleDim5
 70
     0
 10
0.0
 20
0.0
 30
0.0
  3

  1

  0
LINE
  5
43F
100
AcDbEntity
  8
图层0352
370
    25
390
0
  6
KM_SOLID
 62
     1
100
AcDbLine
 10
91.213322
 20
153.0
 30
0.0
 11
119.213322
 21
153.0
 31
0.0
  0
LINE
  5
440
100
AcDbEntity
  8
图层0352
370
    25
390
0
  6
KM_SOLID
 62
     1
100
AcDbLine
 10
87.213322
 20
162.373377
 30
0.0
 11
87.213322
 21
150.0
 31
0.0
  0
LINE
  5
441
100
AcDbEntity
  8
图层0352
370
    25
390
0
  6
KM_SOLID
 62
     1
100
AcDbLine
 10
123.213322
 20
161.373377
 30
0.0
 11
123.213322
 21
150.0
 31
0.0
  0
SOLID
  5
442
100
AcDbEntity
  8
图层0352
370
    35
390
0
  6
KM_SOLID
 62
     1
100
AcDbTrace
 10
91.213322
 20
152.5
 30
0.0
 11
91.213322
 21
153.5
 31
0.0
 12
87.213322
 22
153.0
 32
0.0
 13
87.213322
 23
153.0
 33
0.0
  0
SOLID
  5
443
100
AcDbEntity
  8
图层0352
370
    35
390
0
  6
KM_SOLID
 62
     1
100
AcDbTrace
 10
119.213322
 20
153.5
 30
0.0
 11
119.213322
 21
152.5
 31
0.0
 12
123.213322
 22
153.0
 32
0.0
 13
123.213322
 23
153.0
 33
0.0
  0
MTEXT
  5
445
100
AcDbEntity
  8
图层0352
370
    35
390
0
  6
KM_SOLID
 62
     2
100
AcDbMText
 10
99.379989
 20
157.125
 30
0.0
 40
3.5
 41
0.0
 71
     1
 72
     1
  1
{\W1.00;34.5}
  7
13
 73
     1
 44
1.0
  0
ENDBLK
  5
446
100
AcDbEntity
  8
0
390
0
100
AcDbBlockEnd
  0
BLOCK
  5
45B
100
AcDbEntity
  8
0
390
0
100
AcDbBlockBegin
  2
KmLegend
 70
     0
 10
0.0
 20
0.0
 30
0.0
  3

  1

  0
LINE
  5
45C
100
AcDbEntity
  8
0
370
   100
390
0
  6
KM_SOLID
 62
   255
100
AcDbLine
 10
10.0
 20
-10.0
 30
0.0
 11
10.0
 21
307.0
 31
0.0
  0
LINE
  5
45D
100
AcDbEntity
  8
0
370
   100
390
0
  6
KM_SOLID
 62
   255
100
AcDbLine
 10
10.0
 20
307.0
 30
0.0
 11
430.0
 21
307.0
 31
0.0
  0
LINE
  5
45E
100
AcDbEntity
  8
0
370
   100
390
0
  6
KM_SOLID
 62
   255
100
AcDbLine
 10
430.0
 20
307.0
 30
0.0
 11
430.0
 21
-10.0
 31
0.0
  0
LINE
  5
45F
100
AcDbEntity
  8
0
370
   100
390
0
  6
KM_SOLID
 62
   255
100
AcDbLine
 10
430.0
 20
-10.0
 30
0.0
 11
10.0
 21
-10.0
 31
0.0
  0
LINE
  5
460
100
AcDbEntity
  8
0
370
    35
390
0
  6
KM_SOLID
 62
   255
100
AcDbLine
 10
-15.0
 20
-15.0
 30
0.0
 11
-15.0
 21
312.0
 31
0.0
  0
LINE
  5
461
100
AcDbEntity
  8
0
370
    35
390
0
  6
KM_SOLID
 62
   255
100
AcDbLine
 10
-15.0
 20
312.0
 30
0.0
 11
435.0
 21
312.0
 31
0.0
  0
LINE
  5
462
100
AcDbEntity
  8
0
370
    35
390
0
  6
KM_SOLID
 62
   255
100
AcDbLine
 10
435.0
 20
312.0
 30
0.0
 11
435.0
 21
-15.0
 31
0.0
  0
LINE
  5
463
100
AcDbEntity
  8
0
370
    35
390
0
  6
KM_SOLID
 62
   255
100
AcDbLine
 10
435.0
 20
-15.0
 30
0.0
 11
-15.0
 21
-15.0
 31
0.0
  0
ENDBLK
  5
464
100
AcDbEntity
  8
0
390
0
100
AcDbBlockEnd
  0
ENDSEC
  0
SECTION
  2
ENTITIES
  0
LINE
  5
EF
100
AcDbEntity
  8
0
390
0
  6
KM_SOLID
 62
   255
100
AcDbLine
 10
0.0
 20
0.0
 30
0.0
 11
0.0
 21
297.0
 31
0.0
  0
LINE
  5
F0
100
AcDbEntity
  8
0
390
0
  6
KM_SOLID
 62
   255
100
AcDbLine
 10
0.0
 20
0.0
 30
0.0
 11
420.0
 21
0.0
 31
0.0
  0
LINE
  5
F1
100
AcDbEntity
  8
0
390
0
  6
KM_SOLID
 62
   255
100
AcDbLine
 10
0.0
 20
297.0
 30
0.0
 11
420.0
 21
297.0
 31
0.0
  0
LINE
  5
F2
100
AcDbEntity
  8
0
390
0
  6
KM_SOLID
 62
   255
100
AcDbLine
 10
420.0
 20
0.0
 30
0.0
 11
420.0
 21
297.0
 31
0.0
  0
LINE
  5
F3
100
AcDbEntity
  8
0095COMPONENTS
390
0
  6
KM_SOLID
 62
   255
100
AcDbLine
 10
64.213322
 20
159.273377
 30
0.0
 11
64.213322
 21
187.573377
 31
0.0
  0
LINE
  5
F4
100
AcDbEntity
  8
0095COMPONENTS
390
0
  6
KM_SOLID
 62
   255
100
AcDbLine
 10
64.713322
 20
171.073377
 30
0.0
 11
64.713322
 21
185.073377
 31
0.0
  0
LINE
  5
F5
100
AcDbEntity
  8
0095COMPONENTS
390
0
  6
KM_SOLID
 62
   255
100
AcDbLine
 10
64.213322
 20
159.273377
 30
0.0
 11
74.213322
 21
157.573377
 31
0.0
  0
LINE
  5
F6
100
AcDbEntity
  8
0095COMPONENTS
390
0
  6
KM_SOLID
 62
   255
100
AcDbLine
 10
73.213322
 20
188.073377
 30
0.0
 11
73.213322
 21
206.573377
 31
0.0
  0
LINE
  5
F7
100
AcDbEntity
  8
0095COMPONENTS
390
0
  6
KM_SOLID
 62
   255
100
AcDbLine
 10
73.713322
 20
188.573377
 30
0.0
 11
73.713322
 21
203.573377
 31
0.0
  0
LINE
  5
F8
100
AcDbEntity
  8
0095COMPONENTS
390
0
  6
KM_SOLID
 62
   255
100
AcDbLine
 10
124.213322
 20
159.573377
 30
0.0
 11
125.713322
 21
159.873377
 31
0.0
  0
LINE
  5
F9
100
AcDbEntity
  8
0095COMPONENTS
390
0
  6
KM_SOLID
 62
   255
100
AcDbLine
 10
150.213322
 20
157.573377
 30
0.0
 11
148.108505
 21
157.573377
 31
0.0
  0
LINE
  5
FA
100
AcDbEntity
  8
0095COMPONENTS
390
0
  6
KM_SOLID
 62
   255
100
AcDbLine
 10
145.213322
 20
157.573377
 30
0.0
 11
125.614322
 21
157.573377
 31
0.0
  0
LINE
  5
FB
100
AcDbEntity
  8
0095COMPONENTS
390
0
  6
KM_SOLID
 62
   255
100
AcDbLine
 10
74.213322
 20
157.573377
 30
0.0
 11
79.213322
 21
157.573377
 31
0.0
  0
LINE
  5
FC
100
AcDbEntity
  8
0095COMPONENTS
390
0
  6
KM_SOLID
 62
   255
100
AcDbLine
 10
78.306106
 20
170.16616
 30
0.0
 11
81.420539
 21
167.980593
 31
0.0
  0
LINE
  5
FD
100
AcDbEntity
  8
0095COMPONENTS
390
0
  6
KM_SOLID
 62
   255
100
AcDbLine
 10
89.413322
 20
160.573377
 30
0.0
 11
87.213322
 21
162.373377
 31
0.0
  0
LINE
  5
FE
100
AcDbEntity
  8
0095COMPONENTS
390
0
  6
KM_SOLID
 62
   255
100
AcDbLine
 10
75.113322
 20
207.073377
 30
0.0
 11
75.113322
 21
207.173377
 31
0.0
  0
LINE
  5
FF
100
AcDbEntity
  8
0095COMPONENTS
390
0
  6
KM_SOLID
 62
   255
100
AcDbLine
 10
75.172897
 20
207.073377
 30
0.0
 11
75.172897
 21
207.173377
 31
0.0
  0
LINE
  5
100
100
AcDbEntity
  8
0095COMPONENTS
390
0
  6
KM_SOLID
 62
   255
100
AcDbLine
 10
75.292045
 20
207.073377
 30
0.0
 11
75.292045
 21
207.173377
 31
0.0
  0
LINE
  5
101
100
AcDbEntity
  8
0095COMPONENTS
390
0
  6
KM_SOLID
 62
   255
100
AcDbLine
 10
75.530343
 20
207.073377
 30
0.0
 11
75.530343
 21
207.173377
 31
0.0
  0
LINE
  5
102
100
AcDbEntity
  8
0095COMPONENTS
390
0
  6
KM_SOLID
 62
   255
100
AcDbLine
 10
75.768641
 20
207.073377
 30
0.0
 11
75.768641
 21
207.173377
 31
0.0
  0
LINE
  5
103
100
AcDbEntity
  8
0095COMPONENTS
390
0
  6
KM_SOLID
 62
   255
100
AcDbLine
 10
75.88779
 20
207.073377
 30
0.0
 11
75.88779
 21
207.173377
 31
0.0
  0
LINE
  5
104
100
AcDbEntity
  8
0095COMPONENTS
390
0
  6
KM_SOLID
 62
   255
100
AcDbLine
 10
76.126088
 20
207.073377
 30
0.0
 11
76.126088
 21
207.173377
 31
0.0
  0
LINE
  5
105
100
AcDbEntity
  8
0095COMPONENTS
390
0
  6
KM_SOLID
 62
   255
100
AcDbLine
 10
76.245237
 20
207.073377
 30
0.0
 11
76.245237
 21
207.173377
 31
0.0
  0
LINE
  5
106
100
AcDbEntity
  8
0095COMPONENTS
390
0
  6
KM_SOLID
 62
   255
100
AcDbLine
 10
76.364386
 20
207.073377
 30
0.0
 11
76.364386
 21
207.173377
 31
0.0
  0
LINE
  5
107
100
AcDbEntity
  8
0095COMPONENTS
390
0
  6
KM_SOLID
 62
   255
100
AcDbLine
 10
76.602684
 20
207.073377
 30
0.0
 11
76.602684
 21
207.173377
 31
0.0
  0
LINE
  5
108
100
AcDbEntity
  8
0095COMPONENTS
390
0
  6
KM_SOLID
 62
   255
100
AcDbLine
 10
76.662258
 20
207.073377
 30
0.0
 11
76.662258
 21
207.173377
 31
0.0
  0
LINE
  5
109
100
AcDbEntity
  8
0095COMPONENTS
390
0
  6
KM_SOLID
 62
   255
100
AcDbLine
 10
76.781407
 20
207.073377
 30
0.0
 11
76.781407
 21
207.173377
 31
0.0
  0
LINE
  5
10A
100
AcDbEntity
  8
0095COMPONENTS
390
0
  6
KM_SOLID
 62
   255
100
AcDbLine
 10
77.019705
 20
207.073377
 30
0.0
 11
77.019705
 21
207.173377
 31
0.0
  0
LINE
  5
10B
100
AcDbEntity
  8
0095COMPONENTS
390
0
  6
KM_SOLID
 62
   255
100
AcDbLine
 10
77.258003
 20
207.073377
 30
0.0
 11
77.258003
 21
207.173377
 31
0.0
  0
LINE
  5
10C
100
AcDbEntity
  8
0095COMPONENTS
390
0
  6
KM_SOLID
 62
   255
100
AcDbLine
 10
77.436726
 20
207.073377
 30
0.0
 11
77.436726
 21
207.173377
 31
0.0
  0
LINE
  5
10D
100
AcDbEntity
  8
0095COMPONENTS
390
0
  6
KM_SOLID
 62
   255
100
AcDbLine
 10
77.61545
 20
207.073377
 30
0.0
 11
77.61545
 21
207.173377
 31
0.0
  0
LINE
  5
10E
100
AcDbEntity
  8
0095COMPONENTS
390
0
  6
KM_SOLID
 62
   255
100
AcDbLine
 10
77.734599
 20
207.073377
 30
0.0
 11
77.734599
 21
207.173377
 31
0.0
  0
LINE
  5
10F
100
AcDbEntity
  8
0095COMPONENTS
390
0
  6
KM_SOLID
 62
   255
100
AcDbLine
 10
77.853748
 20
207.073377
 30
0.0
 11
77.853748
 21
207.173377
 31
0.0
  0
LINE
  5
110
100
AcDbEntity
  8
0095COMPONENTS
390
0
  6
KM_SOLID
 62
   255
100
AcDbLine
 10
77.913322
 20
207.073377
 30
0.0
 11
77.913322
 21
207.173377
 31
0.0
  0
LINE
  5
111
100
AcDbEntity
  8
0095COMPONENTS
390
0
  6
KM_SOLID
 62
   255
100
AcDbLine
 10
123.413322
 20
159.773377
 30
0.0
 11
125.213322
 21
159.773377
 31
0.0
  0
LINE
  5
112
100
AcDbEntity
  8
0095COMPONENTS
390
0
  6
KM_SOLID
 62
   255
100
AcDbLine
 10
145.213322
 20
159.773377
 30
0.0
 11
148.108505
 21
159.773377
 31
0.0
  0
LINE
  5
113
100
AcDbEntity
  8
0095COMPONENTS
390
0
  6
KM_SOLID
 62
   255
100
AcDbLine
 10
125.713322
 20
161.373377
 30
0.0
 11
123.213322
 21
161.373377
 31
0.0
  0
LINE
  5
114
100
AcDbEntity
  8
0095COMPONENTS
390
0
  6
KM_SOLID
 62
   255
100
AcDbLine
 10
87.213322
 20
163.073377
 30
0.0
 11
123.213322
 21
163.073377
 31
0.0
  0
LINE
  5
115
100
AcDbEntity
  8
0095COMPONENTS
390
0
  6
KM_SOLID
 62
   255
100
AcDbLine
 10
145.213322
 20
163.073377
 30
0.0
 11
150.213322
 21
163.073377
 31
0.0
  0
LINE
  5
116
100
AcDbEntity
  8
0095COMPONENTS
390
0
  6
KM_SOLID
 62
   255
100
AcDbLine
 10
64.213322
 20
185.573377
 30
0.0
 11
64.913322
 21
185.073377
 31
0.0
  0
LINE
  5
117
100
AcDbEntity
  8
0095COMPONENTS
390
0
  6
KM_SOLID
 62
   255
100
AcDbLine
 10
74.213322
 20
207.073377
 30
0.0
 11
73.213322
 21
206.573377
 31
0.0
  0
LINE
  5
118
100
AcDbEntity
  8
0095COMPONENTS
390
0
  6
KM_SOLID
 62
   255
100
AcDbLine
 10
79.213322
 20
157.573377
 30
0.0
 11
89.413322
 21
159.573377
 31
0.0
  0
LINE
  5
119
100
AcDbEntity
  8
0095COMPONENTS
390
0
  6
KM_SOLID
 62
   255
100
AcDbLine
 10
84.292667
 20
167.073377
 30
0.0
 11
123.133977
 21
167.073377
 31
0.0
  0
LINE
  5
11A
100
AcDbEntity
  8
0095COMPONENTS
390
0
  6
KM_SOLID
 62
   255
100
AcDbLine
 10
82.213322
 20
207.073377
 30
0.0
 11
82.213322
 21
220.784579
 31
0.0
  0
LINE
  5
11B
100
AcDbEntity
  8
0095COMPONENTS
390
0
  6
KM_SOLID
 62
   255
100
AcDbLine
 10
87.213322
 20
162.373377
 30
0.0
 11
87.213322
 21
163.073377
 31
0.0
  0
LINE
  5
11C
100
AcDbEntity
  8
0095COMPONENTS
390
0
  6
KM_SOLID
 62
   255
100
AcDbLine
 10
88.713322
 20
210.073377
 30
0.0
 11
88.713322
 21
187.073377
 31
0.0
  0
LINE
  5
11D
100
AcDbEntity
  8
0095COMPONENTS
390
0
  6
KM_SOLID
 62
   255
100
AcDbLine
 10
73.713322
 20
188.573377
 30
0.0
 11
73.213322
 21
188.073377
 31
0.0
  0
LINE
  5
11E
100
AcDbEntity
  8
0095COMPONENTS
390
0
  6
KM_SOLID
 62
     4
100
AcDbLine
 10
108.880239
 20
171.747666
 30
0.0
 11
108.164694
 21
171.555937
 31
0.0
  0
LINE
  5
11F
100
AcDbEntity
  8
0095COMPONENTS
390
0
  6
KM_SOLID
 62
     4
100
AcDbLine
 10
114.919092
 20
173.365772
 30
0.0
 11
118.196085
 21
174.243839
 31
0.0
  0
LINE
  5
120
100
AcDbEntity
  8
0095COMPONENTS
390
0
  6
KM_SOLID
 62
     4
100
AcDbLine
 10
118.940205
 20
174.443226
 30
0.0
 11
119.197785
 21
174.512244
 31
0.0
  0
LINE
  5
121
100
AcDbEntity
  8
0095COMPONENTS
390
0
  6
KM_SOLID
 62
     4
100
AcDbLine
 10
117.535494
 20
174.419595
 30
0.0
 11
118.852015
 21
174.772356
 31
0.0
  0
LINE
  5
122
100
AcDbEntity
  8
0095COMPONENTS
390
0
  6
KM_SOLID
 62
     4
100
AcDbLine
 10
114.336417
 20
173.823142
 30
0.0
 11
114.694167
 21
173.919001
 31
0.0
  0
LINE
  5
123
100
AcDbEntity
  8
0095COMPONENTS
390
0
  6
KM_SOLID
 62
     4
100
AcDbLine
 10
109.098677
 20
172.649755
 30
0.0
 11
114.278902
 21
174.037792
 31
0.0
  0
LINE
  5
124
100
AcDbEntity
  8
0095COMPONENTS
390
0
  6
KM_SOLID
 62
     4
100
AcDbLine
 10
117.412795
 20
174.877516
 30
0.0
 11
118.986896
 21
175.299295
 31
0.0
  0
LINE
  5
125
100
AcDbEntity
  8
0095COMPONENTS
390
0
  6
KM_SOLID
 62
     4
100
AcDbLine
 10
114.076455
 20
172.439619
 30
0.0
 11
114.313492
 21
172.501607
 31
0.0
  0
LINE
  5
126
100
AcDbEntity
  8
0095COMPONENTS
390
0
  6
KM_SOLID
 62
     4
100
AcDbLine
 10
121.477085
 20
177.038704
 30
0.0
 11
121.349425
 21
177.007454
 31
0.0
  0
LINE
  5
127
100
AcDbEntity
  8
0095COMPONENTS
390
0
  6
KM_SOLID
 62
     4
100
AcDbLine
 10
114.609789
 20
172.160866
 30
0.0
 11
114.832011
 21
172.20531
 31
0.0
  0
LINE
  5
128
100
AcDbEntity
  8
0095COMPONENTS
390
0
  6
KM_SOLID
 62
     4
100
AcDbLine
 10
118.713953
 20
175.22616
 30
0.0
 11
118.597235
 21
175.20558
 31
0.0
  0
LINE
  5
129
100
AcDbEntity
  8
0095COMPONENTS
390
0
  6
KM_SOLID
 62
     4
100
AcDbLine
 10
105.925226
 20
171.385267
 30
0.0
 11
108.16481
 21
171.555968
 31
0.0
  0
LINE
  5
12A
100
AcDbEntity
  8
0095COMPONENTS
390
0
  6
KM_SOLID
 62
   255
100
AcDbLine
 10
64.213322
 20
171.073377
 30
0.0
 11
75.433977
 21
171.073377
 31
0.0
  0
LINE
  5
12B
100
AcDbEntity
  8
0095COMPONENTS
390
0
  6
KM_SOLID
 62
   255
100
AcDbLine
 10
131.992667
 20
171.073377
 30
0.0
 11
145.213322
 21
171.073377
 31
0.0
  0
LINE
  5
12C
100
AcDbEntity
  8
0095COMPONENTS
390
0
  6
KM_SOLID
 62
     4
100
AcDbLine
 10
109.903616
 20
171.538644
 30
0.0
 11
113.508554
 21
171.538644
 31
0.0
  0
LINE
  5
12D
100
AcDbEntity
  8
0095COMPONENTS
390
0
  6
KM_SOLID
 62
     4
100
AcDbLine
 10
110.051764
 20
171.686792
 30
0.0
 11
113.360406
 21
171.686792
 31
0.0
  0
LINE
  5
12E
100
AcDbEntity
  8
0095COMPONENTS
390
0
  6
KM_SOLID
 62
     4
100
AcDbLine
 10
107.913372
 20
171.83494
 30
0.0
 11
108.654113
 21
171.83494
 31
0.0
  0
LINE
  5
12F
100
AcDbEntity
  8
0095COMPONENTS
390
0
  6
KM_SOLID
 62
     4
100
AcDbLine
 10
114.60706
 20
171.83494
 30
0.0
 11
117.706085
 21
171.83494
 31
0.0
  0
LINE
  5
130
100
AcDbEntity
  8
0095COMPONENTS
390
0
  6
KM_SOLID
 62
     4
100
AcDbLine
 10
117.883863
 20
171.83494
 30
0.0
 11
118.150529
 21
171.83494
 31
0.0
  0
LINE
  5
131
100
AcDbEntity
  8
0095COMPONENTS
390
0
  6
KM_SOLID
 62
     4
100
AcDbLine
 10
117.706085
 20
172.175681
 30
0.0
 11
117.883863
 21
172.175681
 31
0.0
  0
LINE
  5
132
100
AcDbEntity
  8
0095COMPONENTS
390
0
  6
KM_SOLID
 62
     4
100
AcDbLine
 10
119.375452
 20
172.284817
 30
0.0
 11
122.245524
 21
172.284817
 31
0.0
  0
LINE
  5
133
100
AcDbEntity
  8
0095COMPONENTS
390
0
  6
KM_SOLID
 62
     4
100
AcDbLine
 10
114.46164
 20
172.427533
 30
0.0
 11
114.832011
 21
172.427533
 31
0.0
  0
LINE
  5
134
100
AcDbEntity
  8
0095COMPONENTS
390
0
  6
KM_SOLID
 62
     4
100
AcDbLine
 10
109.098677
 20
172.501607
 30
0.0
 11
109.508554
 21
172.501607
 31
0.0
  0
LINE
  5
135
100
AcDbEntity
  8
0095COMPONENTS
390
0
  6
KM_SOLID
 62
     4
100
AcDbLine
 10
113.903616
 20
172.501607
 30
0.0
 11
114.313492
 21
172.501607
 31
0.0
  0
LINE
  5
136
100
AcDbEntity
  8
0095COMPONENTS
390
0
  6
KM_SOLID
 62
     4
100
AcDbLine
 10
109.098677
 20
172.649755
 30
0.0
 11
114.46164
 21
172.649755
 31
0.0
  0
LINE
  5
137
100
AcDbEntity
  8
0095COMPONENTS
390
0
  6
KM_SOLID
 62
     4
100
AcDbLine
 10
117.706085
 20
172.649755
 30
0.0
 11
118.150529
 21
172.649755
 31
0.0
  0
LINE
  5
138
100
AcDbEntity
  8
0095COMPONENTS
390
0
  6
KM_SOLID
 62
     4
100
AcDbLine
 10
120.711127
 20
173.476204
 30
0.0
 11
120.455808
 21
173.476204
 31
0.0
  0
LINE
  5
139
100
AcDbEntity
  8
0095COMPONENTS
390
0
  6
KM_SOLID
 62
     4
100
AcDbLine
 10
121.732404
 20
173.663704
 30
0.0
 11
120.487723
 21
173.663704
 31
0.0
  0
LINE
  5
13A
100
AcDbEntity
  8
0095COMPONENTS
390
0
  6
KM_SOLID
 62
     4
100
AcDbLine
 10
120.232404
 20
173.851204
 30
0.0
 11
121.732404
 21
173.851204
 31
0.0
  0
LINE
  5
13B
100
AcDbEntity
  8
0095COMPONENTS
390
0
  6
KM_SOLID
 62
     4
100
AcDbLine
 10
105.706085
 20
172.24713
 30
0.0
 11
107.913492
 21
171.83494
 31
0.0
  0
LINE
  5
13C
100
AcDbEntity
  8
0095COMPONENTS
390
0
  6
KM_SOLID
 62
     4
100
AcDbLine
 10
109.548452
 20
172.402174
 30
0.0
 11
109.137021
 21
172.506655
 31
0.0
  0
LINE
  5
13D
100
AcDbEntity
  8
0095COMPONENTS
390
0
  6
KM_SOLID
 62
   255
100
AcDbLine
 10
89.413322
 20
159.573377
 30
0.0
 11
89.413322
 21
160.573377
 31
0.0
  0
LINE
  5
13E
100
AcDbEntity
  8
0095COMPONENTS
390
0
  6
KM_SOLID
 62
   255
100
AcDbLine
 10
65.213322
 20
188.073377
 30
0.0
 11
64.213322
 21
187.573377
 31
0.0
  0
LINE
  5
13F
100
AcDbEntity
  8
0095COMPONENTS
390
0
  6
KM_SOLID
 62
     4
100
AcDbLine
 10
121.540914
 20
177.944954
 30
0.0
 11
121.668574
 21
177.976204
 31
0.0
  0
LINE
  5
140
100
AcDbEntity
  8
0095COMPONENTS
390
0
  6
KM_SOLID
 62
     4
100
AcDbLine
 10
121.477085
 20
180.601204
 30
0.0
 11
121.349425
 21
180.569953
 31
0.0
  0
LINE
  5
141
100
AcDbEntity
  8
0095COMPONENTS
390
0
  6
KM_SOLID
 62
     4
100
AcDbLine
 10
121.732404
 20
175.601204
 30
0.0
 11
120.232404
 21
175.601204
 31
0.0
  0
LINE
  5
142
100
AcDbEntity
  8
0095COMPONENTS
390
0
  6
KM_SOLID
 62
     4
100
AcDbLine
 10
120.391978
 20
175.788704
 30
0.0
 11
120.870702
 21
175.788704
 31
0.0
  0
LINE
  5
143
100
AcDbEntity
  8
0095COMPONENTS
390
0
  6
KM_SOLID
 62
     4
100
AcDbLine
 10
121.062191
 20
175.788704
 30
0.0
 11
121.732404
 21
175.788704
 31
0.0
  0
LINE
  5
144
100
AcDbEntity
  8
0095COMPONENTS
390
0
  6
KM_SOLID
 62
     4
100
AcDbLine
 10
120.679212
 20
176.569954
 30
0.0
 11
120.583467
 21
176.569954
 31
0.0
  0
LINE
  5
145
100
AcDbEntity
  8
0095COMPONENTS
390
0
  6
KM_SOLID
 62
     4
100
AcDbLine
 10
120.583467
 20
176.757454
 30
0.0
 11
120.711127
 21
176.757454
 31
0.0
  0
LINE
  5
146
100
AcDbEntity
  8
0095COMPONENTS
390
0
  6
KM_SOLID
 62
     4
100
AcDbLine
 10
121.349425
 20
177.007454
 30
0.0
 11
120.711127
 21
177.007454
 31
0.0
  0
LINE
  5
147
100
AcDbEntity
  8
0095COMPONENTS
390
0
  6
KM_SOLID
 62
     4
100
AcDbLine
 10
120.711127
 20
177.163703
 30
0.0
 11
121.349425
 21
177.163703
 31
0.0
  0
LINE
  5
148
100
AcDbEntity
  8
0095COMPONENTS
390
0
  6
KM_SOLID
 62
     4
100
AcDbLine
 10
121.413255
 20
177.788704
 30
0.0
 11
120.711127
 21
177.788704
 31
0.0
  0
LINE
  5
149
100
AcDbEntity
  8
0095COMPONENTS
390
0
  6
KM_SOLID
 62
     4
100
AcDbLine
 10
120.711127
 20
177.944954
 30
0.0
 11
121.540914
 21
177.944954
 31
0.0
  0
LINE
  5
14A
100
AcDbEntity
  8
0095COMPONENTS
390
0
  6
KM_SOLID
 62
     4
100
AcDbLine
 10
109.469048
 20
172.294199
 30
0.0
 11
109.098677
 21
172.501607
 31
0.0
  0
LINE
  5
14B
100
AcDbEntity
  8
0095COMPONENTS
390
0
  6
KM_SOLID
 62
   255
100
AcDbLine
 10
73.713322
 20
203.573377
 30
0.0
 11
73.213322
 21
204.073377
 31
0.0
  0
LINE
  5
14C
100
AcDbEntity
  8
0095COMPONENTS
390
0
  6
KM_SOLID
 62
   255
100
AcDbLine
 10
95.688989
 20
203.073377
 30
0.0
 11
95.688989
 21
198.073377
 31
0.0
  0
LINE
  5
14D
100
AcDbEntity
  8
0095COMPONENTS
390
0
  6
KM_SOLID
 62
     4
100
AcDbLine
 10
121.285595
 20
181.819954
 30
0.0
 11
121.508999
 21
181.882453
 31
0.0
  0
LINE
  5
14E
100
AcDbEntity
  8
0095COMPONENTS
390
0
  6
KM_SOLID
 62
     4
100
AcDbLine
 10
115.344077
 20
181.071672
 30
0.0
 11
113.149876
 21
180.483737
 31
0.0
  0
LINE
  5
14F
100
AcDbEntity
  8
0095COMPONENTS
390
0
  6
KM_SOLID
 62
     4
100
AcDbLine
 10
106.71037
 20
178.758277
 30
0.0
 11
104.516168
 21
178.170342
 31
0.0
  0
LINE
  5
150
100
AcDbEntity
  8
0095COMPONENTS
390
0
  6
KM_SOLID
 62
     4
100
AcDbLine
 10
106.478473
 20
181.150128
 30
0.0
 11
112.154778
 21
182.67109
 31
0.0
  0
LINE
  5
151
100
AcDbEntity
  8
0095COMPONENTS
390
0
  6
KM_SOLID
 62
     4
100
AcDbLine
 10
120.711127
 20
183.226204
 30
0.0
 11
121.413255
 21
183.413704
 31
0.0
  0
LINE
  5
152
100
AcDbEntity
  8
0095COMPONENTS
390
0
  6
KM_SOLID
 62
     4
100
AcDbLine
 10
121.285595
 20
181.976203
 30
0.0
 11
121.413255
 21
182.007454
 31
0.0
  0
LINE
  5
153
100
AcDbEntity
  8
0095COMPONENTS
390
0
  6
KM_SOLID
 62
     4
100
AcDbLine
 10
121.157936
 20
182.663704
 30
0.0
 11
121.030276
 21
182.632453
 31
0.0
  0
LINE
  5
154
100
AcDbEntity
  8
0095COMPONENTS
390
0
  6
KM_SOLID
 62
     4
100
AcDbLine
 10
121.157936
 20
182.819953
 30
0.0
 11
121.030276
 21
182.788704
 31
0.0
  0
LINE
  5
155
100
AcDbEntity
  8
0095COMPONENTS
390
0
  6
KM_SOLID
 62
     4
100
AcDbLine
 10
121.732404
 20
183.319954
 30
0.0
 11
120.711127
 21
183.069954
 31
0.0
  0
LINE
  5
156
100
AcDbEntity
  8
0095COMPONENTS
390
0
  6
KM_SOLID
 62
     4
100
AcDbLine
 10
121.732404
 20
183.819954
 30
0.0
 11
121.030276
 21
183.663703
 31
0.0
  0
LINE
  5
157
100
AcDbEntity
  8
0095COMPONENTS
390
0
  6
KM_SOLID
 62
     4
100
AcDbLine
 10
120.711127
 20
183.726204
 30
0.0
 11
121.413255
 21
183.882454
 31
0.0
  0
LINE
  5
158
100
AcDbEntity
  8
0095COMPONENTS
390
0
  6
KM_SOLID
 62
     4
100
AcDbLine
 10
118.206348
 20
181.176273
 30
0.0
 11
117.039169
 21
180.970468
 31
0.0
  0
LINE
  5
159
100
AcDbEntity
  8
0095COMPONENTS
390
0
  6
KM_SOLID
 62
     4
100
AcDbLine
 10
118.048452
 20
182.071746
 30
0.0
 11
116.881273
 21
181.865941
 31
0.0
  0
LINE
  5
15A
100
AcDbEntity
  8
0095COMPONENTS
390
0
  6
KM_SOLID
 62
     4
100
AcDbLine
 10
121.732404
 20
178.257454
 30
0.0
 11
120.232404
 21
178.257454
 31
0.0
  0
LINE
  5
15B
100
AcDbEntity
  8
0095COMPONENTS
390
0
  6
KM_SOLID
 62
     4
100
AcDbLine
 10
120.232404
 20
178.413704
 30
0.0
 11
121.732404
 21
178.413704
 31
0.0
  0
LINE
  5
15C
100
AcDbEntity
  8
0095COMPONENTS
390
0
  6
KM_SOLID
 62
     4
100
AcDbLine
 10
121.732404
 20
178.663703
 30
0.0
 11
120.232404
 21
178.663703
 31
0.0
  0
LINE
  5
15D
100
AcDbEntity
  8
0095COMPONENTS
390
0
  6
KM_SOLID
 62
     4
100
AcDbLine
 10
120.232404
 20
178.819954
 30
0.0
 11
121.732404
 21
178.819954
 31
0.0
  0
LINE
  5
15E
100
AcDbEntity
  8
0095COMPONENTS
390
0
  6
KM_SOLID
 62
     4
100
AcDbLine
 10
117.206085
 20
179.168273
 30
0.0
 11
115.039418
 21
179.168273
 31
0.0
  0
LINE
  5
15F
100
AcDbEntity
  8
0095COMPONENTS
390
0
  6
KM_SOLID
 62
     4
100
AcDbLine
 10
108.372751
 20
179.168273
 30
0.0
 11
106.101147
 21
179.168273
 31
0.0
  0
LINE
  5
160
100
AcDbEntity
  8
0095COMPONENTS
390
0
  6
KM_SOLID
 62
     4
100
AcDbLine
 10
121.349425
 20
180.569953
 30
0.0
 11
121.094106
 21
180.569953
 31
0.0
  0
LINE
  5
161
100
AcDbEntity
  8
0095COMPONENTS
390
0
  6
KM_SOLID
 62
     4
100
AcDbLine
 10
121.31751
 20
180.726204
 30
0.0
 11
121.126021
 21
180.726204
 31
0.0
  0
LINE
  5
162
100
AcDbEntity
  8
0095COMPONENTS
390
0
  6
KM_SOLID
 62
     4
100
AcDbLine
 10
121.732404
 20
181.413703
 30
0.0
 11
121.540914
 21
181.413703
 31
0.0
  0
LINE
  5
163
100
AcDbEntity
  8
0095COMPONENTS
390
0
  6
KM_SOLID
 62
     4
100
AcDbLine
 10
120.902616
 20
181.413703
 30
0.0
 11
120.232404
 21
181.413703
 31
0.0
  0
LINE
  5
164
100
AcDbEntity
  8
0095COMPONENTS
390
0
  6
KM_SOLID
 62
     4
100
AcDbLine
 10
121.062191
 20
181.413703
 30
0.0
 11
121.38134
 21
181.413703
 31
0.0
  0
LINE
  5
165
100
AcDbEntity
  8
0095COMPONENTS
390
0
  6
KM_SOLID
 62
     4
100
AcDbLine
 10
108.767813
 20
181.538644
 30
0.0
 11
114.644356
 21
181.538644
 31
0.0
  0
LINE
  5
166
100
AcDbEntity
  8
0095COMPONENTS
390
0
  6
KM_SOLID
 62
     4
100
AcDbLine
 10
120.232404
 20
181.569954
 30
0.0
 11
121.732404
 21
181.569954
 31
0.0
  0
LINE
  5
167
100
AcDbEntity
  8
0095COMPONENTS
390
0
  6
KM_SOLID
 62
     4
100
AcDbLine
 10
121.157936
 20
181.819954
 30
0.0
 11
121.285595
 21
181.819954
 31
0.0
  0
LINE
  5
168
100
AcDbEntity
  8
0095COMPONENTS
390
0
  6
KM_SOLID
 62
     4
100
AcDbLine
 10
120.774957
 20
176.538704
 30
0.0
 11
120.679212
 21
176.569954
 31
0.0
  0
LINE
  5
169
100
AcDbEntity
  8
0095COMPONENTS
390
0
  6
KM_SOLID
 62
     4
100
AcDbLine
 10
120.711127
 20
176.757454
 30
0.0
 11
120.806872
 21
176.726204
 31
0.0
  0
LINE
  5
16A
100
AcDbEntity
  8
0095COMPONENTS
390
0
  6
KM_SOLID
 62
     4
100
AcDbLine
 10
114.919092
 20
173.365772
 30
0.0
 11
114.556204
 21
173.575285
 31
0.0
  0
LINE
  5
16B
100
AcDbEntity
  8
0095COMPONENTS
390
0
  6
KM_SOLID
 62
   255
100
AcDbLine
 10
121.913322
 20
161.274377
 30
0.0
 11
123.413322
 21
159.774377
 31
0.0
  0
LINE
  5
16C
100
AcDbEntity
  8
0095COMPONENTS
390
0
  6
KM_SOLID
 62
   255
100
AcDbLine
 10
125.614322
 20
157.573377
 30
0.0
 11
123.414322
 21
159.773377
 31
0.0
  0
LINE
  5
16D
100
AcDbEntity
  8
0095COMPONENTS
390
0
  6
KM_SOLID
 62
   255
100
AcDbLine
 10
126.213322
 20
157.573377
 30
0.0
 11
124.213322
 21
159.573377
 31
0.0
  0
LINE
  5
16E
100
AcDbEntity
  8
0095COMPONENTS
390
0
  6
KM_SOLID
 62
   255
100
AcDbLine
 10
124.413322
 20
159.773377
 30
0.0
 11
123.413322
 21
160.773377
 31
0.0
  0
LINE
  5
16F
100
AcDbEntity
  8
0095COMPONENTS
390
0
  6
KM_SOLID
 62
   255
100
AcDbLine
 10
96.821352
 20
198.073377
 30
0.0
 11
96.821352
 21
199.923377
 31
0.0
  0
LINE
  5
170
100
AcDbEntity
  8
0095COMPONENTS
390
0
  6
KM_SOLID
 62
   255
100
AcDbLine
 10
96.821352
 20
201.210877
 30
0.0
 11
96.821352
 21
203.073377
 31
0.0
  0
LINE
  5
171
100
AcDbEntity
  8
0095COMPONENTS
390
0
  6
KM_SOLID
 62
   255
100
AcDbLine
 10
99.332244
 20
203.073377
 30
0.0
 11
99.332244
 21
202.138297
 31
0.0
  0
LINE
  5
172
100
AcDbEntity
  8
0095COMPONENTS
390
0
  6
KM_SOLID
 62
   255
100
AcDbLine
 10
99.332244
 20
199.923377
 30
0.0
 11
99.332244
 21
198.073377
 31
0.0
  0
LINE
  5
173
100
AcDbEntity
  8
0095COMPONENTS
390
0
  6
KM_SOLID
 62
   255
100
AcDbLine
 10
64.213322
 20
170.573377
 30
0.0
 11
64.913322
 21
171.073377
 31
0.0
  0
LINE
  5
174
100
AcDbEntity
  8
0095COMPONENTS
390
0
  6
KM_SOLID
 62
     4
100
AcDbLine
 10
121.126021
 20
185.194954
 30
0.0
 11
120.966446
 21
185.163703
 31
0.0
  0
LINE
  5
175
100
AcDbEntity
  8
0095COMPONENTS
390
0
  6
KM_SOLID
 62
     4
100
AcDbLine
 10
120.966446
 20
185.319954
 30
0.0
 11
121.126021
 21
185.351203
 31
0.0
  0
LINE
  5
176
100
AcDbEntity
  8
0095COMPONENTS
390
0
  6
KM_SOLID
 62
     4
100
AcDbLine
 10
121.157936
 20
181.976203
 30
0.0
 11
121.285595
 21
181.976203
 31
0.0
  0
LINE
  5
177
100
AcDbEntity
  8
0095COMPONENTS
390
0
  6
KM_SOLID
 62
     4
100
AcDbLine
 10
121.285595
 20
182.663704
 30
0.0
 11
121.157936
 21
182.663704
 31
0.0
  0
LINE
  5
178
100
AcDbEntity
  8
0095COMPONENTS
390
0
  6
KM_SOLID
 62
     4
100
AcDbLine
 10
121.285595
 20
182.819953
 30
0.0
 11
121.157936
 21
182.819953
 31
0.0
  0
LINE
  5
179
100
AcDbEntity
  8
0095COMPONENTS
390
0
  6
KM_SOLID
 62
     4
100
AcDbLine
 10
105.011978
 20
184.446204
 30
0.0
 11
104.852404
 21
184.446204
 31
0.0
  0
LINE
  5
17A
100
AcDbEntity
  8
0095COMPONENTS
390
0
  6
KM_SOLID
 62
     4
100
AcDbLine
 10
121.732404
 20
184.476204
 30
0.0
 11
120.711127
 21
184.476204
 31
0.0
  0
LINE
  5
17B
100
AcDbEntity
  8
0095COMPONENTS
390
0
  6
KM_SOLID
 62
     4
100
AcDbLine
 10
120.711127
 20
184.632454
 30
0.0
 11
120.870702
 21
184.632454
 31
0.0
  0
LINE
  5
17C
100
AcDbEntity
  8
0095COMPONENTS
390
0
  6
KM_SOLID
 62
     4
100
AcDbLine
 10
120.998361
 20
184.632454
 30
0.0
 11
121.732404
 21
184.632454
 31
0.0
  0
LINE
  5
17D
100
AcDbEntity
  8
0095COMPONENTS
390
0
  6
KM_SOLID
 62
     4
100
AcDbLine
 10
106.352404
 20
184.846204
 30
0.0
 11
105.011978
 21
184.846204
 31
0.0
  0
LINE
  5
17E
100
AcDbEntity
  8
0095COMPONENTS
390
0
  6
KM_SOLID
 62
     4
100
AcDbLine
 10
105.011978
 20
184.996204
 30
0.0
 11
106.352404
 21
184.996204
 31
0.0
  0
LINE
  5
17F
100
AcDbEntity
  8
0095COMPONENTS
390
0
  6
KM_SOLID
 62
   255
100
AcDbLine
 10
64.213322
 20
185.073377
 30
0.0
 11
86.713322
 21
185.073377
 31
0.0
  0
LINE
  5
180
100
AcDbEntity
  8
0095COMPONENTS
390
0
  6
KM_SOLID
 62
   255
100
AcDbLine
 10
130.751481
 20
185.073377
 30
0.0
 11
145.213322
 21
185.073377
 31
0.0
  0
LINE
  5
181
100
AcDbEntity
  8
0095COMPONENTS
390
0
  6
KM_SOLID
 62
     4
100
AcDbLine
 10
121.732404
 20
185.194954
 30
0.0
 11
121.126021
 21
185.194954
 31
0.0
  0
LINE
  5
182
100
AcDbEntity
  8
0095COMPONENTS
390
0
  6
KM_SOLID
 62
     4
100
AcDbLine
 10
121.126021
 20
185.351203
 30
0.0
 11
121.732404
 21
185.351203
 31
0.0
  0
LINE
  5
183
100
AcDbEntity
  8
0095COMPONENTS
390
0
  6
KM_SOLID
 62
     4
100
AcDbLine
 10
104.852404
 20
185.396204
 30
0.0
 11
105.011978
 21
185.396204
 31
0.0
  0
LINE
  5
184
100
AcDbEntity
  8
0095COMPONENTS
390
0
  6
KM_SOLID
 62
     4
100
AcDbLine
 10
121.094106
 20
180.569953
 30
0.0
 11
120.966446
 21
180.601204
 31
0.0
  0
LINE
  5
185
100
AcDbEntity
  8
0095COMPONENTS
390
0
  6
KM_SOLID
 62
     4
100
AcDbLine
 10
121.030276
 20
181.851204
 30
0.0
 11
121.157936
 21
181.819954
 31
0.0
  0
LINE
  5
186
100
AcDbEntity
  8
0095COMPONENTS
390
0
  6
KM_SOLID
 62
     4
100
AcDbLine
 10
114.60706
 20
171.83494
 30
0.0
 11
114.076455
 21
172.365545
 31
0.0
  0
LINE
  5
187
100
AcDbEntity
  8
0095COMPONENTS
390
0
  6
KM_SOLID
 62
     4
100
AcDbLine
 10
114.906085
 20
171.83494
 30
0.0
 11
114.313492
 21
172.427533
 31
0.0
  0
LINE
  5
188
100
AcDbEntity
  8
0095COMPONENTS
390
0
  6
KM_SOLID
 62
   255
100
AcDbLine
 10
100.464608
 20
198.073377
 30
0.0
 11
100.464608
 21
201.210877
 31
0.0
  0
LINE
  5
189
100
AcDbEntity
  8
0095COMPONENTS
390
0
  6
KM_SOLID
 62
   255
100
AcDbLine
 10
100.464608
 20
202.138297
 30
0.0
 11
100.464608
 21
203.073377
 31
0.0
  0
LINE
  5
18A
100
AcDbEntity
  8
0095COMPONENTS
390
0
  6
KM_SOLID
 62
   255
100
AcDbLine
 10
101.24003
 20
203.073377
 30
0.0
 11
101.24003
 21
198.073377
 31
0.0
  0
LINE
  5
18B
100
AcDbEntity
  8
0095COMPONENTS
390
0
  6
KM_SOLID
 62
   255
100
AcDbLine
 10
102.372393
 20
198.073377
 30
0.0
 11
102.372393
 21
201.70671
 31
0.0
  0
LINE
  5
18C
100
AcDbEntity
  8
0095COMPONENTS
390
0
  6
KM_SOLID
 62
   255
100
AcDbLine
 10
115.117485
 20
201.58482
 30
0.0
 11
115.234151
 21
201.644395
 31
0.0
  0
LINE
  5
18D
100
AcDbEntity
  8
0095COMPONENTS
390
0
  6
KM_SOLID
 62
   255
100
AcDbLine
 10
115.088318
 20
201.733757
 30
0.0
 11
115.000818
 21
201.703969
 31
0.0
  0
LINE
  5
18E
100
AcDbEntity
  8
0095COMPONENTS
390
0
  6
KM_SOLID
 62
     4
100
AcDbLine
 10
106.033255
 20
186.571204
 30
0.0
 11
106.128999
 21
186.596204
 31
0.0
  0
LINE
  5
18F
100
AcDbEntity
  8
0095COMPONENTS
390
0
  6
KM_SOLID
 62
     4
100
AcDbLine
 10
105.905595
 20
188.246204
 30
0.0
 11
106.128999
 21
188.296203
 31
0.0
  0
LINE
  5
190
100
AcDbEntity
  8
0095COMPONENTS
390
0
  6
KM_SOLID
 62
     4
100
AcDbLine
 10
107.565894
 20
188.141204
 30
0.0
 11
107.693554
 21
188.166204
 31
0.0
  0
LINE
  5
191
100
AcDbEntity
  8
0095COMPONENTS
390
0
  6
KM_SOLID
 62
     4
100
AcDbLine
 10
105.905595
 20
188.371203
 30
0.0
 11
106.033255
 21
188.396204
 31
0.0
  0
LINE
  5
192
100
AcDbEntity
  8
0095COMPONENTS
390
0
  6
KM_SOLID
 62
     4
100
AcDbLine
 10
116.58835
 20
188.07733
 30
0.0
 11
116.19929
 21
188.008728
 31
0.0
  0
LINE
  5
193
100
AcDbEntity
  8
0095COMPONENTS
390
0
  6
KM_SOLID
 62
     4
100
AcDbLine
 10
106.352404
 20
185.596204
 30
0.0
 11
105.331127
 21
185.596204
 31
0.0
  0
LINE
  5
194
100
AcDbEntity
  8
0095COMPONENTS
390
0
  6
KM_SOLID
 62
     4
100
AcDbLine
 10
105.011978
 20
185.596204
 30
0.0
 11
104.852404
 21
185.596204
 31
0.0
  0
LINE
  5
195
100
AcDbEntity
  8
0095COMPONENTS
390
0
  6
KM_SOLID
 62
     4
100
AcDbLine
 10
104.852404
 20
185.721204
 30
0.0
 11
105.011978
 21
185.721204
 31
0.0
  0
LINE
  5
196
100
AcDbEntity
  8
0095COMPONENTS
390
0
  6
KM_SOLID
 62
     4
100
AcDbLine
 10
105.331127
 20
185.721204
 30
0.0
 11
106.352404
 21
185.721204
 31
0.0
  0
LINE
  5
197
100
AcDbEntity
  8
0095COMPONENTS
390
0
  6
KM_SOLID
 62
     4
100
AcDbLine
 10
106.352404
 20
185.921204
 30
0.0
 11
104.852404
 21
185.921204
 31
0.0
  0
LINE
  5
198
100
AcDbEntity
  8
0095COMPONENTS
390
0
  6
KM_SOLID
 62
     4
100
AcDbLine
 10
104.852404
 20
186.046204
 30
0.0
 11
106.352404
 21
186.046204
 31
0.0
  0
LINE
  5
199
100
AcDbEntity
  8
0095COMPONENTS
390
0
  6
KM_SOLID
 62
     4
100
AcDbLine
 10
105.458787
 20
186.246204
 30
0.0
 11
105.331127
 21
186.246204
 31
0.0
  0
LINE
  5
19A
100
AcDbEntity
  8
0095COMPONENTS
390
0
  6
KM_SOLID
 62
     4
100
AcDbLine
 10
106.097085
 20
186.446204
 30
0.0
 11
105.458787
 21
186.446204
 31
0.0
  0
LINE
  5
19B
100
AcDbEntity
  8
0095COMPONENTS
390
0
  6
KM_SOLID
 62
     4
100
AcDbLine
 10
105.331127
 20
186.446204
 30
0.0
 11
105.075808
 21
186.446204
 31
0.0
  0
LINE
  5
19C
100
AcDbEntity
  8
0095COMPONENTS
390
0
  6
KM_SOLID
 62
     4
100
AcDbLine
 10
105.075808
 20
186.571204
 30
0.0
 11
105.331127
 21
186.571204
 31
0.0
  0
LINE
  5
19D
100
AcDbEntity
  8
0095COMPONENTS
390
0
  6
KM_SOLID
 62
     4
100
AcDbLine
 10
105.458787
 20
186.571204
 30
0.0
 11
106.033255
 21
186.571204
 31
0.0
  0
LINE
  5
19E
100
AcDbEntity
  8
0095COMPONENTS
390
0
  6
KM_SOLID
 62
     4
100
AcDbLine
 10
106.224744
 20
186.796204
 30
0.0
 11
106.352404
 21
186.796204
 31
0.0
  0
LINE
  5
19F
100
AcDbEntity
  8
0095COMPONENTS
390
0
  6
KM_SOLID
 62
     4
100
AcDbLine
 10
105.331127
 20
186.846204
 30
0.0
 11
105.458787
 21
186.846204
 31
0.0
  0
LINE
  5
1A0
100
AcDbEntity
  8
0095COMPONENTS
390
0
  6
KM_SOLID
 62
     4
100
AcDbLine
 10
108.84249
 20
187.266204
 30
0.0
 11
108.682915
 21
187.266204
 31
0.0
  0
LINE
  5
1A1
100
AcDbEntity
  8
0095COMPONENTS
390
0
  6
KM_SOLID
 62
     4
100
AcDbLine
 10
107.757384
 20
188.016204
 30
0.0
 11
107.693554
 21
188.016204
 31
0.0
  0
LINE
  5
1A2
100
AcDbEntity
  8
0095COMPONENTS
390
0
  6
KM_SOLID
 62
   255
100
AcDbLine
 10
144.213322
 20
188.073377
 30
0.0
 11
136.213322
 21
188.073377
 31
0.0
  0
LINE
  5
1A3
100
AcDbEntity
  8
0095COMPONENTS
390
0
  6
KM_SOLID
 62
   255
100
AcDbLine
 10
73.213322
 20
188.073377
 30
0.0
 11
65.213322
 21
188.073377
 31
0.0
  0
LINE
  5
1A4
100
AcDbEntity
  8
0095COMPONENTS
390
0
  6
KM_SOLID
 62
     4
100
AcDbLine
 10
107.693554
 20
188.166204
 30
0.0
 11
107.757384
 21
188.166204
 31
0.0
  0
LINE
  5
1A5
100
AcDbEntity
  8
0095COMPONENTS
390
0
  6
KM_SOLID
 62
     4
100
AcDbLine
 10
108.682915
 20
188.166204
 30
0.0
 11
108.84249
 21
188.166204
 31
0.0
  0
LINE
  5
1A6
100
AcDbEntity
  8
0095COMPONENTS
390
0
  6
KM_SOLID
 62
     4
100
AcDbLine
 10
105.777936
 20
188.246204
 30
0.0
 11
105.905595
 21
188.246204
 31
0.0
  0
LINE
  5
1A7
100
AcDbEntity
  8
0095COMPONENTS
390
0
  6
KM_SOLID
 62
     4
100
AcDbLine
 10
105.777936
 20
188.371203
 30
0.0
 11
105.905595
 21
188.371203
 31
0.0
  0
LINE
  5
1A8
100
AcDbEntity
  8
0095COMPONENTS
390
0
  6
KM_SOLID
 62
   255
100
AcDbLine
 10
136.213322
 20
188.573377
 30
0.0
 11
135.713322
 21
188.573377
 31
0.0
  0
LINE
  5
1A9
100
AcDbEntity
  8
0095COMPONENTS
390
0
  6
KM_SOLID
 62
   255
100
AcDbLine
 10
73.213322
 20
188.573377
 30
0.0
 11
73.713322
 21
188.573377
 31
0.0
  0
LINE
  5
1AA
100
AcDbEntity
  8
0095COMPONENTS
390
0
  6
KM_SOLID
 62
     4
100
AcDbLine
 10
105.905595
 20
188.921204
 30
0.0
 11
105.777936
 21
188.921204
 31
0.0
  0
LINE
  5
1AB
100
AcDbEntity
  8
0095COMPONENTS
390
0
  6
KM_SOLID
 62
     4
100
AcDbLine
 10
105.905595
 20
189.046203
 30
0.0
 11
105.777936
 21
189.046203
 31
0.0
  0
LINE
  5
1AC
100
AcDbEntity
  8
0095COMPONENTS
390
0
  6
KM_SOLID
 62
     4
100
AcDbLine
 10
107.693554
 20
187.291204
 30
0.0
 11
107.565894
 21
187.316204
 31
0.0
  0
LINE
  5
1AD
100
AcDbEntity
  8
0095COMPONENTS
390
0
  6
KM_SOLID
 62
     4
100
AcDbLine
 10
105.650276
 20
188.271204
 30
0.0
 11
105.777936
 21
188.246204
 31
0.0
  0
LINE
  5
1AE
100
AcDbEntity
  8
0095COMPONENTS
390
0
  6
KM_SOLID
 62
     4
100
AcDbLine
 10
105.650276
 20
188.396204
 30
0.0
 11
105.777936
 21
188.371203
 31
0.0
  0
LINE
  5
1AF
100
AcDbEntity
  8
0095COMPONENTS
390
0
  6
KM_SOLID
 62
     4
100
AcDbLine
 10
107.757384
 20
188.166204
 30
0.0
 11
107.885043
 21
188.141204
 31
0.0
  0
LINE
  5
1B0
100
AcDbEntity
  8
0095COMPONENTS
390
0
  6
KM_SOLID
 62
     4
100
AcDbLine
 10
106.033255
 20
188.896203
 30
0.0
 11
105.905595
 21
188.921204
 31
0.0
  0
LINE
  5
1B1
100
AcDbEntity
  8
0095COMPONENTS
390
0
  6
KM_SOLID
 62
     4
100
AcDbLine
 10
121.413255
 20
183.413704
 30
0.0
 11
120.711127
 21
183.569953
 31
0.0
  0
LINE
  5
1B2
100
AcDbEntity
  8
0095COMPONENTS
390
0
  6
KM_SOLID
 62
     4
100
AcDbLine
 10
121.030276
 20
183.632454
 30
0.0
 11
121.732404
 21
183.476203
 31
0.0
  0
LINE
  5
1B3
100
AcDbEntity
  8
0095COMPONENTS
390
0
  6
KM_SOLID
 62
     4
100
AcDbLine
 10
106.128999
 20
188.996204
 30
0.0
 11
105.905595
 21
189.046203
 31
0.0
  0
LINE
  5
1B4
100
AcDbEntity
  8
0095COMPONENTS
390
0
  6
KM_SOLID
 62
     4
100
AcDbLine
 10
121.030276
 20
182.007454
 30
0.0
 11
121.157936
 21
181.976203
 31
0.0
  0
LINE
  5
1B5
100
AcDbEntity
  8
0095COMPONENTS
390
0
  6
KM_SOLID
 62
     4
100
AcDbLine
 10
121.413255
 20
182.632453
 30
0.0
 11
121.285595
 21
182.663704
 31
0.0
  0
LINE
  5
1B6
100
AcDbEntity
  8
0095COMPONENTS
390
0
  6
KM_SOLID
 62
     4
100
AcDbLine
 10
120.711127
 20
184.226203
 30
0.0
 11
121.732404
 21
183.976204
 31
0.0
  0
LINE
  5
1B7
100
AcDbEntity
  8
0095COMPONENTS
390
0
  6
KM_SOLID
 62
     4
100
AcDbLine
 10
105.554531
 20
188.296203
 30
0.0
 11
105.650276
 21
188.271204
 31
0.0
  0
LINE
  5
1B8
100
AcDbEntity
  8
0095COMPONENTS
390
0
  6
KM_SOLID
 62
     4
100
AcDbLine
 10
121.413255
 20
183.882454
 30
0.0
 11
120.711127
 21
184.069954
 31
0.0
  0
LINE
  5
1B9
100
AcDbEntity
  8
0095COMPONENTS
390
0
  6
KM_SOLID
 62
     4
100
AcDbLine
 10
121.508999
 20
182.757454
 30
0.0
 11
121.285595
 21
182.819953
 31
0.0
  0
LINE
  5
1BA
100
AcDbEntity
  8
0095COMPONENTS
390
0
  6
KM_SOLID
 62
     4
100
AcDbLine
 10
121.126021
 20
180.726204
 30
0.0
 11
121.030276
 21
180.757453
 31
0.0
  0
LINE
  5
1BB
100
AcDbEntity
  8
0095COMPONENTS
390
0
  6
KM_SOLID
 62
     4
100
AcDbLine
 10
120.934531
 20
181.882453
 30
0.0
 11
121.030276
 21
181.851204
 31
0.0
  0
LINE
  5
1BC
100
AcDbEntity
  8
0095COMPONENTS
390
0
  6
KM_SOLID
 62
     4
100
AcDbLine
 10
107.885043
 20
187.966204
 30
0.0
 11
107.757384
 21
188.016204
 31
0.0
  0
LINE
  5
1BD
100
AcDbEntity
  8
0095COMPONENTS
390
0
  6
KM_SOLID
 62
     4
100
AcDbLine
 10
110.071148
 20
187.669859
 30
0.0
 11
110.897402
 21
187.316865
 31
0.0
  0
LINE
  5
1BE
100
AcDbEntity
  8
0095COMPONENTS
390
0
  6
KM_SOLID
 62
     4
100
AcDbLine
 10
120.966446
 20
180.601204
 30
0.0
 11
120.902616
 21
180.632454
 31
0.0
  0
LINE
  5
1BF
100
AcDbEntity
  8
0095COMPONENTS
390
0
  6
KM_SOLID
 62
     4
100
AcDbLine
 10
121.540914
 20
181.413703
 30
0.0
 11
121.604744
 21
181.382454
 31
0.0
  0
LINE
  5
1C0
100
AcDbEntity
  8
0095COMPONENTS
390
0
  6
KM_SOLID
 62
     4
100
AcDbLine
 10
105.458787
 20
188.346204
 30
0.0
 11
105.554531
 21
188.296203
 31
0.0
  0
LINE
  5
1C1
100
AcDbEntity
  8
0095COMPONENTS
390
0
  6
KM_SOLID
 62
     4
100
AcDbLine
 10
105.554531
 20
188.446203
 30
0.0
 11
105.650276
 21
188.396204
 31
0.0
  0
LINE
  5
1C2
100
AcDbEntity
  8
0095COMPONENTS
390
0
  6
KM_SOLID
 62
     4
100
AcDbLine
 10
107.597809
 20
187.466204
 30
0.0
 11
107.693554
 21
187.416204
 31
0.0
  0
LINE
  5
1C3
100
AcDbEntity
  8
0095COMPONENTS
390
0
  6
KM_SOLID
 62
     4
100
AcDbLine
 10
106.128999
 20
188.846204
 30
0.0
 11
106.033255
 21
188.896203
 31
0.0
  0
LINE
  5
1C4
100
AcDbEntity
  8
0095COMPONENTS
390
0
  6
KM_SOLID
 62
     4
100
AcDbLine
 10
106.224744
 20
188.946204
 30
0.0
 11
106.128999
 21
188.996204
 31
0.0
  0
LINE
  5
1C5
100
AcDbEntity
  8
0095COMPONENTS
390
0
  6
KM_SOLID
 62
     4
100
AcDbLine
 10
107.885043
 20
188.141204
 30
0.0
 11
107.980788
 21
188.091204
 31
0.0
  0
LINE
  5
1C6
100
AcDbEntity
  8
0095COMPONENTS
390
0
  6
KM_SOLID
 62
     4
100
AcDbLine
 10
121.508999
 20
177.726203
 30
0.0
 11
121.413255
 21
177.788704
 31
0.0
  0
LINE
  5
1C7
100
AcDbEntity
  8
0095COMPONENTS
390
0
  6
KM_SOLID
 62
     4
100
AcDbLine
 10
120.806872
 20
176.726204
 30
0.0
 11
120.934531
 21
176.632454
 31
0.0
  0
LINE
  5
1C8
100
AcDbEntity
  8
0095COMPONENTS
390
0
  6
KM_SOLID
 62
     4
100
AcDbLine
 10
105.394957
 20
188.396204
 30
0.0
 11
105.458787
 21
188.346204
 31
0.0
  0
LINE
  5
1C9
100
AcDbEntity
  8
0095COMPONENTS
390
0
  6
KM_SOLID
 62
     4
100
AcDbLine
 10
105.490702
 20
188.496204
 30
0.0
 11
105.554531
 21
188.446203
 31
0.0
  0
LINE
  5
1CA
100
AcDbEntity
  8
0095COMPONENTS
390
0
  6
KM_SOLID
 62
     4
100
AcDbLine
 10
107.565894
 20
187.316204
 30
0.0
 11
107.438235
 21
187.416204
 31
0.0
  0
LINE
  5
1CB
100
AcDbEntity
  8
0095COMPONENTS
390
0
  6
KM_SOLID
 62
     4
100
AcDbLine
 10
106.192829
 20
188.796204
 30
0.0
 11
106.128999
 21
188.846204
 31
0.0
  0
LINE
  5
1CC
100
AcDbEntity
  8
0095COMPONENTS
390
0
  6
KM_SOLID
 62
     4
100
AcDbLine
 10
106.288574
 20
188.896203
 30
0.0
 11
106.224744
 21
188.946204
 31
0.0
  0
LINE
  5
1CD
100
AcDbEntity
  8
0095COMPONENTS
390
0
  6
KM_SOLID
 62
     4
100
AcDbLine
 10
120.455808
 20
173.476204
 30
0.0
 11
120.232404
 21
173.663704
 31
0.0
  0
LINE
  5
1CE
100
AcDbEntity
  8
0095COMPONENTS
390
0
  6
KM_SOLID
 62
     4
100
AcDbLine
 10
120.487723
 20
173.663704
 30
0.0
 11
120.711127
 21
173.476204
 31
0.0
  0
LINE
  5
1CF
100
AcDbEntity
  8
0095COMPONENTS
390
0
  6
KM_SOLID
 62
     4
100
AcDbLine
 10
122.244741
 20
172.28076
 30
0.0
 11
121.528435
 21
172.886214
 31
0.0
  0
LINE
  5
1D0
100
AcDbEntity
  8
0095COMPONENTS
390
0
  6
KM_SOLID
 62
     4
100
AcDbLine
 10
105.363042
 20
188.446203
 30
0.0
 11
105.394957
 21
188.396204
 31
0.0
  0
LINE
  5
1D1
100
AcDbEntity
  8
0095COMPONENTS
390
0
  6
KM_SOLID
 62
     4
100
AcDbLine
 10
104.236817
 20
177.686492
 30
0.0
 11
105.925226
 21
171.385267
 31
0.0
  0
LINE
  5
1D2
100
AcDbEntity
  8
0095COMPONENTS
390
0
  6
KM_SOLID
 62
     4
100
AcDbLine
 10
106.199123
 20
180.666278
 30
0.0
 11
106.71056
 21
178.757568
 31
0.0
  0
LINE
  5
1D3
100
AcDbEntity
  8
0095COMPONENTS
390
0
  6
KM_SOLID
 62
     4
100
AcDbLine
 10
109.137021
 20
172.506655
 30
0.0
 11
109.098677
 21
172.649755
 31
0.0
  0
LINE
  5
1D4
100
AcDbEntity
  8
0095COMPONENTS
390
0
  6
KM_SOLID
 62
     4
100
AcDbLine
 10
104.852404
 20
184.446204
 30
0.0
 11
104.852404
 21
185.396204
 31
0.0
  0
LINE
  5
1D5
100
AcDbEntity
  8
0095COMPONENTS
390
0
  6
KM_SOLID
 62
     4
100
AcDbLine
 10
104.852404
 20
185.596204
 30
0.0
 11
104.852404
 21
185.721204
 31
0.0
  0
LINE
  5
1D6
100
AcDbEntity
  8
0095COMPONENTS
390
0
  6
KM_SOLID
 62
     4
100
AcDbLine
 10
104.852404
 20
185.921204
 30
0.0
 11
104.852404
 21
186.046204
 31
0.0
  0
LINE
  5
1D7
100
AcDbEntity
  8
0095COMPONENTS
390
0
  6
KM_SOLID
 62
     4
100
AcDbLine
 10
105.011978
 20
185.721204
 30
0.0
 11
105.011978
 21
185.596204
 31
0.0
  0
LINE
  5
1D8
100
AcDbEntity
  8
0095COMPONENTS
390
0
  6
KM_SOLID
 62
     4
100
AcDbLine
 10
105.011978
 20
185.396204
 30
0.0
 11
105.011978
 21
184.996204
 31
0.0
  0
LINE
  5
1D9
100
AcDbEntity
  8
0095COMPONENTS
390
0
  6
KM_SOLID
 62
     4
100
AcDbLine
 10
105.011978
 20
184.846204
 30
0.0
 11
105.011978
 21
184.446204
 31
0.0
  0
LINE
  5
1DA
100
AcDbEntity
  8
0095COMPONENTS
390
0
  6
KM_SOLID
 62
     4
100
AcDbLine
 10
105.075808
 20
186.446204
 30
0.0
 11
105.075808
 21
186.571204
 31
0.0
  0
LINE
  5
1DB
100
AcDbEntity
  8
0095COMPONENTS
390
0
  6
KM_SOLID
 62
     4
100
AcDbLine
 10
105.075808
 20
190.446204
 30
0.0
 11
105.075808
 21
190.571203
 31
0.0
  0
LINE
  5
1DC
100
AcDbEntity
  8
0095COMPONENTS
390
0
  6
KM_SOLID
 62
   255
100
AcDbLine
 10
105.178684
 20
203.073377
 30
0.0
 11
105.178684
 21
199.577544
 31
0.0
  0
LINE
  5
1DD
100
AcDbEntity
  8
0095COMPONENTS
390
0
  6
KM_SOLID
 62
     4
100
AcDbLine
 10
105.331127
 20
188.746203
 30
0.0
 11
105.331127
 21
188.546204
 31
0.0
  0
LINE
  5
1DE
100
AcDbEntity
  8
0095COMPONENTS
390
0
  6
KM_SOLID
 62
     4
100
AcDbLine
 10
105.331127
 20
185.596204
 30
0.0
 11
105.331127
 21
185.721204
 31
0.0
  0
LINE
  5
1DF
100
AcDbEntity
  8
0095COMPONENTS
390
0
  6
KM_SOLID
 62
     4
100
AcDbLine
 10
105.331127
 20
186.246204
 30
0.0
 11
105.331127
 21
186.446204
 31
0.0
  0
LINE
  5
1E0
100
AcDbEntity
  8
0095COMPONENTS
390
0
  6
KM_SOLID
 62
     4
100
AcDbLine
 10
105.331127
 20
186.571204
 30
0.0
 11
105.331127
 21
186.846204
 31
0.0
  0
LINE
  5
1E1
100
AcDbEntity
  8
0095COMPONENTS
390
0
  6
KM_SOLID
 62
     4
100
AcDbLine
 10
105.331127
 20
189.246204
 30
0.0
 11
105.331127
 21
189.371203
 31
0.0
  0
LINE
  5
1E2
100
AcDbEntity
  8
0095COMPONENTS
390
0
  6
KM_SOLID
 62
     4
100
AcDbLine
 10
105.331127
 20
189.871204
 30
0.0
 11
105.331127
 21
189.996204
 31
0.0
  0
LINE
  5
1E3
100
AcDbEntity
  8
0095COMPONENTS
390
0
  6
KM_SOLID
 62
     4
100
AcDbLine
 10
105.331127
 20
190.246204
 30
0.0
 11
105.331127
 21
190.446204
 31
0.0
  0
LINE
  5
1E4
100
AcDbEntity
  8
0095COMPONENTS
390
0
  6
KM_SOLID
 62
     4
100
AcDbLine
 10
105.331127
 20
190.571203
 30
0.0
 11
105.331127
 21
190.846204
 31
0.0
  0
LINE
  5
1E5
100
AcDbEntity
  8
0095COMPONENTS
390
0
  6
KM_SOLID
 62
     4
100
AcDbLine
 10
105.458787
 20
190.846204
 30
0.0
 11
105.458787
 21
190.571203
 31
0.0
  0
LINE
  5
1E6
100
AcDbEntity
  8
0095COMPONENTS
390
0
  6
KM_SOLID
 62
     4
100
AcDbLine
 10
105.458787
 20
190.446204
 30
0.0
 11
105.458787
 21
190.246204
 31
0.0
  0
LINE
  5
1E7
100
AcDbEntity
  8
0095COMPONENTS
390
0
  6
KM_SOLID
 62
     4
100
AcDbLine
 10
105.458787
 20
188.696204
 30
0.0
 11
105.458787
 21
188.596203
 31
0.0
  0
LINE
  5
1E8
100
AcDbEntity
  8
0095COMPONENTS
390
0
  6
KM_SOLID
 62
     4
100
AcDbLine
 10
105.458787
 20
186.846204
 30
0.0
 11
105.458787
 21
186.571204
 31
0.0
  0
LINE
  5
1E9
100
AcDbEntity
  8
0095COMPONENTS
390
0
  6
KM_SOLID
 62
     4
100
AcDbLine
 10
105.458787
 20
186.446204
 30
0.0
 11
105.458787
 21
186.246204
 31
0.0
  0
LINE
  5
1EA
100
AcDbEntity
  8
0095COMPONENTS
390
0
  6
KM_SOLID
 62
     4
100
AcDbLine
 10
105.706085
 20
178.773212
 30
0.0
 11
105.706085
 21
172.24713
 31
0.0
  0
LINE
  5
1EB
100
AcDbEntity
  8
0095COMPONENTS
390
0
  6
KM_SOLID
 62
     4
100
AcDbLine
 10
106.224744
 20
188.596203
 30
0.0
 11
106.224744
 21
188.696204
 31
0.0
  0
LINE
  5
1EC
100
AcDbEntity
  8
0095COMPONENTS
390
0
  6
KM_SOLID
 62
     4
100
AcDbLine
 10
106.224744
 20
189.546204
 30
0.0
 11
106.224744
 21
189.646204
 31
0.0
  0
LINE
  5
1ED
100
AcDbEntity
  8
0095COMPONENTS
390
0
  6
KM_SOLID
 62
   255
100
AcDbLine
 10
106.311048
 20
198.073377
 30
0.0
 11
106.311048
 21
203.073377
 31
0.0
  0
LINE
  5
1EE
100
AcDbEntity
  8
0095COMPONENTS
390
0
  6
KM_SOLID
 62
     4
100
AcDbLine
 10
106.352404
 20
190.046203
 30
0.0
 11
106.352404
 21
189.921204
 31
0.0
  0
LINE
  5
1EF
100
AcDbEntity
  8
0095COMPONENTS
390
0
  6
KM_SOLID
 62
     4
100
AcDbLine
 10
106.352404
 20
189.646204
 30
0.0
 11
106.352404
 21
189.546204
 31
0.0
  0
LINE
  5
1F0
100
AcDbEntity
  8
0095COMPONENTS
390
0
  6
KM_SOLID
 62
     4
100
AcDbLine
 10
106.352404
 20
186.046204
 30
0.0
 11
106.352404
 21
185.921204
 31
0.0
  0
LINE
  5
1F1
100
AcDbEntity
  8
0095COMPONENTS
390
0
  6
KM_SOLID
 62
     4
100
AcDbLine
 10
106.352404
 20
185.721204
 30
0.0
 11
106.352404
 21
185.596204
 31
0.0
  0
LINE
  5
1F2
100
AcDbEntity
  8
0095COMPONENTS
390
0
  6
KM_SOLID
 62
     4
100
AcDbLine
 10
106.352404
 20
184.996204
 30
0.0
 11
106.352404
 21
184.846204
 31
0.0
  0
LINE
  5
1F3
100
AcDbEntity
  8
0095COMPONENTS
390
0
  6
KM_SOLID
 62
     4
100
AcDbLine
 10
106.352404
 20
188.546204
 30
0.0
 11
106.352404
 21
188.746203
 31
0.0
  0
LINE
  5
1F4
100
AcDbEntity
  8
0095COMPONENTS
390
0
  6
KM_SOLID
 62
   255
100
AcDbLine
 10
106.821842
 20
203.073377
 30
0.0
 11
106.821842
 21
201.785877
 31
0.0
  0
LINE
  5
1F5
100
AcDbEntity
  8
0095COMPONENTS
390
0
  6
KM_SOLID
 62
     4
100
AcDbLine
 10
107.34249
 20
187.691204
 30
0.0
 11
107.34249
 21
187.791204
 31
0.0
  0
LINE
  5
1F6
100
AcDbEntity
  8
0095COMPONENTS
390
0
  6
KM_SOLID
 62
     4
100
AcDbLine
 10
107.502064
 20
187.766204
 30
0.0
 11
107.502064
 21
187.666204
 31
0.0
  0
LINE
  5
1F7
100
AcDbEntity
  8
0095COMPONENTS
390
0
  6
KM_SOLID
 62
     4
100
AcDbLine
 10
107.693554
 20
187.416204
 30
0.0
 11
107.693554
 21
187.291204
 31
0.0
  0
LINE
  5
1F8
100
AcDbEntity
  8
0095COMPONENTS
390
0
  6
KM_SOLID
 62
     4
100
AcDbLine
 10
106.352404
 20
190.796203
 30
0.0
 11
106.320489
 21
190.646203
 31
0.0
  0
LINE
  5
1F9
100
AcDbEntity
  8
0095COMPONENTS
390
0
  6
KM_SOLID
 62
     4
100
AcDbLine
 10
106.352404
 20
186.796204
 30
0.0
 11
106.320489
 21
186.646204
 31
0.0
  0
LINE
  5
1FA
100
AcDbEntity
  8
0095COMPONENTS
390
0
  6
KM_SOLID
 62
     4
100
AcDbLine
 10
106.192829
 20
190.671204
 30
0.0
 11
106.224744
 21
190.796203
 31
0.0
  0
LINE
  5
1FB
100
AcDbEntity
  8
0095COMPONENTS
390
0
  6
KM_SOLID
 62
     4
100
AcDbLine
 10
106.192829
 20
186.671204
 30
0.0
 11
106.224744
 21
186.796204
 31
0.0
  0
LINE
  5
1FC
100
AcDbEntity
  8
0095COMPONENTS
390
0
  6
KM_SOLID
 62
     4
100
AcDbLine
 10
105.363042
 20
188.846204
 30
0.0
 11
105.331127
 21
188.746203
 31
0.0
  0
LINE
  5
1FD
100
AcDbEntity
  8
0095COMPONENTS
390
0
  6
KM_SOLID
 62
     4
100
AcDbLine
 10
105.490702
 20
188.796204
 30
0.0
 11
105.458787
 21
188.696204
 31
0.0
  0
LINE
  5
1FE
100
AcDbEntity
  8
0095COMPONENTS
390
0
  6
KM_SOLID
 62
     4
100
AcDbLine
 10
106.352404
 20
189.546204
 30
0.0
 11
106.320489
 21
189.446203
 31
0.0
  0
LINE
  5
1FF
100
AcDbEntity
  8
0095COMPONENTS
390
0
  6
KM_SOLID
 62
     4
100
AcDbLine
 10
106.192829
 20
188.496204
 30
0.0
 11
106.224744
 21
188.596203
 31
0.0
  0
LINE
  5
200
100
AcDbEntity
  8
0095COMPONENTS
390
0
  6
KM_SOLID
 62
     4
100
AcDbLine
 10
106.320489
 20
188.446203
 30
0.0
 11
106.352404
 21
188.546204
 31
0.0
  0
LINE
  5
201
100
AcDbEntity
  8
0095COMPONENTS
390
0
  6
KM_SOLID
 62
     4
100
AcDbLine
 10
106.320489
 20
190.646203
 30
0.0
 11
106.288574
 21
190.571203
 31
0.0
  0
LINE
  5
202
100
AcDbEntity
  8
0095COMPONENTS
390
0
  6
KM_SOLID
 62
     4
100
AcDbLine
 10
105.394957
 20
188.896203
 30
0.0
 11
105.363042
 21
188.846204
 31
0.0
  0
LINE
  5
203
100
AcDbEntity
  8
0095COMPONENTS
390
0
  6
KM_SOLID
 62
     4
100
AcDbLine
 10
106.128999
 20
190.596204
 30
0.0
 11
106.192829
 21
190.671204
 31
0.0
  0
LINE
  5
204
100
AcDbEntity
  8
0095COMPONENTS
390
0
  6
KM_SOLID
 62
   255
100
AcDbLine
 10
115.146651
 20
201.793331
 30
0.0
 11
115.088318
 21
201.733757
 31
0.0
  0
LINE
  5
205
100
AcDbEntity
  8
0095COMPONENTS
390
0
  6
KM_SOLID
 62
     4
100
AcDbLine
 10
105.650276
 20
189.021204
 30
0.0
 11
105.554531
 21
188.996204
 31
0.0
  0
LINE
  5
206
100
AcDbEntity
  8
0095COMPONENTS
390
0
  6
KM_SOLID
 62
     4
100
AcDbLine
 10
105.969425
 20
189.371203
 30
0.0
 11
106.06517
 21
189.396204
 31
0.0
  0
LINE
  5
207
100
AcDbEntity
  8
0095COMPONENTS
390
0
  6
KM_SOLID
 62
     4
100
AcDbLine
 10
106.033255
 20
190.571203
 30
0.0
 11
106.128999
 21
190.596204
 31
0.0
  0
LINE
  5
208
100
AcDbEntity
  8
0095COMPONENTS
390
0
  6
KM_SOLID
 62
     4
100
AcDbLine
 10
105.777936
 20
188.921204
 30
0.0
 11
105.650276
 21
188.896203
 31
0.0
  0
LINE
  5
209
100
AcDbEntity
  8
0095COMPONENTS
390
0
  6
KM_SOLID
 62
     4
100
AcDbLine
 10
105.777936
 20
189.046203
 30
0.0
 11
105.650276
 21
189.021204
 31
0.0
  0
LINE
  5
20A
100
AcDbEntity
  8
0095COMPONENTS
390
0
  6
KM_SOLID
 62
     4
100
AcDbLine
 10
106.097085
 20
189.271204
 30
0.0
 11
105.969425
 21
189.246204
 31
0.0
  0
LINE
  5
20B
100
AcDbEntity
  8
0095COMPONENTS
390
0
  6
KM_SOLID
 62
     4
100
AcDbLine
 10
106.160914
 20
189.996204
 30
0.0
 11
106.288574
 21
190.021204
 31
0.0
  0
LINE
  5
20C
100
AcDbEntity
  8
0095COMPONENTS
390
0
  6
KM_SOLID
 62
     4
100
AcDbLine
 10
105.969425
 20
189.246204
 30
0.0
 11
105.331127
 21
189.246204
 31
0.0
  0
LINE
  5
20D
100
AcDbEntity
  8
0095COMPONENTS
390
0
  6
KM_SOLID
 62
     4
100
AcDbLine
 10
105.331127
 20
189.371203
 30
0.0
 11
105.969425
 21
189.371203
 31
0.0
  0
LINE
  5
20E
100
AcDbEntity
  8
0095COMPONENTS
390
0
  6
KM_SOLID
 62
     4
100
AcDbLine
 10
106.033255
 20
189.871204
 30
0.0
 11
105.331127
 21
189.871204
 31
0.0
  0
LINE
  5
20F
100
AcDbEntity
  8
0095COMPONENTS
390
0
  6
KM_SOLID
 62
     4
100
AcDbLine
 10
105.331127
 20
189.996204
 30
0.0
 11
106.160914
 21
189.996204
 31
0.0
  0
LINE
  5
210
100
AcDbEntity
  8
0095COMPONENTS
390
0
  6
KM_SOLID
 62
     4
100
AcDbLine
 10
105.458787
 20
190.246204
 30
0.0
 11
105.331127
 21
190.246204
 31
0.0
  0
LINE
  5
211
100
AcDbEntity
  8
0095COMPONENTS
390
0
  6
KM_SOLID
 62
     4
100
AcDbLine
 10
106.097085
 20
190.446204
 30
0.0
 11
105.458787
 21
190.446204
 31
0.0
  0
LINE
  5
212
100
AcDbEntity
  8
0095COMPONENTS
390
0
  6
KM_SOLID
 62
     4
100
AcDbLine
 10
105.331127
 20
190.446204
 30
0.0
 11
105.075808
 21
190.446204
 31
0.0
  0
LINE
  5
213
100
AcDbEntity
  8
0095COMPONENTS
390
0
  6
KM_SOLID
 62
     4
100
AcDbLine
 10
105.075808
 20
190.571203
 30
0.0
 11
105.331127
 21
190.571203
 31
0.0
  0
LINE
  5
214
100
AcDbEntity
  8
0095COMPONENTS
390
0
  6
KM_SOLID
 62
     4
100
AcDbLine
 10
105.458787
 20
190.571203
 30
0.0
 11
106.033255
 21
190.571203
 31
0.0
  0
LINE
  5
215
100
AcDbEntity
  8
0095COMPONENTS
390
0
  6
KM_SOLID
 62
     4
100
AcDbLine
 10
106.224744
 20
190.796203
 30
0.0
 11
106.352404
 21
190.796203
 31
0.0
  0
LINE
  5
216
100
AcDbEntity
  8
0095COMPONENTS
390
0
  6
KM_SOLID
 62
     4
100
AcDbLine
 10
105.331127
 20
190.846204
 30
0.0
 11
105.458787
 21
190.846204
 31
0.0
  0
LINE
  5
217
100
AcDbEntity
  8
0095COMPONENTS
390
0
  6
KM_SOLID
 62
     4
100
AcDbLine
 10
106.128999
 20
189.821203
 30
0.0
 11
106.033255
 21
189.871204
 31
0.0
  0
LINE
  5
218
100
AcDbEntity
  8
0095COMPONENTS
390
0
  6
KM_SOLID
 62
     4
100
AcDbLine
 10
121.030276
 20
180.757453
 30
0.0
 11
120.934531
 21
180.819954
 31
0.0
  0
LINE
  5
219
100
AcDbEntity
  8
0095COMPONENTS
390
0
  6
KM_SOLID
 62
     4
100
AcDbLine
 10
121.38134
 20
181.413703
 30
0.0
 11
121.477085
 21
181.351204
 31
0.0
  0
LINE
  5
21A
100
AcDbEntity
  8
0095COMPONENTS
390
0
  6
KM_SOLID
 62
     4
100
AcDbLine
 10
120.838787
 20
181.944954
 30
0.0
 11
120.934531
 21
181.882453
 31
0.0
  0
LINE
  5
21B
100
AcDbEntity
  8
0095COMPONENTS
390
0
  6
KM_SOLID
 62
     4
100
AcDbLine
 10
120.934531
 20
182.069953
 30
0.0
 11
121.030276
 21
182.007454
 31
0.0
  0
LINE
  5
21C
100
AcDbEntity
  8
0095COMPONENTS
390
0
  6
KM_SOLID
 62
     4
100
AcDbLine
 10
121.508999
 20
182.569954
 30
0.0
 11
121.413255
 21
182.632453
 31
0.0
  0
LINE
  5
21D
100
AcDbEntity
  8
0095COMPONENTS
390
0
  6
KM_SOLID
 62
     4
100
AcDbLine
 10
121.604744
 20
182.694954
 30
0.0
 11
121.508999
 21
182.757454
 31
0.0
  0
LINE
  5
21E
100
AcDbEntity
  8
0095COMPONENTS
390
0
  6
KM_SOLID
 62
     4
100
AcDbLine
 10
106.192829
 20
189.871204
 30
0.0
 11
106.288574
 21
189.796204
 31
0.0
  0
LINE
  5
21F
100
AcDbEntity
  8
0095COMPONENTS
390
0
  6
KM_SOLID
 62
     4
100
AcDbLine
 10
108.682915
 20
187.266204
 30
0.0
 11
107.885043
 21
187.966204
 31
0.0
  0
LINE
  5
220
100
AcDbEntity
  8
0095COMPONENTS
390
0
  6
KM_SOLID
 62
     4
100
AcDbLine
 10
107.980788
 20
188.091204
 30
0.0
 11
108.682915
 21
187.466204
 31
0.0
  0
LINE
  5
221
100
AcDbEntity
  8
0095COMPONENTS
390
0
  6
KM_SOLID
 62
     4
100
AcDbLine
 10
120.838787
 20
176.476204
 30
0.0
 11
120.774957
 21
176.538704
 31
0.0
  0
LINE
  5
222
100
AcDbEntity
  8
0095COMPONENTS
390
0
  6
KM_SOLID
 62
     4
100
AcDbLine
 10
121.572829
 20
177.788704
 30
0.0
 11
121.668574
 21
177.694954
 31
0.0
  0
LINE
  5
223
100
AcDbEntity
  8
0095COMPONENTS
390
0
  6
KM_SOLID
 62
     4
100
AcDbLine
 10
107.533979
 20
187.541204
 30
0.0
 11
107.597809
 21
187.466204
 31
0.0
  0
LINE
  5
224
100
AcDbEntity
  8
0095COMPONENTS
390
0
  6
KM_SOLID
 62
     4
100
AcDbLine
 10
106.192829
 20
189.746203
 30
0.0
 11
106.128999
 21
189.821203
 31
0.0
  0
LINE
  5
225
100
AcDbEntity
  8
0095COMPONENTS
390
0
  6
KM_SOLID
 62
     4
100
AcDbLine
 10
106.320489
 20
188.846204
 30
0.0
 11
106.288574
 21
188.896203
 31
0.0
  0
LINE
  5
226
100
AcDbEntity
  8
0095COMPONENTS
390
0
  6
KM_SOLID
 62
     4
100
AcDbLine
 10
107.438235
 20
187.416204
 30
0.0
 11
107.374405
 21
187.516204
 31
0.0
  0
LINE
  5
227
100
AcDbEntity
  8
0095COMPONENTS
390
0
  6
KM_SOLID
 62
     4
100
AcDbLine
 10
106.288574
 20
189.796204
 30
0.0
 11
106.320489
 21
189.746203
 31
0.0
  0
LINE
  5
228
100
AcDbEntity
  8
0095COMPONENTS
390
0
  6
KM_SOLID
 62
     4
100
AcDbLine
 10
105.331127
 20
188.546204
 30
0.0
 11
105.363042
 21
188.446203
 31
0.0
  0
LINE
  5
229
100
AcDbEntity
  8
0095COMPONENTS
390
0
  6
KM_SOLID
 62
     4
100
AcDbLine
 10
105.458787
 20
188.596203
 30
0.0
 11
105.490702
 21
188.496204
 31
0.0
  0
LINE
  5
22A
100
AcDbEntity
  8
0095COMPONENTS
390
0
  6
KM_SOLID
 62
     4
100
AcDbLine
 10
106.224744
 20
188.696204
 30
0.0
 11
106.192829
 21
188.796204
 31
0.0
  0
LINE
  5
22B
100
AcDbEntity
  8
0095COMPONENTS
390
0
  6
KM_SOLID
 62
     4
100
AcDbLine
 10
106.352404
 20
188.746203
 30
0.0
 11
106.320489
 21
188.846204
 31
0.0
  0
LINE
  5
22C
100
AcDbEntity
  8
0095COMPONENTS
390
0
  6
KM_SOLID
 62
     4
100
AcDbLine
 10
106.224744
 20
189.646204
 30
0.0
 11
106.192829
 21
189.746203
 31
0.0
  0
LINE
  5
22D
100
AcDbEntity
  8
0095COMPONENTS
390
0
  6
KM_SOLID
 62
     4
100
AcDbLine
 10
106.320489
 20
189.746203
 30
0.0
 11
106.352404
 21
189.646204
 31
0.0
  0
LINE
  5
22E
100
AcDbEntity
  8
0095COMPONENTS
390
0
  6
KM_SOLID
 62
     4
100
AcDbLine
 10
109.594767
 20
172.229323
 30
0.0
 11
109.548452
 21
172.402174
 31
0.0
  0
LINE
  5
22F
100
AcDbEntity
  8
0095COMPONENTS
390
0
  6
KM_SOLID
 62
     4
100
AcDbLine
 10
107.502064
 20
187.666204
 30
0.0
 11
107.533979
 21
187.541204
 31
0.0
  0
LINE
  5
230
100
AcDbEntity
  8
0095COMPONENTS
390
0
  6
KM_SOLID
 62
     4
100
AcDbLine
 10
107.374405
 20
187.516204
 30
0.0
 11
107.34249
 21
187.691204
 31
0.0
  0
LINE
  5
231
100
AcDbEntity
  8
0095COMPONENTS
390
0
  6
KM_SOLID
 62
     4
100
AcDbLine
 10
108.372751
 20
181.143582
 30
0.0
 11
108.372751
 21
179.16754
 31
0.0
  0
LINE
  5
232
100
AcDbEntity
  8
0095COMPONENTS
390
0
  6
KM_SOLID
 62
   255
100
AcDbLine
 10
108.446535
 20
201.785877
 30
0.0
 11
108.446535
 21
198.073377
 31
0.0
  0
LINE
  5
233
100
AcDbEntity
  8
0095COMPONENTS
390
0
  6
KM_SOLID
 62
     4
100
AcDbLine
 10
108.682915
 20
187.466204
 30
0.0
 11
108.682915
 21
188.166204
 31
0.0
  0
LINE
  5
234
100
AcDbEntity
  8
0095COMPONENTS
390
0
  6
KM_SOLID
 62
     4
100
AcDbLine
 10
108.84249
 20
188.166204
 30
0.0
 11
108.84249
 21
187.266204
 31
0.0
  0
LINE
  5
235
100
AcDbEntity
  8
0095COMPONENTS
390
0
  6
KM_SOLID
 62
     4
100
AcDbLine
 10
109.098677
 20
172.501607
 30
0.0
 11
109.098677
 21
172.649755
 31
0.0
  0
LINE
  5
236
100
AcDbEntity
  8
0095COMPONENTS
390
0
  6
KM_SOLID
 62
     4
100
AcDbLine
 10
109.469048
 20
172.146051
 30
0.0
 11
109.469048
 21
172.294199
 31
0.0
  0
LINE
  5
237
100
AcDbEntity
  8
0095COMPONENTS
390
0
  6
KM_SOLID
 62
   255
100
AcDbLine
 10
109.578899
 20
198.073377
 30
0.0
 11
109.578899
 21
201.785877
 31
0.0
  0
LINE
  5
238
100
AcDbEntity
  8
0095COMPONENTS
390
0
  6
KM_SOLID
 62
     4
100
AcDbLine
 10
109.706085
 20
172.304076
 30
0.0
 11
109.706085
 21
171.736175
 31
0.0
  0
LINE
  5
239
100
AcDbEntity
  8
0095COMPONENTS
390
0
  6
KM_SOLID
 62
   255
100
AcDbLine
 10
109.713322
 20
223.946
 30
0.0
 11
109.713322
 21
223.652861
 31
0.0
  0
LINE
  5
23A
100
AcDbEntity
  8
0095COMPONENTS
390
0
  6
KM_SOLID
 62
     4
100
AcDbLine
 10
109.854233
 20
172.452224
 30
0.0
 11
109.854233
 21
171.884323
 31
0.0
  0
LINE
  5
23B
100
AcDbEntity
  8
0095COMPONENTS
390
0
  6
KM_SOLID
 62
   255
100
AcDbLine
 10
111.203594
 20
201.785877
 30
0.0
 11
111.203594
 21
203.073377
 31
0.0
  0
LINE
  5
23C
100
AcDbEntity
  8
0095COMPONENTS
390
0
  6
KM_SOLID
 62
     4
100
AcDbLine
 10
107.34249
 20
187.791204
 30
0.0
 11
107.374405
 21
187.941204
 31
0.0
  0
LINE
  5
23D
100
AcDbEntity
  8
0095COMPONENTS
390
0
  6
KM_SOLID
 62
     4
100
AcDbLine
 10
107.533979
 20
187.891204
 30
0.0
 11
107.502064
 21
187.766204
 31
0.0
  0
LINE
  5
23E
100
AcDbEntity
  8
0095COMPONENTS
390
0
  6
KM_SOLID
 62
     4
100
AcDbLine
 10
106.320489
 20
186.646204
 30
0.0
 11
106.288574
 21
186.571204
 31
0.0
  0
LINE
  5
23F
100
AcDbEntity
  8
0095COMPONENTS
390
0
  6
KM_SOLID
 62
     4
100
AcDbLine
 10
106.160914
 20
189.446203
 30
0.0
 11
106.224744
 21
189.546204
 31
0.0
  0
LINE
  5
240
100
AcDbEntity
  8
0095COMPONENTS
390
0
  6
KM_SOLID
 62
     4
100
AcDbLine
 10
106.288574
 20
188.396204
 30
0.0
 11
106.320489
 21
188.446203
 31
0.0
  0
LINE
  5
241
100
AcDbEntity
  8
0095COMPONENTS
390
0
  6
KM_SOLID
 62
     4
100
AcDbLine
 10
107.374405
 20
187.941204
 30
0.0
 11
107.438235
 21
188.041204
 31
0.0
  0
LINE
  5
242
100
AcDbEntity
  8
0095COMPONENTS
390
0
  6
KM_SOLID
 62
   255
100
AcDbLine
 10
115.234151
 20
201.644395
 30
0.0
 11
115.321651
 21
201.763544
 31
0.0
  0
LINE
  5
243
100
AcDbEntity
  8
0095COMPONENTS
390
0
  6
KM_SOLID
 62
     4
100
AcDbLine
 10
106.288574
 20
190.571203
 30
0.0
 11
106.224744
 21
190.496203
 31
0.0
  0
LINE
  5
244
100
AcDbEntity
  8
0095COMPONENTS
390
0
  6
KM_SOLID
 62
     4
100
AcDbLine
 10
106.320489
 20
189.446203
 30
0.0
 11
106.256659
 21
189.371203
 31
0.0
  0
LINE
  5
245
100
AcDbEntity
  8
0095COMPONENTS
390
0
  6
KM_SOLID
 62
     4
100
AcDbLine
 10
106.128999
 20
186.596204
 30
0.0
 11
106.192829
 21
186.671204
 31
0.0
  0
LINE
  5
246
100
AcDbEntity
  8
0095COMPONENTS
390
0
  6
KM_SOLID
 62
     4
100
AcDbLine
 10
106.288574
 20
186.571204
 30
0.0
 11
106.224744
 21
186.496204
 31
0.0
  0
LINE
  5
247
100
AcDbEntity
  8
0095COMPONENTS
390
0
  6
KM_SOLID
 62
     4
100
AcDbLine
 10
107.597809
 20
187.966204
 30
0.0
 11
107.533979
 21
187.891204
 31
0.0
  0
LINE
  5
248
100
AcDbEntity
  8
0095COMPONENTS
390
0
  6
KM_SOLID
 62
     4
100
AcDbLine
 10
105.458787
 20
188.946204
 30
0.0
 11
105.394957
 21
188.896203
 31
0.0
  0
LINE
  5
249
100
AcDbEntity
  8
0095COMPONENTS
390
0
  6
KM_SOLID
 62
     4
100
AcDbLine
 10
105.554531
 20
188.846204
 30
0.0
 11
105.490702
 21
188.796204
 31
0.0
  0
LINE
  5
24A
100
AcDbEntity
  8
0095COMPONENTS
390
0
  6
KM_SOLID
 62
     4
100
AcDbLine
 10
106.256659
 20
189.371203
 30
0.0
 11
106.160914
 21
189.296203
 31
0.0
  0
LINE
  5
24B
100
AcDbEntity
  8
0095COMPONENTS
390
0
  6
KM_SOLID
 62
     4
100
AcDbLine
 10
106.128999
 20
188.446203
 30
0.0
 11
106.192829
 21
188.496204
 31
0.0
  0
LINE
  5
24C
100
AcDbEntity
  8
0095COMPONENTS
390
0
  6
KM_SOLID
 62
     4
100
AcDbLine
 10
106.224744
 20
188.346204
 30
0.0
 11
106.288574
 21
188.396204
 31
0.0
  0
LINE
  5
24D
100
AcDbEntity
  8
0095COMPONENTS
390
0
  6
KM_SOLID
 62
     4
100
AcDbLine
 10
107.438235
 20
188.041204
 30
0.0
 11
107.565894
 21
188.141204
 31
0.0
  0
LINE
  5
24E
100
AcDbEntity
  8
0095COMPONENTS
390
0
  6
KM_SOLID
 62
     4
100
AcDbLine
 10
106.06517
 20
189.396204
 30
0.0
 11
106.160914
 21
189.446203
 31
0.0
  0
LINE
  5
24F
100
AcDbEntity
  8
0095COMPONENTS
390
0
  6
KM_SOLID
 62
     4
100
AcDbLine
 10
105.554531
 20
188.996204
 30
0.0
 11
105.458787
 21
188.946204
 31
0.0
  0
LINE
  5
250
100
AcDbEntity
  8
0095COMPONENTS
390
0
  6
KM_SOLID
 62
     4
100
AcDbLine
 10
105.650276
 20
188.896203
 30
0.0
 11
105.554531
 21
188.846204
 31
0.0
  0
LINE
  5
251
100
AcDbEntity
  8
0095COMPONENTS
390
0
  6
KM_SOLID
 62
     4
100
AcDbLine
 10
106.033255
 20
188.396204
 30
0.0
 11
106.128999
 21
188.446203
 31
0.0
  0
LINE
  5
252
100
AcDbEntity
  8
0095COMPONENTS
390
0
  6
KM_SOLID
 62
     4
100
AcDbLine
 10
106.128999
 20
188.296203
 30
0.0
 11
106.224744
 21
188.346204
 31
0.0
  0
LINE
  5
253
100
AcDbEntity
  8
0095COMPONENTS
390
0
  6
KM_SOLID
 62
     4
100
AcDbLine
 10
107.693554
 20
188.016204
 30
0.0
 11
107.597809
 21
187.966204
 31
0.0
  0
LINE
  5
254
100
AcDbEntity
  8
0095COMPONENTS
390
0
  6
KM_SOLID
 62
     4
100
AcDbLine
 10
106.224744
 20
190.496203
 30
0.0
 11
106.097085
 21
190.446204
 31
0.0
  0
LINE
  5
255
100
AcDbEntity
  8
0095COMPONENTS
390
0
  6
KM_SOLID
 62
     4
100
AcDbLine
 10
106.288574
 20
190.021204
 30
0.0
 11
106.352404
 21
190.046203
 31
0.0
  0
LINE
  5
256
100
AcDbEntity
  8
0095COMPONENTS
390
0
  6
KM_SOLID
 62
     4
100
AcDbLine
 10
106.160914
 20
189.296203
 30
0.0
 11
106.097085
 21
189.271204
 31
0.0
  0
LINE
  5
257
100
AcDbEntity
  8
0095COMPONENTS
390
0
  6
KM_SOLID
 62
     4
100
AcDbLine
 10
106.352404
 20
189.921204
 30
0.0
 11
106.192829
 21
189.871204
 31
0.0
  0
LINE
  5
258
100
AcDbEntity
  8
0095COMPONENTS
390
0
  6
KM_SOLID
 62
     4
100
AcDbLine
 10
120.902616
 20
180.632454
 30
0.0
 11
120.806872
 21
180.726204
 31
0.0
  0
LINE
  5
259
100
AcDbEntity
  8
0095COMPONENTS
390
0
  6
KM_SOLID
 62
     4
100
AcDbLine
 10
120.774957
 20
182.007454
 30
0.0
 11
120.838787
 21
181.944954
 31
0.0
  0
LINE
  5
25A
100
AcDbEntity
  8
0095COMPONENTS
390
0
  6
KM_SOLID
 62
     4
100
AcDbLine
 10
121.604744
 20
181.382454
 30
0.0
 11
121.668574
 21
181.319953
 31
0.0
  0
LINE
  5
25B
100
AcDbEntity
  8
0095COMPONENTS
390
0
  6
KM_SOLID
 62
     4
100
AcDbLine
 10
120.870702
 20
182.132454
 30
0.0
 11
120.934531
 21
182.069953
 31
0.0
  0
LINE
  5
25C
100
AcDbEntity
  8
0095COMPONENTS
390
0
  6
KM_SOLID
 62
     4
100
AcDbLine
 10
121.572829
 20
182.507454
 30
0.0
 11
121.508999
 21
182.569954
 31
0.0
  0
LINE
  5
25D
100
AcDbEntity
  8
0095COMPONENTS
390
0
  6
KM_SOLID
 62
     4
100
AcDbLine
 10
121.668574
 20
182.632453
 30
0.0
 11
121.604744
 21
182.694954
 31
0.0
  0
LINE
  5
25E
100
AcDbEntity
  8
0095COMPONENTS
390
0
  6
KM_SOLID
 62
     4
100
AcDbLine
 10
120.870702
 20
184.632454
 30
0.0
 11
120.806872
 21
184.694953
 31
0.0
  0
LINE
  5
25F
100
AcDbEntity
  8
0095COMPONENTS
390
0
  6
KM_SOLID
 62
     4
100
AcDbLine
 10
120.934531
 20
184.694953
 30
0.0
 11
120.998361
 21
184.632454
 31
0.0
  0
LINE
  5
260
100
AcDbEntity
  8
0095COMPONENTS
390
0
  6
KM_SOLID
 62
     4
100
AcDbLine
 10
120.934531
 20
176.632454
 30
0.0
 11
121.030276
 21
176.507453
 31
0.0
  0
LINE
  5
261
100
AcDbEntity
  8
0095COMPONENTS
390
0
  6
KM_SOLID
 62
     4
100
AcDbLine
 10
121.572829
 20
177.632453
 30
0.0
 11
121.508999
 21
177.726203
 31
0.0
  0
LINE
  5
262
100
AcDbEntity
  8
0095COMPONENTS
390
0
  6
KM_SOLID
 62
   255
100
AcDbLine
 10
102.372393
 20
201.70671
 30
0.0
 11
104.59404
 21
198.073377
 31
0.0
  0
LINE
  5
263
100
AcDbEntity
  8
0095COMPONENTS
390
0
  6
KM_SOLID
 62
   255
100
AcDbLine
 10
105.178684
 20
199.577544
 30
0.0
 11
103.046272
 21
203.073377
 31
0.0
  0
LINE
  5
264
100
AcDbEntity
  8
0095COMPONENTS
390
0
  6
KM_SOLID
 62
     4
100
AcDbLine
 10
114.336417
 20
173.823142
 30
0.0
 11
114.278902
 21
174.037792
 31
0.0
  0
LINE
  5
265
100
AcDbEntity
  8
0095COMPONENTS
390
0
  6
KM_SOLID
 62
     4
100
AcDbLine
 10
114.556204
 20
173.575285
 30
0.0
 11
114.548536
 21
173.603905
 31
0.0
  0
LINE
  5
266
100
AcDbEntity
  8
0095COMPONENTS
390
0
  6
KM_SOLID
 62
     4
100
AcDbLine
 10
114.751683
 20
173.70435
 30
0.0
 11
114.694167
 21
173.919001
 31
0.0
  0
LINE
  5
267
100
AcDbEntity
  8
0095COMPONENTS
390
0
  6
KM_SOLID
 62
     4
100
AcDbLine
 10
113.149876
 20
180.483737
 30
0.0
 11
112.638628
 21
182.391739
 31
0.0
  0
LINE
  5
268
100
AcDbEntity
  8
0095COMPONENTS
390
0
  6
KM_SOLID
 62
     4
100
AcDbLine
 10
113.557937
 20
172.452224
 30
0.0
 11
113.557937
 21
171.884323
 31
0.0
  0
LINE
  5
269
100
AcDbEntity
  8
0095COMPONENTS
390
0
  6
KM_SOLID
 62
     4
100
AcDbLine
 10
113.706085
 20
172.304076
 30
0.0
 11
113.706085
 21
171.736175
 31
0.0
  0
LINE
  5
26A
100
AcDbEntity
  8
0095COMPONENTS
390
0
  6
KM_SOLID
 62
     4
100
AcDbLine
 10
114.076455
 20
172.365545
 30
0.0
 11
114.076455
 21
172.439619
 31
0.0
  0
LINE
  5
26B
100
AcDbEntity
  8
0095COMPONENTS
390
0
  6
KM_SOLID
 62
   255
100
AcDbLine
 10
114.271651
 20
202.299714
 30
0.0
 11
114.271651
 21
200.899714
 31
0.0
  0
LINE
  5
26C
100
AcDbEntity
  8
0095COMPONENTS
390
0
  6
KM_SOLID
 62
     4
100
AcDbLine
 10
114.313492
 20
172.427533
 30
0.0
 11
114.313492
 21
172.649755
 31
0.0
  0
LINE
  5
26D
100
AcDbEntity
  8
0095COMPONENTS
390
0
  6
KM_SOLID
 62
   255
100
AcDbLine
 10
114.446651
 20
200.899714
 30
0.0
 11
114.446651
 21
201.525246
 31
0.0
  0
LINE
  5
26E
100
AcDbEntity
  8
0095COMPONENTS
390
0
  6
KM_SOLID
 62
   255
100
AcDbLine
 10
114.446651
 20
201.703969
 30
0.0
 11
114.446651
 21
202.150778
 31
0.0
  0
LINE
  5
26F
100
AcDbEntity
  8
0095COMPONENTS
390
0
  6
KM_SOLID
 62
     4
100
AcDbLine
 10
114.46164
 20
172.427533
 30
0.0
 11
114.46164
 21
172.649755
 31
0.0
  0
LINE
  5
270
100
AcDbEntity
  8
0095COMPONENTS
390
0
  6
KM_SOLID
 62
     4
100
AcDbLine
 10
114.609789
 20
172.131236
 30
0.0
 11
114.609789
 21
172.160866
 31
0.0
  0
LINE
  5
271
100
AcDbEntity
  8
0095COMPONENTS
390
0
  6
KM_SOLID
 62
     4
100
AcDbLine
 10
114.832011
 20
172.20531
 30
0.0
 11
114.832011
 21
172.427533
 31
0.0
  0
LINE
  5
272
100
AcDbEntity
  8
0095COMPONENTS
390
0
  6
KM_SOLID
 62
     4
100
AcDbLine
 10
115.039418
 20
179.168273
 30
0.0
 11
115.039418
 21
181.143582
 31
0.0
  0
LINE
  5
273
100
AcDbEntity
  8
0095COMPONENTS
390
0
  6
KM_SOLID
 62
   255
100
AcDbLine
 10
115.175818
 20
201.882693
 30
0.0
 11
115.146651
 21
201.793331
 31
0.0
  0
LINE
  5
274
100
AcDbEntity
  8
0095COMPONENTS
390
0
  6
KM_SOLID
 62
   255
100
AcDbLine
 10
115.321651
 20
201.763544
 30
0.0
 11
115.350818
 21
201.852905
 31
0.0
  0
LINE
  5
275
100
AcDbEntity
  8
0095COMPONENTS
390
0
  6
KM_SOLID
 62
     4
100
AcDbLine
 10
110.071148
 20
187.669859
 30
0.0
 11
110.801202
 21
188.225507
 31
0.0
  0
LINE
  5
276
100
AcDbEntity
  8
0095COMPONENTS
390
0
  6
KM_SOLID
 62
     4
100
AcDbLine
 10
106.224744
 20
186.496204
 30
0.0
 11
106.097085
 21
186.446204
 31
0.0
  0
LINE
  5
277
100
AcDbEntity
  8
0095COMPONENTS
390
0
  6
KM_SOLID
 62
   255
100
AcDbLine
 10
95.688989
 20
198.073377
 30
0.0
 11
96.821352
 21
198.073377
 31
0.0
  0
LINE
  5
278
100
AcDbEntity
  8
0095COMPONENTS
390
0
  6
KM_SOLID
 62
   255
100
AcDbLine
 10
99.332244
 20
198.073377
 30
0.0
 11
100.464608
 21
198.073377
 31
0.0
  0
LINE
  5
279
100
AcDbEntity
  8
0095COMPONENTS
390
0
  6
KM_SOLID
 62
   255
100
AcDbLine
 10
101.24003
 20
198.073377
 30
0.0
 11
102.372393
 21
198.073377
 31
0.0
  0
LINE
  5
27A
100
AcDbEntity
  8
0095COMPONENTS
390
0
  6
KM_SOLID
 62
   255
100
AcDbLine
 10
104.59404
 20
198.073377
 30
0.0
 11
106.311048
 21
198.073377
 31
0.0
  0
LINE
  5
27B
100
AcDbEntity
  8
0095COMPONENTS
390
0
  6
KM_SOLID
 62
   255
100
AcDbLine
 10
108.446535
 20
198.073377
 30
0.0
 11
109.578899
 21
198.073377
 31
0.0
  0
LINE
  5
27C
100
AcDbEntity
  8
0095COMPONENTS
390
0
  6
KM_SOLID
 62
   255
100
AcDbLine
 10
96.821352
 20
199.923377
 30
0.0
 11
99.332244
 21
199.923377
 31
0.0
  0
LINE
  5
27D
100
AcDbEntity
  8
0095COMPONENTS
390
0
  6
KM_SOLID
 62
   255
100
AcDbLine
 10
94.892027
 20
199.952544
 30
0.0
 11
93.778126
 21
199.952544
 31
0.0
  0
LINE
  5
27E
100
AcDbEntity
  8
0095COMPONENTS
390
0
  6
KM_SOLID
 62
   255
100
AcDbLine
 10
145.213322
 20
170.573377
 30
0.0
 11
144.513322
 21
171.073377
 31
0.0
  0
LINE
  5
27F
100
AcDbEntity
  8
0095COMPONENTS
390
0
  6
KM_SOLID
 62
     4
100
AcDbLine
 10
120.806872
 20
180.726204
 30
0.0
 11
120.743042
 21
180.819954
 31
0.0
  0
LINE
  5
280
100
AcDbEntity
  8
0095COMPONENTS
390
0
  6
KM_SOLID
 62
     4
100
AcDbLine
 10
121.477085
 20
181.351204
 30
0.0
 11
121.540914
 21
181.257454
 31
0.0
  0
LINE
  5
281
100
AcDbEntity
  8
0095COMPONENTS
390
0
  6
KM_SOLID
 62
     4
100
AcDbLine
 10
120.806872
 20
184.694953
 30
0.0
 11
120.743042
 21
184.788703
 31
0.0
  0
LINE
  5
282
100
AcDbEntity
  8
0095COMPONENTS
390
0
  6
KM_SOLID
 62
     4
100
AcDbLine
 10
120.870702
 20
184.788703
 30
0.0
 11
120.934531
 21
184.694953
 31
0.0
  0
LINE
  5
283
100
AcDbEntity
  8
0095COMPONENTS
390
0
  6
KM_SOLID
 62
     4
100
AcDbLine
 10
121.668574
 20
177.694954
 30
0.0
 11
121.700489
 21
177.632453
 31
0.0
  0
LINE
  5
284
100
AcDbEntity
  8
0095COMPONENTS
390
0
  6
KM_SOLID
 62
     4
100
AcDbLine
 10
120.934531
 20
180.819954
 30
0.0
 11
120.870702
 21
180.944953
 31
0.0
  0
LINE
  5
285
100
AcDbEntity
  8
0095COMPONENTS
390
0
  6
KM_SOLID
 62
     4
100
AcDbLine
 10
120.743042
 20
182.069953
 30
0.0
 11
120.774957
 21
182.007454
 31
0.0
  0
LINE
  5
286
100
AcDbEntity
  8
0095COMPONENTS
390
0
  6
KM_SOLID
 62
     4
100
AcDbLine
 10
121.668574
 20
181.319953
 30
0.0
 11
121.700489
 21
181.257454
 31
0.0
  0
LINE
  5
287
100
AcDbEntity
  8
0095COMPONENTS
390
0
  6
KM_SOLID
 62
     4
100
AcDbLine
 10
116.576422
 20
184.109706
 30
0.0
 11
116.410323
 21
184.536828
 31
0.0
  0
LINE
  5
288
100
AcDbEntity
  8
0095COMPONENTS
390
0
  6
KM_SOLID
 62
     4
100
AcDbLine
 10
117.952587
 20
182.318263
 30
0.0
 11
118.048452
 21
182.071746
 31
0.0
  0
LINE
  5
289
100
AcDbEntity
  8
0095COMPONENTS
390
0
  6
KM_SOLID
 62
     4
100
AcDbLine
 10
120.870702
 20
176.382454
 30
0.0
 11
120.838787
 21
176.476204
 31
0.0
  0
LINE
  5
28A
100
AcDbEntity
  8
0095COMPONENTS
390
0
  6
KM_SOLID
 62
     4
100
AcDbLine
 10
118.597235
 20
175.20558
 30
0.0
 11
118.216353
 21
176.341888
 31
0.0
  0
LINE
  5
28B
100
AcDbEntity
  8
0095COMPONENTS
390
0
  6
KM_SOLID
 62
     4
100
AcDbLine
 10
117.769799
 20
182.907581
 30
0.0
 11
117.952587
 21
182.318263
 31
0.0
  0
LINE
  5
28C
100
AcDbEntity
  8
0095COMPONENTS
390
0
  6
KM_SOLID
 62
     4
100
AcDbLine
 10
116.735071
 20
183.562729
 30
0.0
 11
116.576422
 21
184.109706
 31
0.0
  0
LINE
  5
28D
100
AcDbEntity
  8
0095COMPONENTS
390
0
  6
KM_SOLID
 62
     4
100
AcDbLine
 10
117.623684
 20
174.090465
 30
0.0
 11
115.827927
 21
180.792321
 31
0.0
  0
LINE
  5
28E
100
AcDbEntity
  8
0095COMPONENTS
390
0
  6
KM_SOLID
 62
     4
100
AcDbLine
 10
118.196085
 20
174.243839
 30
0.0
 11
118.107894
 21
174.57297
 31
0.0
  0
LINE
  5
28F
100
AcDbEntity
  8
0095COMPONENTS
390
0
  6
KM_SOLID
 62
     4
100
AcDbLine
 10
118.940205
 20
174.443226
 30
0.0
 11
118.852015
 21
174.772356
 31
0.0
  0
LINE
  5
290
100
AcDbEntity
  8
0095COMPONENTS
390
0
  6
KM_SOLID
 62
     4
100
AcDbLine
 10
119.197785
 20
174.512244
 30
0.0
 11
118.986896
 21
175.299295
 31
0.0
  0
LINE
  5
291
100
AcDbEntity
  8
0095COMPONENTS
390
0
  6
KM_SOLID
 62
     4
100
AcDbLine
 10
116.839343
 20
183.002836
 30
0.0
 11
116.735071
 21
183.562729
 31
0.0
  0
LINE
  5
292
100
AcDbEntity
  8
0095COMPONENTS
390
0
  6
KM_SOLID
 62
     4
100
AcDbLine
 10
115.878832
 20
187.551066
 30
0.0
 11
116.410323
 21
184.536828
 31
0.0
  0
LINE
  5
293
100
AcDbEntity
  8
0095COMPONENTS
390
0
  6
KM_SOLID
 62
     4
100
AcDbLine
 10
116.881273
 20
181.865941
 30
0.0
 11
117.039169
 21
180.970468
 31
0.0
  0
LINE
  5
294
100
AcDbEntity
  8
0095COMPONENTS
390
0
  6
KM_SOLID
 62
     4
100
AcDbLine
 10
117.58135
 20
184.125631
 30
0.0
 11
117.645655
 21
183.511977
 31
0.0
  0
LINE
  5
295
100
AcDbEntity
  8
0095COMPONENTS
390
0
  6
KM_SOLID
 62
     4
100
AcDbLine
 10
116.888234
 20
182.435418
 30
0.0
 11
116.839343
 21
183.002836
 31
0.0
  0
LINE
  5
296
100
AcDbEntity
  8
0095COMPONENTS
390
0
  6
KM_SOLID
 62
     4
100
AcDbLine
 10
118.683225
 20
176.424211
 30
0.0
 11
118.713953
 21
175.22616
 31
0.0
  0
LINE
  5
297
100
AcDbEntity
  8
0095COMPONENTS
390
0
  6
KM_SOLID
 62
     4
100
AcDbLine
 10
117.577503
 20
184.742633
 30
0.0
 11
117.58135
 21
184.125631
 31
0.0
  0
LINE
  5
298
100
AcDbEntity
  8
0095COMPONENTS
390
0
  6
KM_SOLID
 62
   255
100
AcDbLine
 10
115.175818
 20
201.972055
 30
0.0
 11
115.175818
 21
201.882693
 31
0.0
  0
LINE
  5
299
100
AcDbEntity
  8
0095COMPONENTS
390
0
  6
KM_SOLID
 62
   255
100
AcDbLine
 10
115.350818
 20
201.852905
 30
0.0
 11
115.350818
 21
201.972055
 31
0.0
  0
LINE
  5
29A
100
AcDbEntity
  8
0095COMPONENTS
390
0
  6
KM_SOLID
 62
     4
100
AcDbLine
 10
117.706085
 20
171.83494
 30
0.0
 11
117.706085
 21
178.668273
 31
0.0
  0
LINE
  5
29B
100
AcDbEntity
  8
0095COMPONENTS
390
0
  6
KM_SOLID
 62
     4
100
AcDbLine
 10
117.883863
 20
171.83494
 30
0.0
 11
117.883863
 21
172.175681
 31
0.0
  0
LINE
  5
29C
100
AcDbEntity
  8
0095COMPONENTS
390
0
  6
KM_SOLID
 62
     4
100
AcDbLine
 10
118.150529
 20
171.83494
 30
0.0
 11
118.150529
 21
172.649755
 31
0.0
  0
LINE
  5
29D
100
AcDbEntity
  8
0095COMPONENTS
390
0
  6
KM_SOLID
 62
     4
100
AcDbLine
 10
116.881273
 20
181.865941
 30
0.0
 11
116.888234
 21
182.435418
 31
0.0
  0
LINE
  5
29E
100
AcDbEntity
  8
0095COMPONENTS
390
0
  6
KM_SOLID
 62
     4
100
AcDbLine
 10
120.870702
 20
185.288704
 30
0.0
 11
120.966446
 21
185.319954
 31
0.0
  0
LINE
  5
29F
100
AcDbEntity
  8
0095COMPONENTS
390
0
  6
KM_SOLID
 62
   255
100
AcDbLine
 10
114.271651
 20
200.899714
 30
0.0
 11
114.446651
 21
200.899714
 31
0.0
  0
LINE
  5
2A0
100
AcDbEntity
  8
0095COMPONENTS
390
0
  6
KM_SOLID
 62
   255
100
AcDbLine
 10
115.175818
 20
200.899714
 30
0.0
 11
115.379985
 21
200.899714
 31
0.0
  0
LINE
  5
2A1
100
AcDbEntity
  8
0095COMPONENTS
390
0
  6
KM_SOLID
 62
   255
100
AcDbLine
 10
96.821352
 20
201.210877
 30
0.0
 11
100.464608
 21
201.210877
 31
0.0
  0
LINE
  5
2A2
100
AcDbEntity
  8
0095COMPONENTS
390
0
  6
KM_SOLID
 62
   255
100
AcDbLine
 10
93.778126
 20
201.260877
 30
0.0
 11
94.892027
 21
201.260877
 31
0.0
  0
LINE
  5
2A3
100
AcDbEntity
  8
0095COMPONENTS
390
0
  6
KM_SOLID
 62
   255
100
AcDbLine
 10
114.446651
 20
201.525246
 30
0.0
 11
114.942485
 21
201.525246
 31
0.0
  0
LINE
  5
2A4
100
AcDbEntity
  8
0095COMPONENTS
390
0
  6
KM_SOLID
 62
   255
100
AcDbLine
 10
115.000818
 20
201.703969
 30
0.0
 11
114.446651
 21
201.703969
 31
0.0
  0
LINE
  5
2A5
100
AcDbEntity
  8
0095COMPONENTS
390
0
  6
KM_SOLID
 62
   255
100
AcDbLine
 10
106.821842
 20
201.785877
 30
0.0
 11
108.446535
 21
201.785877
 31
0.0
  0
LINE
  5
2A6
100
AcDbEntity
  8
0095COMPONENTS
390
0
  6
KM_SOLID
 62
   255
100
AcDbLine
 10
109.578899
 20
201.785877
 30
0.0
 11
111.203594
 21
201.785877
 31
0.0
  0
LINE
  5
2A7
100
AcDbEntity
  8
0095COMPONENTS
390
0
  6
KM_SOLID
 62
   255
100
AcDbLine
 10
100.464608
 20
202.138297
 30
0.0
 11
99.332244
 21
202.138297
 31
0.0
  0
LINE
  5
2A8
100
AcDbEntity
  8
0095COMPONENTS
390
0
  6
KM_SOLID
 62
   255
100
AcDbLine
 10
114.446651
 20
202.150778
 30
0.0
 11
115.000818
 21
202.150778
 31
0.0
  0
LINE
  5
2A9
100
AcDbEntity
  8
0095COMPONENTS
390
0
  6
KM_SOLID
 62
   255
100
AcDbLine
 10
114.971651
 20
202.299714
 30
0.0
 11
114.271651
 21
202.299714
 31
0.0
  0
LINE
  5
2AA
100
AcDbEntity
  8
0095COMPONENTS
390
0
  6
KM_SOLID
 62
   255
100
AcDbLine
 10
111.203594
 20
203.073377
 30
0.0
 11
106.821842
 21
203.073377
 31
0.0
  0
LINE
  5
2AB
100
AcDbEntity
  8
0095COMPONENTS
390
0
  6
KM_SOLID
 62
   255
100
AcDbLine
 10
106.311048
 20
203.073377
 30
0.0
 11
105.178684
 21
203.073377
 31
0.0
  0
LINE
  5
2AC
100
AcDbEntity
  8
0095COMPONENTS
390
0
  6
KM_SOLID
 62
   255
100
AcDbLine
 10
103.046272
 20
203.073377
 30
0.0
 11
101.24003
 21
203.073377
 31
0.0
  0
LINE
  5
2AD
100
AcDbEntity
  8
0095COMPONENTS
390
0
  6
KM_SOLID
 62
   255
100
AcDbLine
 10
100.464608
 20
203.073377
 30
0.0
 11
99.332244
 21
203.073377
 31
0.0
  0
LINE
  5
2AE
100
AcDbEntity
  8
0095COMPONENTS
390
0
  6
KM_SOLID
 62
   255
100
AcDbLine
 10
96.821352
 20
203.073377
 30
0.0
 11
95.688989
 21
203.073377
 31
0.0
  0
LINE
  5
2AF
100
AcDbEntity
  8
0095COMPONENTS
390
0
  6
KM_SOLID
 62
   255
100
AcDbLine
 10
73.213322
 20
203.573377
 30
0.0
 11
73.713322
 21
203.573377
 31
0.0
  0
LINE
  5
2B0
100
AcDbEntity
  8
0095COMPONENTS
390
0
  6
KM_SOLID
 62
   255
100
AcDbLine
 10
135.713322
 20
203.573377
 30
0.0
 11
136.213322
 21
203.573377
 31
0.0
  0
LINE
  5
2B1
100
AcDbEntity
  8
0095COMPONENTS
390
0
  6
KM_SOLID
 62
   255
100
AcDbLine
 10
115.117485
 20
202.269927
 30
0.0
 11
114.971651
 21
202.299714
 31
0.0
  0
LINE
  5
2B2
100
AcDbEntity
  8
0095COMPONENTS
390
0
  6
KM_SOLID
 62
     4
100
AcDbLine
 10
121.700489
 20
182.569954
 30
0.0
 11
121.668574
 21
182.632453
 31
0.0
  0
LINE
  5
2B3
100
AcDbEntity
  8
0095COMPONENTS
390
0
  6
KM_SOLID
 62
   255
100
AcDbLine
 10
115.379985
 20
200.899714
 30
0.0
 11
115.117485
 21
201.58482
 31
0.0
  0
LINE
  5
2B4
100
AcDbEntity
  8
0095COMPONENTS
390
0
  6
KM_SOLID
 62
   255
100
AcDbLine
 10
114.942485
 20
201.525246
 30
0.0
 11
115.175818
 21
200.899714
 31
0.0
  0
LINE
  5
2B5
100
AcDbEntity
  8
0095COMPONENTS
390
0
  6
KM_SOLID
 62
   255
100
AcDbLine
 10
115.146651
 20
202.061416
 30
0.0
 11
115.175818
 21
201.972055
 31
0.0
  0
LINE
  5
2B6
100
AcDbEntity
  8
0095COMPONENTS
390
0
  6
KM_SOLID
 62
   255
100
AcDbLine
 10
115.350818
 20
201.972055
 30
0.0
 11
115.321651
 21
202.061416
 31
0.0
  0
LINE
  5
2B7
100
AcDbEntity
  8
0095COMPONENTS
390
0
  6
KM_SOLID
 62
     4
100
AcDbLine
 10
120.743042
 20
180.819954
 30
0.0
 11
120.711127
 21
180.944953
 31
0.0
  0
LINE
  5
2B8
100
AcDbEntity
  8
0095COMPONENTS
390
0
  6
KM_SOLID
 62
     4
100
AcDbLine
 10
121.604744
 20
177.507454
 30
0.0
 11
121.572829
 21
177.632453
 31
0.0
  0
LINE
  5
2B9
100
AcDbEntity
  8
0095COMPONENTS
390
0
  6
KM_SOLID
 62
     4
100
AcDbLine
 10
121.700489
 20
177.632453
 30
0.0
 11
121.732404
 21
177.507454
 31
0.0
  0
LINE
  5
2BA
100
AcDbEntity
  8
0095COMPONENTS
390
0
  6
KM_SOLID
 62
     4
100
AcDbLine
 10
120.711127
 20
182.194954
 30
0.0
 11
120.743042
 21
182.069953
 31
0.0
  0
LINE
  5
2BB
100
AcDbEntity
  8
0095COMPONENTS
390
0
  6
KM_SOLID
 62
     4
100
AcDbLine
 10
120.838787
 20
182.257453
 30
0.0
 11
120.870702
 21
182.132454
 31
0.0
  0
LINE
  5
2BC
100
AcDbEntity
  8
0095COMPONENTS
390
0
  6
KM_SOLID
 62
     4
100
AcDbLine
 10
121.540914
 20
181.257454
 30
0.0
 11
121.572829
 21
181.132453
 31
0.0
  0
LINE
  5
2BD
100
AcDbEntity
  8
0095COMPONENTS
390
0
  6
KM_SOLID
 62
     4
100
AcDbLine
 10
120.743042
 20
184.788703
 30
0.0
 11
120.711127
 21
184.913704
 31
0.0
  0
LINE
  5
2BE
100
AcDbEntity
  8
0095COMPONENTS
390
0
  6
KM_SOLID
 62
     4
100
AcDbLine
 10
121.700489
 20
181.257454
 30
0.0
 11
121.732404
 21
181.132453
 31
0.0
  0
LINE
  5
2BF
100
AcDbEntity
  8
0095COMPONENTS
390
0
  6
KM_SOLID
 62
     4
100
AcDbLine
 10
120.838787
 20
184.913704
 30
0.0
 11
120.870702
 21
184.788703
 31
0.0
  0
LINE
  5
2C0
100
AcDbEntity
  8
0095COMPONENTS
390
0
  6
KM_SOLID
 62
     4
100
AcDbLine
 10
121.604744
 20
182.382454
 30
0.0
 11
121.572829
 21
182.507454
 31
0.0
  0
LINE
  5
2C1
100
AcDbEntity
  8
0095COMPONENTS
390
0
  6
KM_SOLID
 62
     4
100
AcDbLine
 10
117.645655
 20
183.511977
 30
0.0
 11
117.769799
 21
182.907581
 31
0.0
  0
LINE
  5
2C2
100
AcDbEntity
  8
0095COMPONENTS
390
0
  6
KM_SOLID
 62
     4
100
AcDbLine
 10
121.030276
 20
176.507453
 30
0.0
 11
121.062191
 21
176.351204
 31
0.0
  0
LINE
  5
2C3
100
AcDbEntity
  8
0095COMPONENTS
390
0
  6
KM_SOLID
 62
     4
100
AcDbLine
 10
117.389323
 20
181.032209
 30
0.0
 11
118.216353
 21
176.341888
 31
0.0
  0
LINE
  5
2C4
100
AcDbEntity
  8
0095COMPONENTS
390
0
  6
KM_SOLID
 62
     4
100
AcDbLine
 10
117.266442
 20
181.933856
 30
0.0
 11
117.424338
 21
181.038383
 31
0.0
  0
LINE
  5
2C5
100
AcDbEntity
  8
0095COMPONENTS
390
0
  6
KM_SOLID
 62
     4
100
AcDbLine
 10
117.663283
 20
182.00383
 30
0.0
 11
117.821179
 21
181.108357
 31
0.0
  0
LINE
  5
2C6
100
AcDbEntity
  8
0095COMPONENTS
390
0
  6
KM_SOLID
 62
     4
100
AcDbLine
 10
117.856195
 20
181.114531
 30
0.0
 11
118.683225
 21
176.424211
 31
0.0
  0
LINE
  5
2C7
100
AcDbEntity
  8
0095COMPONENTS
390
0
  6
KM_SOLID
 62
     4
100
AcDbLine
 10
117.046011
 20
187.756872
 30
0.0
 11
117.577503
 21
184.742633
 31
0.0
  0
LINE
  5
2C8
100
AcDbEntity
  8
0095COMPONENTS
390
0
  6
KM_SOLID
 62
     4
100
AcDbLine
 10
118.048452
 20
182.071746
 30
0.0
 11
118.206348
 21
181.176273
 31
0.0
  0
LINE
  5
2C9
100
AcDbEntity
  8
0095COMPONENTS
390
0
  6
KM_SOLID
 62
     4
100
AcDbLine
 10
120.232404
 20
173.663704
 30
0.0
 11
120.232404
 21
173.851204
 31
0.0
  0
LINE
  5
2CA
100
AcDbEntity
  8
0095COMPONENTS
390
0
  6
KM_SOLID
 62
     4
100
AcDbLine
 10
120.232404
 20
175.601204
 30
0.0
 11
120.232404
 21
176.351204
 31
0.0
  0
LINE
  5
2CB
100
AcDbEntity
  8
0095COMPONENTS
390
0
  6
KM_SOLID
 62
     4
100
AcDbLine
 10
120.232404
 20
178.257454
 30
0.0
 11
120.232404
 21
178.413704
 31
0.0
  0
LINE
  5
2CC
100
AcDbEntity
  8
0095COMPONENTS
390
0
  6
KM_SOLID
 62
     4
100
AcDbLine
 10
120.232404
 20
178.663703
 30
0.0
 11
120.232404
 21
178.819954
 31
0.0
  0
LINE
  5
2CD
100
AcDbEntity
  8
0095COMPONENTS
390
0
  6
KM_SOLID
 62
     4
100
AcDbLine
 10
120.232404
 20
181.413703
 30
0.0
 11
120.232404
 21
181.569954
 31
0.0
  0
LINE
  5
2CE
100
AcDbEntity
  8
0095COMPONENTS
390
0
  6
KM_SOLID
 62
     4
100
AcDbLine
 10
120.391978
 20
176.382454
 30
0.0
 11
120.391978
 21
175.788704
 31
0.0
  0
LINE
  5
2CF
100
AcDbEntity
  8
0095COMPONENTS
390
0
  6
KM_SOLID
 62
     4
100
AcDbLine
 10
120.711127
 20
182.444953
 30
0.0
 11
120.711127
 21
182.194954
 31
0.0
  0
LINE
  5
2D0
100
AcDbEntity
  8
0095COMPONENTS
390
0
  6
KM_SOLID
 62
     4
100
AcDbLine
 10
120.711127
 20
177.007454
 30
0.0
 11
120.711127
 21
177.163703
 31
0.0
  0
LINE
  5
2D1
100
AcDbEntity
  8
0095COMPONENTS
390
0
  6
KM_SOLID
 62
     4
100
AcDbLine
 10
120.711127
 20
177.788704
 30
0.0
 11
120.711127
 21
177.944954
 31
0.0
  0
LINE
  5
2D2
100
AcDbEntity
  8
0095COMPONENTS
390
0
  6
KM_SOLID
 62
     4
100
AcDbLine
 10
120.711127
 20
180.944953
 30
0.0
 11
120.711127
 21
181.132453
 31
0.0
  0
LINE
  5
2D3
100
AcDbEntity
  8
0095COMPONENTS
390
0
  6
KM_SOLID
 62
     4
100
AcDbLine
 10
120.711127
 20
183.069954
 30
0.0
 11
120.711127
 21
183.226204
 31
0.0
  0
LINE
  5
2D4
100
AcDbEntity
  8
0095COMPONENTS
390
0
  6
KM_SOLID
 62
     4
100
AcDbLine
 10
120.711127
 20
183.569953
 30
0.0
 11
120.711127
 21
183.726204
 31
0.0
  0
LINE
  5
2D5
100
AcDbEntity
  8
0095COMPONENTS
390
0
  6
KM_SOLID
 62
     4
100
AcDbLine
 10
120.711127
 20
184.069954
 30
0.0
 11
120.711127
 21
184.226203
 31
0.0
  0
LINE
  5
2D6
100
AcDbEntity
  8
0095COMPONENTS
390
0
  6
KM_SOLID
 62
     4
100
AcDbLine
 10
120.711127
 20
184.476204
 30
0.0
 11
120.711127
 21
184.632454
 31
0.0
  0
LINE
  5
2D7
100
AcDbEntity
  8
0095COMPONENTS
390
0
  6
KM_SOLID
 62
     4
100
AcDbLine
 10
120.711127
 20
184.913704
 30
0.0
 11
120.711127
 21
185.038704
 31
0.0
  0
LINE
  5
2D8
100
AcDbEntity
  8
0095COMPONENTS
390
0
  6
KM_SOLID
 62
     4
100
AcDbLine
 10
120.838787
 20
182.382454
 30
0.0
 11
120.838787
 21
182.257453
 31
0.0
  0
LINE
  5
2D9
100
AcDbEntity
  8
0095COMPONENTS
390
0
  6
KM_SOLID
 62
     4
100
AcDbLine
 10
120.870702
 20
175.788704
 30
0.0
 11
120.870702
 21
176.382454
 31
0.0
  0
LINE
  5
2DA
100
AcDbEntity
  8
0095COMPONENTS
390
0
  6
KM_SOLID
 62
     4
100
AcDbLine
 10
120.870702
 20
180.944953
 30
0.0
 11
120.870702
 21
181.132453
 31
0.0
  0
LINE
  5
2DB
100
AcDbEntity
  8
0095COMPONENTS
390
0
  6
KM_SOLID
 62
     4
100
AcDbLine
 10
121.030276
 20
183.663703
 30
0.0
 11
121.030276
 21
183.632454
 31
0.0
  0
LINE
  5
2DC
100
AcDbEntity
  8
0095COMPONENTS
390
0
  6
KM_SOLID
 62
     4
100
AcDbLine
 10
121.062191
 20
176.351204
 30
0.0
 11
121.062191
 21
175.788704
 31
0.0
  0
LINE
  5
2DD
100
AcDbEntity
  8
0095COMPONENTS
390
0
  6
KM_SOLID
 62
     4
100
AcDbLine
 10
121.572829
 20
181.132453
 30
0.0
 11
121.572829
 21
181.007454
 31
0.0
  0
LINE
  5
2DE
100
AcDbEntity
  8
0095COMPONENTS
390
0
  6
KM_SOLID
 62
     4
100
AcDbLine
 10
121.604744
 20
177.382454
 30
0.0
 11
121.604744
 21
177.507454
 31
0.0
  0
LINE
  5
2DF
100
AcDbEntity
  8
0095COMPONENTS
390
0
  6
KM_SOLID
 62
     4
100
AcDbLine
 10
121.604744
 20
182.257453
 30
0.0
 11
121.604744
 21
182.382454
 31
0.0
  0
LINE
  5
2E0
100
AcDbEntity
  8
0095COMPONENTS
390
0
  6
KM_SOLID
 62
     4
100
AcDbLine
 10
121.732404
 20
185.351203
 30
0.0
 11
121.732404
 21
185.194954
 31
0.0
  0
LINE
  5
2E1
100
AcDbEntity
  8
0095COMPONENTS
390
0
  6
KM_SOLID
 62
     4
100
AcDbLine
 10
121.732404
 20
184.632454
 30
0.0
 11
121.732404
 21
184.476204
 31
0.0
  0
LINE
  5
2E2
100
AcDbEntity
  8
0095COMPONENTS
390
0
  6
KM_SOLID
 62
     4
100
AcDbLine
 10
121.732404
 20
183.976204
 30
0.0
 11
121.732404
 21
183.819954
 31
0.0
  0
LINE
  5
2E3
100
AcDbEntity
  8
0095COMPONENTS
390
0
  6
KM_SOLID
 62
     4
100
AcDbLine
 10
121.732404
 20
183.476203
 30
0.0
 11
121.732404
 21
183.319954
 31
0.0
  0
LINE
  5
2E4
100
AcDbEntity
  8
0095COMPONENTS
390
0
  6
KM_SOLID
 62
     4
100
AcDbLine
 10
121.732404
 20
181.569954
 30
0.0
 11
121.732404
 21
181.413703
 31
0.0
  0
LINE
  5
2E5
100
AcDbEntity
  8
0095COMPONENTS
390
0
  6
KM_SOLID
 62
     4
100
AcDbLine
 10
121.732404
 20
181.132453
 30
0.0
 11
121.732404
 21
180.944953
 31
0.0
  0
LINE
  5
2E6
100
AcDbEntity
  8
0095COMPONENTS
390
0
  6
KM_SOLID
 62
     4
100
AcDbLine
 10
121.732404
 20
178.819954
 30
0.0
 11
121.732404
 21
178.663703
 31
0.0
  0
LINE
  5
2E7
100
AcDbEntity
  8
0095COMPONENTS
390
0
  6
KM_SOLID
 62
     4
100
AcDbLine
 10
121.732404
 20
178.413704
 30
0.0
 11
121.732404
 21
178.257454
 31
0.0
  0
LINE
  5
2E8
100
AcDbEntity
  8
0095COMPONENTS
390
0
  6
KM_SOLID
 62
     4
100
AcDbLine
 10
121.732404
 20
178.007453
 30
0.0
 11
121.732404
 21
177.851204
 31
0.0
  0
LINE
  5
2E9
100
AcDbEntity
  8
0095COMPONENTS
390
0
  6
KM_SOLID
 62
     4
100
AcDbLine
 10
121.732404
 20
177.507454
 30
0.0
 11
121.732404
 21
177.382454
 31
0.0
  0
LINE
  5
2EA
100
AcDbEntity
  8
0095COMPONENTS
390
0
  6
KM_SOLID
 62
     4
100
AcDbLine
 10
121.732404
 20
175.788704
 30
0.0
 11
121.732404
 21
175.601204
 31
0.0
  0
LINE
  5
2EB
100
AcDbEntity
  8
0095COMPONENTS
390
0
  6
KM_SOLID
 62
     4
100
AcDbLine
 10
121.732404
 20
173.851204
 30
0.0
 11
121.732404
 21
173.663704
 31
0.0
  0
LINE
  5
2EC
100
AcDbEntity
  8
0095COMPONENTS
390
0
  6
KM_SOLID
 62
     4
100
AcDbLine
 10
121.732404
 20
182.194954
 30
0.0
 11
121.732404
 21
182.444953
 31
0.0
  0
LINE
  5
2ED
100
AcDbEntity
  8
0095COMPONENTS
390
0
  6
KM_SOLID
 62
   255
100
AcDbLine
 10
121.913322
 20
161.774377
 30
0.0
 11
121.913322
 21
161.274377
 31
0.0
  0
LINE
  5
2EE
100
AcDbEntity
  8
0095COMPONENTS
390
0
  6
KM_SOLID
 62
     4
100
AcDbLine
 10
120.870702
 20
185.038704
 30
0.0
 11
120.838787
 21
184.913704
 31
0.0
  0
LINE
  5
2EF
100
AcDbEntity
  8
0095COMPONENTS
390
0
  6
KM_SOLID
 62
     4
100
AcDbLine
 10
120.711127
 20
185.038704
 30
0.0
 11
120.743042
 21
185.132454
 31
0.0
  0
LINE
  5
2F0
100
AcDbEntity
  8
0095COMPONENTS
390
0
  6
KM_SOLID
 62
   255
100
AcDbLine
 10
135.713322
 20
203.573377
 30
0.0
 11
136.213322
 21
204.073377
 31
0.0
  0
LINE
  5
2F1
100
AcDbEntity
  8
0095COMPONENTS
390
0
  6
KM_SOLID
 62
     4
100
AcDbLine
 10
120.806872
 20
185.226204
 30
0.0
 11
120.870702
 21
185.288704
 31
0.0
  0
LINE
  5
2F2
100
AcDbEntity
  8
0095COMPONENTS
390
0
  6
KM_SOLID
 62
     4
100
AcDbLine
 10
120.966446
 20
185.163703
 30
0.0
 11
120.902616
 21
185.101204
 31
0.0
  0
LINE
  5
2F3
100
AcDbEntity
  8
0095COMPONENTS
390
0
  6
KM_SOLID
 62
     4
100
AcDbLine
 10
121.030276
 20
182.788704
 30
0.0
 11
120.934531
 21
182.757454
 31
0.0
  0
LINE
  5
2F4
100
AcDbEntity
  8
0095COMPONENTS
390
0
  6
KM_SOLID
 62
   255
100
AcDbLine
 10
135.213322
 20
207.073377
 30
0.0
 11
127.213322
 21
207.073377
 31
0.0
  0
LINE
  5
2F5
100
AcDbEntity
  8
0095COMPONENTS
390
0
  6
KM_SOLID
 62
   255
100
AcDbLine
 10
82.213322
 20
207.073377
 30
0.0
 11
74.213322
 21
207.073377
 31
0.0
  0
LINE
  5
2F6
100
AcDbEntity
  8
0095COMPONENTS
390
0
  6
KM_SOLID
 62
   255
100
AcDbLine
 10
75.113322
 20
207.173377
 30
0.0
 11
77.913322
 21
207.173377
 31
0.0
  0
LINE
  5
2F7
100
AcDbEntity
  8
0095COMPONENTS
390
0
  6
KM_SOLID
 62
   255
100
AcDbLine
 10
131.513322
 20
207.173377
 30
0.0
 11
134.313322
 21
207.173377
 31
0.0
  0
LINE
  5
2F8
100
AcDbEntity
  8
0095COMPONENTS
390
0
  6
KM_SOLID
 62
   255
100
AcDbLine
 10
115.000818
 20
202.150778
 30
0.0
 11
115.088318
 21
202.120991
 31
0.0
  0
LINE
  5
2F9
100
AcDbEntity
  8
0095COMPONENTS
390
0
  6
KM_SOLID
 62
   255
100
AcDbLine
 10
145.213322
 20
187.573377
 30
0.0
 11
144.213322
 21
188.073377
 31
0.0
  0
LINE
  5
2FA
100
AcDbEntity
  8
0095COMPONENTS
390
0
  6
KM_SOLID
 62
   255
100
AcDbLine
 10
115.234151
 20
202.180565
 30
0.0
 11
115.117485
 21
202.269927
 31
0.0
  0
LINE
  5
2FB
100
AcDbEntity
  8
0095COMPONENTS
390
0
  6
KM_SOLID
 62
   255
100
AcDbLine
 10
115.088318
 20
202.120991
 30
0.0
 11
115.146651
 21
202.061416
 31
0.0
  0
LINE
  5
2FC
100
AcDbEntity
  8
0095COMPONENTS
390
0
  6
KM_SOLID
 62
   255
100
AcDbLine
 10
115.321651
 20
202.061416
 30
0.0
 11
115.234151
 21
202.180565
 31
0.0
  0
LINE
  5
2FD
100
AcDbEntity
  8
0095COMPONENTS
390
0
  6
KM_SOLID
 62
   255
100
AcDbLine
 10
129.115868
 20
185.92239
 30
0.0
 11
111.310776
 21
211.224364
 31
0.0
  0
LINE
  5
2FE
100
AcDbEntity
  8
0095COMPONENTS
390
0
  6
KM_SOLID
 62
     4
100
AcDbLine
 10
121.732404
 20
182.444953
 30
0.0
 11
121.700489
 21
182.569954
 31
0.0
  0
LINE
  5
2FF
100
AcDbEntity
  8
0095COMPONENTS
390
0
  6
KM_SOLID
 62
   255
100
AcDbLine
 10
123.213322
 20
223.073377
 30
0.0
 11
123.213322
 21
222.934076
 31
0.0
  0
LINE
  5
300
100
AcDbEntity
  8
0095COMPONENTS
390
0
  6
KM_SOLID
 62
   255
100
AcDbLine
 10
123.213322
 20
163.073377
 30
0.0
 11
123.213322
 21
161.373377
 31
0.0
  0
LINE
  5
301
100
AcDbEntity
  8
0095COMPONENTS
390
0
  6
KM_SOLID
 62
   255
100
AcDbLine
 10
123.413322
 20
159.773377
 30
0.0
 11
123.413322
 21
161.373377
 31
0.0
  0
LINE
  5
302
100
AcDbEntity
  8
0095COMPONENTS
390
0
  6
KM_SOLID
 62
   255
100
AcDbLine
 10
124.713322
 20
223.946
 30
0.0
 11
124.713322
 21
223.073377
 31
0.0
  0
LINE
  5
303
100
AcDbEntity
  8
0095COMPONENTS
390
0
  6
KM_SOLID
 62
   255
100
AcDbLine
 10
125.713322
 20
159.873377
 30
0.0
 11
125.713322
 21
161.373377
 31
0.0
  0
LINE
  5
304
100
AcDbEntity
  8
0095COMPONENTS
390
0
  6
KM_SOLID
 62
     4
100
AcDbLine
 10
120.232404
 20
176.351204
 30
0.0
 11
120.264319
 21
176.507453
 31
0.0
  0
LINE
  5
305
100
AcDbEntity
  8
0095COMPONENTS
390
0
  6
KM_SOLID
 62
     4
100
AcDbLine
 10
120.743042
 20
182.569954
 30
0.0
 11
120.711127
 21
182.444953
 31
0.0
  0
LINE
  5
306
100
AcDbEntity
  8
0095COMPONENTS
390
0
  6
KM_SOLID
 62
     4
100
AcDbLine
 10
120.870702
 20
182.507454
 30
0.0
 11
120.838787
 21
182.382454
 31
0.0
  0
LINE
  5
307
100
AcDbEntity
  8
0095COMPONENTS
390
0
  6
KM_SOLID
 62
     4
100
AcDbLine
 10
120.711127
 20
181.132453
 30
0.0
 11
120.743042
 21
181.257454
 31
0.0
  0
LINE
  5
308
100
AcDbEntity
  8
0095COMPONENTS
390
0
  6
KM_SOLID
 62
     4
100
AcDbLine
 10
120.870702
 20
181.132453
 30
0.0
 11
120.902616
 21
181.257454
 31
0.0
  0
LINE
  5
309
100
AcDbEntity
  8
0095COMPONENTS
390
0
  6
KM_SOLID
 62
     4
100
AcDbLine
 10
121.572829
 20
182.132454
 30
0.0
 11
121.604744
 21
182.257453
 31
0.0
  0
LINE
  5
30A
100
AcDbEntity
  8
0095COMPONENTS
390
0
  6
KM_SOLID
 62
     4
100
AcDbLine
 10
121.700489
 20
182.069953
 30
0.0
 11
121.732404
 21
182.194954
 31
0.0
  0
LINE
  5
30B
100
AcDbEntity
  8
0095COMPONENTS
390
0
  6
KM_SOLID
 62
     4
100
AcDbLine
 10
121.572829
 20
181.007454
 30
0.0
 11
121.540914
 21
180.882454
 31
0.0
  0
LINE
  5
30C
100
AcDbEntity
  8
0095COMPONENTS
390
0
  6
KM_SOLID
 62
     4
100
AcDbLine
 10
121.732404
 20
180.944953
 30
0.0
 11
121.700489
 21
180.819954
 31
0.0
  0
LINE
  5
30D
100
AcDbEntity
  8
0095COMPONENTS
390
0
  6
KM_SOLID
 62
     4
100
AcDbLine
 10
121.732404
 20
177.382454
 30
0.0
 11
121.700489
 21
177.257453
 31
0.0
  0
LINE
  5
30E
100
AcDbEntity
  8
0095COMPONENTS
390
0
  6
KM_SOLID
 62
     4
100
AcDbLine
 10
120.423893
 20
176.476204
 30
0.0
 11
120.391978
 21
176.382454
 31
0.0
  0
LINE
  5
30F
100
AcDbEntity
  8
0095COMPONENTS
390
0
  6
KM_SOLID
 62
     4
100
AcDbLine
 10
120.902616
 20
185.101204
 30
0.0
 11
120.870702
 21
185.038704
 31
0.0
  0
LINE
  5
310
100
AcDbEntity
  8
0095COMPONENTS
390
0
  6
KM_SOLID
 62
     4
100
AcDbLine
 10
120.774957
 20
182.632453
 30
0.0
 11
120.743042
 21
182.569954
 31
0.0
  0
LINE
  5
311
100
AcDbEntity
  8
0095COMPONENTS
390
0
  6
KM_SOLID
 62
     4
100
AcDbLine
 10
120.743042
 20
181.257454
 30
0.0
 11
120.774957
 21
181.319953
 31
0.0
  0
LINE
  5
312
100
AcDbEntity
  8
0095COMPONENTS
390
0
  6
KM_SOLID
 62
     4
100
AcDbLine
 10
121.668574
 20
182.007454
 30
0.0
 11
121.700489
 21
182.069953
 31
0.0
  0
LINE
  5
313
100
AcDbEntity
  8
0095COMPONENTS
390
0
  6
KM_SOLID
 62
     4
100
AcDbLine
 10
120.743042
 20
185.132454
 30
0.0
 11
120.806872
 21
185.226204
 31
0.0
  0
LINE
  5
314
100
AcDbEntity
  8
0095COMPONENTS
390
0
  6
KM_SOLID
 62
     4
100
AcDbLine
 10
120.902616
 20
181.257454
 30
0.0
 11
120.966446
 21
181.351204
 31
0.0
  0
LINE
  5
315
100
AcDbEntity
  8
0095COMPONENTS
390
0
  6
KM_SOLID
 62
     4
100
AcDbLine
 10
121.540914
 20
180.882454
 30
0.0
 11
121.477085
 21
180.788704
 31
0.0
  0
LINE
  5
316
100
AcDbEntity
  8
0095COMPONENTS
390
0
  6
KM_SOLID
 62
     4
100
AcDbLine
 10
121.700489
 20
180.819954
 30
0.0
 11
121.636659
 21
180.726204
 31
0.0
  0
LINE
  5
317
100
AcDbEntity
  8
0095COMPONENTS
390
0
  6
KM_SOLID
 62
     4
100
AcDbLine
 10
120.838787
 20
182.694954
 30
0.0
 11
120.774957
 21
182.632453
 31
0.0
  0
LINE
  5
318
100
AcDbEntity
  8
0095COMPONENTS
390
0
  6
KM_SOLID
 62
     4
100
AcDbLine
 10
120.934531
 20
182.569954
 30
0.0
 11
120.870702
 21
182.507454
 31
0.0
  0
LINE
  5
319
100
AcDbEntity
  8
0095COMPONENTS
390
0
  6
KM_SOLID
 62
     4
100
AcDbLine
 10
121.508999
 20
182.069953
 30
0.0
 11
121.572829
 21
182.132454
 31
0.0
  0
LINE
  5
31A
100
AcDbEntity
  8
0095COMPONENTS
390
0
  6
KM_SOLID
 62
     4
100
AcDbLine
 10
120.774957
 20
181.319953
 30
0.0
 11
120.838787
 21
181.382454
 31
0.0
  0
LINE
  5
31B
100
AcDbEntity
  8
0095COMPONENTS
390
0
  6
KM_SOLID
 62
     4
100
AcDbLine
 10
121.604744
 20
181.944954
 30
0.0
 11
121.668574
 21
182.007454
 31
0.0
  0
LINE
  5
31C
100
AcDbEntity
  8
0095COMPONENTS
390
0
  6
KM_SOLID
 62
     4
100
AcDbLine
 10
121.636659
 20
180.726204
 30
0.0
 11
121.540914
 21
180.632454
 31
0.0
  0
LINE
  5
31D
100
AcDbEntity
  8
0095COMPONENTS
390
0
  6
KM_SOLID
 62
     4
100
AcDbLine
 10
109.594767
 20
172.229323
 30
0.0
 11
108.880195
 21
171.747654
 31
0.0
  0
LINE
  5
31E
100
AcDbEntity
  8
0095COMPONENTS
390
0
  6
KM_SOLID
 62
     4
100
AcDbLine
 10
120.934531
 20
182.757454
 30
0.0
 11
120.838787
 21
182.694954
 31
0.0
  0
LINE
  5
31F
100
AcDbEntity
  8
0095COMPONENTS
390
0
  6
KM_SOLID
 62
     4
100
AcDbLine
 10
121.030276
 20
182.632453
 30
0.0
 11
120.934531
 21
182.569954
 31
0.0
  0
LINE
  5
320
100
AcDbEntity
  8
0095COMPONENTS
390
0
  6
KM_SOLID
 62
     4
100
AcDbLine
 10
121.413255
 20
182.007454
 30
0.0
 11
121.508999
 21
182.069953
 31
0.0
  0
LINE
  5
321
100
AcDbEntity
  8
0095COMPONENTS
390
0
  6
KM_SOLID
 62
     4
100
AcDbLine
 10
121.508999
 20
181.882453
 30
0.0
 11
121.604744
 21
181.944954
 31
0.0
  0
LINE
  5
322
100
AcDbEntity
  8
0095COMPONENTS
390
0
  6
KM_SOLID
 62
     4
100
AcDbLine
 10
120.966446
 20
181.351204
 30
0.0
 11
121.062191
 21
181.413703
 31
0.0
  0
LINE
  5
323
100
AcDbEntity
  8
0095COMPONENTS
390
0
  6
KM_SOLID
 62
     4
100
AcDbLine
 10
120.838787
 20
181.382454
 30
0.0
 11
120.902616
 21
181.413703
 31
0.0
  0
LINE
  5
324
100
AcDbEntity
  8
0095COMPONENTS
390
0
  6
KM_SOLID
 62
     4
100
AcDbLine
 10
121.540914
 20
180.632454
 30
0.0
 11
121.477085
 21
180.601204
 31
0.0
  0
LINE
  5
325
100
AcDbEntity
  8
0095COMPONENTS
390
0
  6
KM_SOLID
 62
     4
100
AcDbLine
 10
121.477085
 20
180.788704
 30
0.0
 11
121.31751
 21
180.726204
 31
0.0
  0
LINE
  5
326
100
AcDbEntity
  8
0095COMPONENTS
390
0
  6
KM_SOLID
 62
     4
100
AcDbLine
 10
121.732404
 20
177.851204
 30
0.0
 11
121.572829
 21
177.788704
 31
0.0
  0
LINE
  5
327
100
AcDbEntity
  8
0095COMPONENTS
390
0
  6
KM_SOLID
 62
     4
100
AcDbLine
 10
121.349425
 20
177.163703
 30
0.0
 11
121.44517
 21
177.194954
 31
0.0
  0
LINE
  5
328
100
AcDbEntity
  8
0095COMPONENTS
390
0
  6
KM_SOLID
 62
   255
100
AcDbLine
 10
135.713322
 20
188.573377
 30
0.0
 11
136.213322
 21
188.073377
 31
0.0
  0
LINE
  5
329
100
AcDbEntity
  8
0095COMPONENTS
390
0
  6
KM_SOLID
 62
   255
100
AcDbLine
 10
127.213322
 20
220.784579
 30
0.0
 11
127.213322
 21
207.073377
 31
0.0
  0
LINE
  5
32A
100
AcDbEntity
  8
0095COMPONENTS
390
0
  6
KM_SOLID
 62
     4
100
AcDbLine
 10
121.540914
 20
177.257453
 30
0.0
 11
121.604744
 21
177.382454
 31
0.0
  0
LINE
  5
32B
100
AcDbEntity
  8
0095COMPONENTS
390
0
  6
KM_SOLID
 62
     4
100
AcDbLine
 10
121.700489
 20
177.257453
 30
0.0
 11
121.636659
 21
177.163703
 31
0.0
  0
LINE
  5
32C
100
AcDbEntity
  8
0095COMPONENTS
390
0
  6
KM_SOLID
 62
     4
100
AcDbLine
 10
120.264319
 20
176.507453
 30
0.0
 11
120.360063
 21
176.632454
 31
0.0
  0
LINE
  5
32D
100
AcDbEntity
  8
0095COMPONENTS
390
0
  6
KM_SOLID
 62
     4
100
AcDbLine
 10
120.487723
 20
176.538704
 30
0.0
 11
120.423893
 21
176.476204
 31
0.0
  0
LINE
  5
32E
100
AcDbEntity
  8
0095COMPONENTS
390
0
  6
KM_SOLID
 62
     4
100
AcDbLine
 10
121.636659
 20
177.163703
 30
0.0
 11
121.540914
 21
177.069953
 31
0.0
  0
LINE
  5
32F
100
AcDbEntity
  8
0095COMPONENTS
390
0
  6
KM_SOLID
 62
     4
100
AcDbLine
 10
120.360063
 20
176.632454
 30
0.0
 11
120.487723
 21
176.726204
 31
0.0
  0
LINE
  5
330
100
AcDbEntity
  8
0095COMPONENTS
390
0
  6
KM_SOLID
 62
     4
100
AcDbLine
 10
118.852015
 20
174.772356
 30
0.0
 11
119.084366
 21
174.93553
 31
0.0
  0
LINE
  5
331
100
AcDbEntity
  8
0095COMPONENTS
390
0
  6
KM_SOLID
 62
     4
100
AcDbLine
 10
121.44517
 20
177.194954
 30
0.0
 11
121.540914
 21
177.257453
 31
0.0
  0
LINE
  5
332
100
AcDbEntity
  8
0095COMPONENTS
390
0
  6
KM_SOLID
 62
     4
100
AcDbLine
 10
114.548536
 20
173.603905
 30
0.0
 11
114.751683
 21
173.70435
 31
0.0
  0
LINE
  5
333
100
AcDbEntity
  8
0095COMPONENTS
390
0
  6
KM_SOLID
 62
     4
100
AcDbLine
 10
121.668574
 20
177.976204
 30
0.0
 11
121.732404
 21
178.007453
 31
0.0
  0
LINE
  5
334
100
AcDbEntity
  8
0095COMPONENTS
390
0
  6
KM_SOLID
 62
     4
100
AcDbLine
 10
121.540914
 20
177.069953
 30
0.0
 11
121.477085
 21
177.038704
 31
0.0
  0
LINE
  5
335
100
AcDbEntity
  8
0095COMPONENTS
390
0
  6
KM_SOLID
 62
     4
100
AcDbLine
 10
109.469048
 20
172.146051
 30
0.0
 11
108.654113
 21
171.83494
 31
0.0
  0
LINE
  5
336
100
AcDbEntity
  8
0095COMPONENTS
390
0
  6
KM_SOLID
 62
     4
100
AcDbLine
 10
120.487723
 20
176.726204
 30
0.0
 11
120.583467
 21
176.757454
 31
0.0
  0
LINE
  5
337
100
AcDbEntity
  8
0095COMPONENTS
390
0
  6
KM_SOLID
 62
     4
100
AcDbLine
 10
120.583467
 20
176.569954
 30
0.0
 11
120.487723
 21
176.538704
 31
0.0
  0
LINE
  5
338
100
AcDbEntity
  8
0095COMPONENTS
390
0
  6
KM_SOLID
 62
   255
100
AcDbLine
 10
109.675163
 20
212.073377
 30
0.0
 11
90.713322
 21
212.073377
 31
0.0
  0
LINE
  5
339
100
AcDbEntity
  8
0095COMPONENTS
390
0
  6
KM_SOLID
 62
   255
100
AcDbLine
 10
131.513322
 20
207.073377
 30
0.0
 11
131.513322
 21
207.173377
 31
0.0
  0
LINE
  5
33A
100
AcDbEntity
  8
0095COMPONENTS
390
0
  6
KM_SOLID
 62
   255
100
AcDbLine
 10
131.930343
 20
207.073377
 30
0.0
 11
131.930343
 21
207.173377
 31
0.0
  0
LINE
  5
33B
100
AcDbEntity
  8
0095COMPONENTS
390
0
  6
KM_SOLID
 62
   255
100
AcDbLine
 10
132.406939
 20
207.073377
 30
0.0
 11
132.406939
 21
207.173377
 31
0.0
  0
LINE
  5
33C
100
AcDbEntity
  8
0095COMPONENTS
390
0
  6
KM_SOLID
 62
     4
100
AcDbLine
 10
121.528435
 20
171.746165
 30
0.0
 11
122.244741
 21
172.28076
 31
0.0
  0
LINE
  5
33D
100
AcDbEntity
  8
0095COMPONENTS
390
0
  6
KM_SOLID
 62
     4
100
AcDbLine
 10
117.883863
 20
172.175681
 30
0.0
 11
118.150529
 21
172.273158
 31
0.0
  0
LINE
  5
33E
100
AcDbEntity
  8
0095COMPONENTS
390
0
  6
KM_SOLID
 62
   255
100
AcDbLine
 10
136.213322
 20
206.573377
 30
0.0
 11
135.213322
 21
207.073377
 31
0.0
  0
LINE
  5
33F
100
AcDbEntity
  8
0095COMPONENTS
390
0
  6
KM_SOLID
 62
   255
100
AcDbLine
 10
134.313322
 20
207.073377
 30
0.0
 11
134.313322
 21
207.173377
 31
0.0
  0
LINE
  5
340
100
AcDbEntity
  8
0095COMPONENTS
390
0
  6
KM_SOLID
 62
   255
100
AcDbLine
 10
135.713322
 20
188.573377
 30
0.0
 11
135.713322
 21
203.573377
 31
0.0
  0
LINE
  5
341
100
AcDbEntity
  8
0095COMPONENTS
390
0
  6
KM_SOLID
 62
   255
100
AcDbLine
 10
136.213322
 20
188.073377
 30
0.0
 11
136.213322
 21
206.573377
 31
0.0
  0
LINE
  5
342
100
AcDbEntity
  8
0095COMPONENTS
390
0
  6
KM_SOLID
 62
   255
100
AcDbLine
 10
145.213322
 20
185.573377
 30
0.0
 11
144.513322
 21
185.073377
 31
0.0
  0
LINE
  5
343
100
AcDbEntity
  8
0095COMPONENTS
390
0
  6
KM_SOLID
 62
   255
100
AcDbLine
 10
126.006106
 20
167.980593
 30
0.0
 11
129.120539
 21
170.16616
 31
0.0
  0
LINE
  5
344
100
AcDbEntity
  8
0095COMPONENTS
390
0
  6
KM_SOLID
 62
   255
100
AcDbLine
 10
124.713322
 20
223.073377
 30
0.0
 11
122.048546
 21
223.073377
 31
0.0
  0
LINE
  5
345
100
AcDbEntity
  8
0095COMPONENTS
390
0
  6
KM_SOLID
 62
   255
100
AcDbLine
 10
124.713322
 20
223.946
 30
0.0
 11
109.713322
 21
223.946
 31
0.0
  0
LINE
  5
346
100
AcDbEntity
  8
0095COMPONENTS
390
0
  6
KM_SOLID
 62
   255
100
AcDbLine
 10
124.439078
 20
224.392133
 30
0.0
 11
109.987566
 21
224.392133
 31
0.0
  0
LINE
  5
347
100
AcDbEntity
  8
0095COMPONENTS
390
0
  6
KM_SOLID
 62
   255
100
AcDbLine
 10
110.963322
 20
225.273377
 30
0.0
 11
123.463322
 21
225.273377
 31
0.0
  0
LINE
  5
348
100
AcDbEntity
  8
0095COMPONENTS
390
0
  6
KM_SOLID
 62
   255
100
AcDbLine
 10
123.213322
 20
162.353174
 30
0.0
 11
121.913322
 21
161.774377
 31
0.0
  0
LINE
  5
349
100
AcDbEntity
  8
0095COMPONENTS
390
0
  6
KM_SOLID
 62
   255
100
AcDbLine
 10
144.713322
 20
185.073377
 30
0.0
 11
144.713322
 21
171.073377
 31
0.0
  0
LINE
  5
34A
100
AcDbEntity
  8
0095COMPONENTS
390
0
  6
KM_SOLID
 62
   255
100
AcDbLine
 10
145.213322
 20
157.573377
 30
0.0
 11
145.213322
 21
187.573377
 31
0.0
  0
LINE
  5
34B
100
AcDbEntity
  8
0095COMPONENTS
390
0
  6
KM_SOLID
 62
   255
100
AcDbLine
 10
148.108505
 20
159.773377
 30
0.0
 11
148.108505
 21
157.573377
 31
0.0
  0
LINE
  5
34C
100
AcDbEntity
  8
0095COMPONENTS
390
0
  6
KM_SOLID
 62
   255
100
AcDbLine
 10
149.213322
 20
160.298276
 30
0.0
 11
149.213322
 21
163.073377
 31
0.0
  0
LINE
  5
34D
100
AcDbEntity
  8
0095COMPONENTS
390
0
  6
KM_SOLID
 62
   255
100
AcDbLine
 10
150.213322
 20
157.573377
 30
0.0
 11
150.213322
 21
163.073377
 31
0.0
  0
LINE
  5
34E
100
AcDbEntity
  8
0095COMPONENTS
390
0
  6
KM_SOLID
 62
   255
100
AcDbLine
 10
148.108505
 20
159.773377
 30
0.0
 11
150.213322
 21
160.773377
 31
0.0
  0
LINE
  5
34F
100
AcDbEntity
  8
0095COMPONENTS
390
0
  6
KM_SOLID
 62
   255
100
AcDbLine
 10
205.902623
 20
154.238412
 30
0.0
 11
215.288623
 21
154.238412
 31
0.0
  0
LINE
  5
350
100
AcDbEntity
  8
0095COMPONENTS
390
0
  6
KM_SOLID
 62
   255
100
AcDbLine
 10
213.345623
 20
157.238412
 30
0.0
 11
212.350616
 21
157.238412
 31
0.0
  0
LINE
  5
351
100
AcDbEntity
  8
0095COMPONENTS
390
0
  6
KM_SOLID
 62
   255
100
AcDbLine
 10
208.84063
 20
157.238412
 30
0.0
 11
207.845623
 21
157.238412
 31
0.0
  0
LINE
  5
352
100
AcDbEntity
  8
0095COMPONENTS
390
0
  6
KM_SOLID
 62
   255
100
AcDbLine
 10
201.595623
 20
159.238412
 30
0.0
 11
219.395623
 21
159.238412
 31
0.0
  0
LINE
  5
353
100
AcDbEntity
  8
0095COMPONENTS
390
0
  6
KM_SOLID
 62
   255
100
AcDbLine
 10
201.595623
 20
160.238412
 30
0.0
 11
219.395623
 21
160.238412
 31
0.0
  0
LINE
  5
354
100
AcDbEntity
  8
0095COMPONENTS
390
0
  6
KM_SOLID
 62
   255
100
AcDbLine
 10
202.780623
 20
228.980965
 30
0.0
 11
202.955623
 21
229.040539
 31
0.0
  0
LINE
  5
355
100
AcDbEntity
  8
0095COMPONENTS
390
0
  6
KM_SOLID
 62
   255
100
AcDbLine
 10
202.745623
 20
229.278837
 30
0.0
 11
202.605623
 21
229.159688
 31
0.0
  0
LINE
  5
356
100
AcDbEntity
  8
0095COMPONENTS
390
0
  6
KM_SOLID
 62
   255
100
AcDbLine
 10
203.305623
 20
228.206497
 30
0.0
 11
203.095623
 21
228.087348
 31
0.0
  0
LINE
  5
357
100
AcDbEntity
  8
0095COMPONENTS
390
0
  6
KM_SOLID
 62
   255
100
AcDbLine
 10
203.165623
 20
226.538412
 30
0.0
 11
203.305623
 21
226.597986
 31
0.0
  0
LINE
  5
358
100
AcDbEntity
  8
0095COMPONENTS
390
0
  6
KM_SOLID
 62
   255
100
AcDbLine
 10
203.305623
 20
226.895858
 30
0.0
 11
203.130623
 21
226.836284
 31
0.0
  0
LINE
  5
359
100
AcDbEntity
  8
0095COMPONENTS
390
0
  6
KM_SOLID
 62
   255
100
AcDbLine
 10
201.595623
 20
168.238412
 30
0.0
 11
219.395623
 21
168.238412
 31
0.0
  0
LINE
  5
35A
100
AcDbEntity
  8
0095COMPONENTS
390
0
  6
KM_SOLID
 62
   255
100
AcDbLine
 10
202.675623
 20
228.861816
 30
0.0
 11
202.780623
 21
228.980965
 31
0.0
  0
LINE
  5
35B
100
AcDbEntity
  8
0095COMPONENTS
390
0
  6
KM_SOLID
 62
   255
100
AcDbLine
 10
203.375623
 20
226.955433
 30
0.0
 11
203.305623
 21
226.895858
 31
0.0
  0
LINE
  5
35C
100
AcDbEntity
  8
0095COMPONENTS
390
0
  6
KM_SOLID
 62
   255
100
AcDbLine
 10
203.305623
 20
226.597986
 30
0.0
 11
203.445623
 21
226.717135
 31
0.0
  0
LINE
  5
35D
100
AcDbEntity
  8
0095COMPONENTS
390
0
  6
KM_SOLID
 62
   255
100
AcDbLine
 10
201.595623
 20
169.238412
 30
0.0
 11
219.395623
 21
169.238412
 31
0.0
  0
LINE
  5
35E
100
AcDbEntity
  8
0095COMPONENTS
390
0
  6
KM_SOLID
 62
   255
100
AcDbLine
 10
203.145623
 20
170.138412
 30
0.0
 11
203.495623
 21
170.138412
 31
0.0
  0
LINE
  5
35F
100
AcDbEntity
  8
0095COMPONENTS
390
0
  6
KM_SOLID
 62
   255
100
AcDbLine
 10
217.335623
 20
170.138412
 30
0.0
 11
218.595623
 21
170.138412
 31
0.0
  0
LINE
  5
360
100
AcDbEntity
  8
0095COMPONENTS
390
0
  6
KM_SOLID
 62
   255
100
AcDbLine
 10
218.595623
 20
170.436284
 30
0.0
 11
217.615623
 21
170.436284
 31
0.0
  0
LINE
  5
361
100
AcDbEntity
  8
0095COMPONENTS
390
0
  6
KM_SOLID
 62
   255
100
AcDbLine
 10
203.375623
 20
227.968199
 30
0.0
 11
203.515623
 21
228.146922
 31
0.0
  0
LINE
  5
362
100
AcDbEntity
  8
0095COMPONENTS
390
0
  6
KM_SOLID
 62
   255
100
AcDbLine
 10
203.445623
 20
226.717135
 30
0.0
 11
203.550623
 21
226.836284
 31
0.0
  0
LINE
  5
363
100
AcDbEntity
  8
0095COMPONENTS
390
0
  6
KM_SOLID
 62
   255
100
AcDbLine
 10
217.930623
 20
172.938412
 30
0.0
 11
217.685623
 21
172.878837
 31
0.0
  0
LINE
  5
364
100
AcDbEntity
  8
0095COMPONENTS
390
0
  6
KM_SOLID
 62
   255
100
AcDbLine
 10
217.370623
 20
172.283093
 30
0.0
 11
217.545623
 21
172.283093
 31
0.0
  0
LINE
  5
365
100
AcDbEntity
  8
0095COMPONENTS
390
0
  6
KM_SOLID
 62
   255
100
AcDbLine
 10
217.895623
 20
172.640539
 30
0.0
 11
218.035623
 21
172.640539
 31
0.0
  0
LINE
  5
366
100
AcDbEntity
  8
0095COMPONENTS
390
0
  6
KM_SOLID
 62
   255
100
AcDbLine
 10
218.070623
 20
172.938412
 30
0.0
 11
217.930623
 21
172.938412
 31
0.0
  0
LINE
  5
367
100
AcDbEntity
  8
0095COMPONENTS
390
0
  6
KM_SOLID
 62
   255
100
AcDbLine
 10
203.495623
 20
172.938412
 30
0.0
 11
203.145623
 21
172.938412
 31
0.0
  0
LINE
  5
368
100
AcDbEntity
  8
0095COMPONENTS
390
0
  6
KM_SOLID
 62
   255
100
AcDbLine
 10
208.632458
 20
173.638412
 30
0.0
 11
205.695623
 21
173.638412
 31
0.0
  0
LINE
  5
369
100
AcDbEntity
  8
0095COMPONENTS
390
0
  6
KM_SOLID
 62
   255
100
AcDbLine
 10
212.358788
 20
173.638412
 30
0.0
 11
212.595623
 21
173.638412
 31
0.0
  0
LINE
  5
36A
100
AcDbEntity
  8
0095COMPONENTS
390
0
  6
KM_SOLID
 62
   255
100
AcDbLine
 10
202.605623
 20
229.159688
 30
0.0
 11
202.465623
 21
228.92139
 31
0.0
  0
LINE
  5
36B
100
AcDbEntity
  8
0095COMPONENTS
390
0
  6
KM_SOLID
 62
   255
100
AcDbLine
 10
203.375623
 20
228.325646
 30
0.0
 11
203.305623
 21
228.206497
 31
0.0
  0
LINE
  5
36C
100
AcDbEntity
  8
0095COMPONENTS
390
0
  6
KM_SOLID
 62
   255
100
AcDbLine
 10
203.445623
 20
227.074582
 30
0.0
 11
203.375623
 21
226.955433
 31
0.0
  0
LINE
  5
36D
100
AcDbEntity
  8
0095COMPONENTS
390
0
  6
KM_SOLID
 62
   255
100
AcDbLine
 10
204.395289
 20
174.738412
 30
0.0
 11
205.695623
 21
174.738412
 31
0.0
  0
LINE
  5
36E
100
AcDbEntity
  8
0095COMPONENTS
390
0
  6
KM_SOLID
 62
   255
100
AcDbLine
 10
218.280623
 20
172.878837
 30
0.0
 11
218.070623
 21
172.938412
 31
0.0
  0
LINE
  5
36F
100
AcDbEntity
  8
0095COMPONENTS
390
0
  6
KM_SOLID
 62
   255
100
AcDbLine
 10
218.035623
 20
172.640539
 30
0.0
 11
218.210623
 21
172.580965
 31
0.0
  0
LINE
  5
370
100
AcDbEntity
  8
0095COMPONENTS
390
0
  6
KM_SOLID
 62
   255
100
AcDbLine
 10
202.605623
 20
228.683093
 30
0.0
 11
202.675623
 21
228.861816
 31
0.0
  0
LINE
  5
371
100
AcDbEntity
  8
0095COMPONENTS
390
0
  6
KM_SOLID
 62
   255
100
AcDbLine
 10
203.515623
 20
228.146922
 30
0.0
 11
203.585623
 21
228.325646
 31
0.0
  0
LINE
  5
372
100
AcDbEntity
  8
0095COMPONENTS
390
0
  6
KM_SOLID
 62
   255
100
AcDbLine
 10
203.550623
 20
226.836284
 30
0.0
 11
203.620623
 21
227.015007
 31
0.0
  0
LINE
  5
373
100
AcDbEntity
  8
0095COMPONENTS
390
0
  6
KM_SOLID
 62
   255
100
AcDbLine
 10
201.595623
 20
177.238412
 30
0.0
 11
219.395623
 21
177.238412
 31
0.0
  0
LINE
  5
374
100
AcDbEntity
  8
0095COMPONENTS
390
0
  6
KM_SOLID
 62
   255
100
AcDbLine
 10
219.395623
 20
179.045923
 30
0.0
 11
201.595623
 21
179.045923
 31
0.0
  0
LINE
  5
375
100
AcDbEntity
  8
0095COMPONENTS
390
0
  6
KM_SOLID
 62
   255
100
AcDbLine
 10
203.445623
 20
228.563943
 30
0.0
 11
203.375623
 21
228.325646
 31
0.0
  0
LINE
  5
376
100
AcDbEntity
  8
0095COMPONENTS
390
0
  6
KM_SOLID
 62
   255
100
AcDbLine
 10
203.480623
 20
227.193731
 30
0.0
 11
203.445623
 21
227.074582
 31
0.0
  0
LINE
  5
377
100
AcDbEntity
  8
0095COMPONENTS
390
0
  6
KM_SOLID
 62
   255
100
AcDbLine
 10
204.438965
 20
182.403187
 30
0.0
 11
204.769417
 21
182.403187
 31
0.0
  0
LINE
  5
378
100
AcDbEntity
  8
0095COMPONENTS
390
0
  6
KM_SOLID
 62
   255
100
AcDbLine
 10
216.217751
 20
182.403187
 30
0.0
 11
216.552281
 21
182.403187
 31
0.0
  0
LINE
  5
379
100
AcDbEntity
  8
0095COMPONENTS
390
0
  6
KM_SOLID
 62
   255
100
AcDbLine
 10
202.465623
 20
228.92139
 30
0.0
 11
202.430623
 21
228.683093
 31
0.0
  0
LINE
  5
37A
100
AcDbEntity
  8
0095COMPONENTS
390
0
  6
KM_SOLID
 62
   255
100
AcDbLine
 10
203.585623
 20
228.325646
 30
0.0
 11
203.620623
 21
228.563943
 31
0.0
  0
LINE
  5
37B
100
AcDbEntity
  8
0095COMPONENTS
390
0
  6
KM_SOLID
 62
   255
100
AcDbLine
 10
203.620623
 20
227.015007
 30
0.0
 11
203.655623
 21
227.193731
 31
0.0
  0
LINE
  5
37C
100
AcDbEntity
  8
0095COMPONENTS
390
0
  6
KM_SOLID
 62
   255
100
AcDbLine
 10
218.420623
 20
172.759688
 30
0.0
 11
218.280623
 21
172.878837
 31
0.0
  0
LINE
  5
37D
100
AcDbEntity
  8
0095COMPONENTS
390
0
  6
KM_SOLID
 62
   255
100
AcDbLine
 10
201.595623
 20
159.238412
 30
0.0
 11
201.595623
 21
240.238412
 31
0.0
  0
LINE
  5
37E
100
AcDbEntity
  8
0095COMPONENTS
390
0
  6
KM_SOLID
 62
   255
100
AcDbLine
 10
218.210623
 20
172.580965
 30
0.0
 11
218.315623
 21
172.461816
 31
0.0
  0
LINE
  5
37F
100
AcDbEntity
  8
0095COMPONENTS
390
0
  6
KM_SOLID
 62
   255
100
AcDbLine
 10
202.795623
 20
172.52139
 30
0.0
 11
202.795623
 21
172.044795
 31
0.0
  0
LINE
  5
380
100
AcDbEntity
  8
0095COMPONENTS
390
0
  6
KM_SOLID
 62
   255
100
AcDbLine
 10
202.955623
 20
228.087348
 30
0.0
 11
202.955623
 21
227.84905
 31
0.0
  0
LINE
  5
381
100
AcDbEntity
  8
0095COMPONENTS
390
0
  6
KM_SOLID
 62
   255
100
AcDbLine
 10
203.145623
 20
172.461816
 30
0.0
 11
203.145623
 21
170.138412
 31
0.0
  0
LINE
  5
382
100
AcDbEntity
  8
0095COMPONENTS
390
0
  6
KM_SOLID
 62
   255
100
AcDbLine
 10
203.445623
 20
228.683093
 30
0.0
 11
203.445623
 21
228.563943
 31
0.0
  0
LINE
  5
383
100
AcDbEntity
  8
0095COMPONENTS
390
0
  6
KM_SOLID
 62
   255
100
AcDbLine
 10
203.480623
 20
227.432029
 30
0.0
 11
203.480623
 21
227.193731
 31
0.0
  0
LINE
  5
384
100
AcDbEntity
  8
0095COMPONENTS
390
0
  6
KM_SOLID
 62
   255
100
AcDbLine
 10
203.495623
 20
170.138412
 30
0.0
 11
203.495623
 21
172.938412
 31
0.0
  0
LINE
  5
385
100
AcDbEntity
  8
0095COMPONENTS
390
0
  6
KM_SOLID
 62
   255
100
AcDbLine
 10
203.620623
 20
228.563943
 30
0.0
 11
203.620623
 21
228.683093
 31
0.0
  0
LINE
  5
386
100
AcDbEntity
  8
0095COMPONENTS
390
0
  6
KM_SOLID
 62
   255
100
AcDbLine
 10
203.655623
 20
227.193731
 30
0.0
 11
203.655623
 21
227.432029
 31
0.0
  0
LINE
  5
387
100
AcDbEntity
  8
0095COMPONENTS
390
0
  6
KM_SOLID
 62
   255
100
AcDbLine
 10
204.902623
 20
159.238412
 30
0.0
 11
204.902623
 21
155.238412
 31
0.0
  0
LINE
  5
388
100
AcDbEntity
  8
0095COMPONENTS
390
0
  6
KM_SOLID
 62
   255
100
AcDbLine
 10
218.035623
 20
229.338412
 30
0.0
 11
217.195623
 21
227.729901
 31
0.0
  0
LINE
  5
389
100
AcDbEntity
  8
0095COMPONENTS
390
0
  6
KM_SOLID
 62
   255
100
AcDbLine
 10
217.440623
 20
227.729901
 30
0.0
 11
218.035623
 21
228.861816
 31
0.0
  0
LINE
  5
38A
100
AcDbEntity
  8
0095COMPONENTS
390
0
  6
KM_SOLID
 62
   255
100
AcDbLine
 10
218.560623
 20
172.52139
 30
0.0
 11
218.420623
 21
172.759688
 31
0.0
  0
LINE
  5
38B
100
AcDbEntity
  8
0095COMPONENTS
390
0
  6
KM_SOLID
 62
   255
100
AcDbLine
 10
205.695623
 20
174.738412
 30
0.0
 11
205.695623
 21
171.613814
 31
0.0
  0
LINE
  5
38C
100
AcDbEntity
  8
0095COMPONENTS
390
0
  6
KM_SOLID
 62
   255
100
AcDbLine
 10
210.495623
 20
240.238412
 30
0.0
 11
210.495623
 21
222.238412
 31
0.0
  0
LINE
  5
38D
100
AcDbEntity
  8
0095COMPONENTS
390
0
  6
KM_SOLID
 62
   255
100
AcDbLine
 10
210.495623
 20
177.238412
 30
0.0
 11
210.495623
 21
159.238412
 31
0.0
  0
LINE
  5
38E
100
AcDbEntity
  8
0095COMPONENTS
390
0
  6
KM_SOLID
 62
   255
100
AcDbLine
 10
218.315623
 20
172.461816
 30
0.0
 11
218.385623
 21
172.283093
 31
0.0
  0
LINE
  5
38F
100
AcDbEntity
  8
0095COMPONENTS
390
0
  6
KM_SOLID
 62
   255
100
AcDbLine
 10
202.395623
 20
227.193731
 30
0.0
 11
202.430623
 21
227.015007
 31
0.0
  0
LINE
  5
390
100
AcDbEntity
  8
0095COMPONENTS
390
0
  6
KM_SOLID
 62
   255
100
AcDbLine
 10
203.655623
 20
227.432029
 30
0.0
 11
203.620623
 21
227.670327
 31
0.0
  0
LINE
  5
391
100
AcDbEntity
  8
0095COMPONENTS
390
0
  6
KM_SOLID
 62
   255
100
AcDbLine
 10
203.620623
 20
228.683093
 30
0.0
 11
203.585623
 21
228.92139
 31
0.0
  0
LINE
  5
392
100
AcDbEntity
  8
0095COMPONENTS
390
0
  6
KM_SOLID
 62
     3
100
AcDbLine
 10
212.595623
 20
172.737606
 30
0.0
 11
212.595623
 21
174.739218
 31
0.0
  0
LINE
  5
393
100
AcDbEntity
  8
0095COMPONENTS
390
0
  6
KM_SOLID
 62
   255
100
AcDbLine
 10
202.605623
 20
227.074582
 30
0.0
 11
202.570623
 21
227.193731
 31
0.0
  0
LINE
  5
394
100
AcDbEntity
  8
0095COMPONENTS
390
0
  6
KM_SOLID
 62
   255
100
AcDbLine
 10
203.410623
 20
227.670327
 30
0.0
 11
203.480623
 21
227.432029
 31
0.0
  0
LINE
  5
395
100
AcDbEntity
  8
0095COMPONENTS
390
0
  6
KM_SOLID
 62
   255
100
AcDbLine
 10
216.288623
 20
155.238412
 30
0.0
 11
216.288623
 21
159.238412
 31
0.0
  0
LINE
  5
396
100
AcDbEntity
  8
0095COMPONENTS
390
0
  6
KM_SOLID
 62
     3
100
AcDbLine
 10
216.595623
 20
172.737606
 30
0.0
 11
216.595623
 21
174.739218
 31
0.0
  0
LINE
  5
397
100
AcDbEntity
  8
0095COMPONENTS
390
0
  6
KM_SOLID
 62
   255
100
AcDbLine
 10
202.430623
 20
227.015007
 30
0.0
 11
202.500623
 21
226.836284
 31
0.0
  0
LINE
  5
398
100
AcDbEntity
  8
0095COMPONENTS
390
0
  6
KM_SOLID
 62
   255
100
AcDbLine
 10
203.620623
 20
227.670327
 30
0.0
 11
203.550623
 21
227.84905
 31
0.0
  0
LINE
  5
399
100
AcDbEntity
  8
0095COMPONENTS
390
0
  6
KM_SOLID
 62
   255
100
AcDbLine
 10
203.375623
 20
228.861816
 30
0.0
 11
203.445623
 21
228.683093
 31
0.0
  0
LINE
  5
39A
100
AcDbEntity
  8
0095COMPONENTS
390
0
  6
KM_SOLID
 62
   255
100
AcDbLine
 10
218.595623
 20
172.283093
 30
0.0
 11
218.560623
 21
172.52139
 31
0.0
  0
LINE
  5
39B
100
AcDbEntity
  8
0095COMPONENTS
390
0
  6
KM_SOLID
 62
   255
100
AcDbLine
 10
217.195623
 20
227.729901
 30
0.0
 11
217.195623
 21
227.372454
 31
0.0
  0
LINE
  5
39C
100
AcDbEntity
  8
0095COMPONENTS
390
0
  6
KM_SOLID
 62
   255
100
AcDbLine
 10
217.335623
 20
170.436284
 30
0.0
 11
217.335623
 21
170.138412
 31
0.0
  0
LINE
  5
39D
100
AcDbEntity
  8
0095COMPONENTS
390
0
  6
KM_SOLID
 62
   255
100
AcDbLine
 10
218.035623
 20
228.861816
 30
0.0
 11
218.035623
 21
227.729901
 31
0.0
  0
LINE
  5
39E
100
AcDbEntity
  8
0095COMPONENTS
390
0
  6
KM_SOLID
 62
   255
100
AcDbLine
 10
218.035623
 20
227.372454
 30
0.0
 11
218.035623
 21
226.538412
 31
0.0
  0
LINE
  5
39F
100
AcDbEntity
  8
0095COMPONENTS
390
0
  6
KM_SOLID
 62
   255
100
AcDbLine
 10
218.245623
 20
226.538412
 30
0.0
 11
218.245623
 21
227.372454
 31
0.0
  0
LINE
  5
3A0
100
AcDbEntity
  8
0095COMPONENTS
390
0
  6
KM_SOLID
 62
   255
100
AcDbLine
 10
218.245623
 20
227.729901
 30
0.0
 11
218.245623
 21
229.338412
 31
0.0
  0
LINE
  5
3A1
100
AcDbEntity
  8
0095COMPONENTS
390
0
  6
KM_SOLID
 62
   255
100
AcDbLine
 10
218.385623
 20
172.283093
 30
0.0
 11
218.385623
 21
172.163943
 31
0.0
  0
LINE
  5
3A2
100
AcDbEntity
  8
0095COMPONENTS
390
0
  6
KM_SOLID
 62
   255
100
AcDbLine
 10
218.595623
 20
170.138412
 30
0.0
 11
218.595623
 21
170.436284
 31
0.0
  0
LINE
  5
3A3
100
AcDbEntity
  8
0095COMPONENTS
390
0
  6
KM_SOLID
 62
   255
100
AcDbLine
 10
218.595623
 20
172.163943
 30
0.0
 11
218.595623
 21
172.283093
 31
0.0
  0
LINE
  5
3A4
100
AcDbEntity
  8
0095COMPONENTS
390
0
  6
KM_SOLID
 62
   255
100
AcDbLine
 10
218.595623
 20
227.372454
 30
0.0
 11
218.595623
 21
227.729901
 31
0.0
  0
LINE
  5
3A5
100
AcDbEntity
  8
0095COMPONENTS
390
0
  6
KM_SOLID
 62
   255
100
AcDbLine
 10
219.395623
 20
159.238412
 30
0.0
 11
219.395623
 21
240.238412
 31
0.0
  0
LINE
  5
3A6
100
AcDbEntity
  8
0095COMPONENTS
390
0
  6
KM_SOLID
 62
   255
100
AcDbLine
 10
202.675623
 20
226.955433
 30
0.0
 11
202.605623
 21
227.074582
 31
0.0
  0
LINE
  5
3A7
100
AcDbEntity
  8
0095COMPONENTS
390
0
  6
KM_SOLID
 62
   255
100
AcDbLine
 10
217.405623
 20
172.52139
 30
0.0
 11
217.370623
 21
172.283093
 31
0.0
  0
LINE
  5
3A8
100
AcDbEntity
  8
0095COMPONENTS
390
0
  6
KM_SOLID
 62
   255
100
AcDbLine
 10
218.560623
 20
171.925646
 30
0.0
 11
218.595623
 21
172.163943
 31
0.0
  0
LINE
  5
3A9
100
AcDbEntity
  8
0095COMPONENTS
390
0
  6
KM_SOLID
 62
   255
100
AcDbLine
 10
203.145623
 20
172.938412
 30
0.0
 11
202.795623
 21
172.52139
 31
0.0
  0
LINE
  5
3AA
100
AcDbEntity
  8
0095COMPONENTS
390
0
  6
KM_SOLID
 62
   255
100
AcDbLine
 10
202.795623
 20
172.044795
 30
0.0
 11
203.145623
 21
172.461816
 31
0.0
  0
LINE
  5
3AB
100
AcDbEntity
  8
0095COMPONENTS
390
0
  6
KM_SOLID
 62
   255
100
AcDbLine
 10
203.585623
 20
228.92139
 30
0.0
 11
203.445623
 21
229.159688
 31
0.0
  0
LINE
  5
3AC
100
AcDbEntity
  8
0095COMPONENTS
390
0
  6
KM_SOLID
 62
   255
100
AcDbLine
 10
218.385623
 20
172.163943
 30
0.0
 11
218.315623
 21
171.925646
 31
0.0
  0
LINE
  5
3AD
100
AcDbEntity
  8
0095COMPONENTS
390
0
  6
KM_SOLID
 62
   255
100
AcDbLine
 10
202.500623
 20
226.836284
 30
0.0
 11
202.605623
 21
226.717135
 31
0.0
  0
LINE
  5
3AE
100
AcDbEntity
  8
0095COMPONENTS
390
0
  6
KM_SOLID
 62
   255
100
AcDbLine
 10
203.305623
 20
227.789476
 30
0.0
 11
203.410623
 21
227.670327
 31
0.0
  0
LINE
  5
3AF
100
AcDbEntity
  8
0095COMPONENTS
390
0
  6
KM_SOLID
 62
   255
100
AcDbLine
 10
217.545623
 20
172.283093
 30
0.0
 11
217.615623
 21
172.461816
 31
0.0
  0
LINE
  5
3B0
100
AcDbEntity
  8
0095COMPONENTS
390
0
  6
KM_SOLID
 62
   255
100
AcDbLine
 10
218.490623
 20
171.746922
 30
0.0
 11
218.560623
 21
171.925646
 31
0.0
  0
LINE
  5
3B1
100
AcDbEntity
  8
0095COMPONENTS
390
0
  6
KM_SOLID
 62
   255
100
AcDbLine
 10
202.605623
 20
226.717135
 30
0.0
 11
202.745623
 21
226.597986
 31
0.0
  0
LINE
  5
3B2
100
AcDbEntity
  8
0095COMPONENTS
390
0
  6
KM_SOLID
 62
   255
100
AcDbLine
 10
202.745623
 20
226.895858
 30
0.0
 11
202.675623
 21
226.955433
 31
0.0
  0
LINE
  5
3B3
100
AcDbEntity
  8
0095COMPONENTS
390
0
  6
KM_SOLID
 62
   255
100
AcDbLine
 10
203.270623
 20
228.980965
 30
0.0
 11
203.375623
 21
228.861816
 31
0.0
  0
LINE
  5
3B4
100
AcDbEntity
  8
0095COMPONENTS
390
0
  6
KM_SOLID
 62
   255
100
AcDbLine
 10
217.545623
 20
172.759688
 30
0.0
 11
217.405623
 21
172.52139
 31
0.0
  0
LINE
  5
3B5
100
AcDbEntity
  8
0095COMPONENTS
390
0
  6
KM_SOLID
 62
   255
100
AcDbLine
 10
218.315623
 20
171.925646
 30
0.0
 11
217.335623
 21
170.436284
 31
0.0
  0
LINE
  5
3B6
100
AcDbEntity
  8
0095COMPONENTS
390
0
  6
KM_SOLID
 62
   255
100
AcDbLine
 10
217.615623
 20
170.436284
 30
0.0
 11
218.490623
 21
171.746922
 31
0.0
  0
LINE
  5
3B7
100
AcDbEntity
  8
0095COMPONENTS
390
0
  6
KM_SOLID
 62
   255
100
AcDbLine
 10
203.445623
 20
229.159688
 30
0.0
 11
203.305623
 21
229.278837
 31
0.0
  0
LINE
  5
3B8
100
AcDbEntity
  8
0095COMPONENTS
390
0
  6
KM_SOLID
 62
   255
100
AcDbLine
 10
217.615623
 20
172.461816
 30
0.0
 11
217.720623
 21
172.580965
 31
0.0
  0
LINE
  5
3B9
100
AcDbEntity
  8
0095COMPONENTS
390
0
  6
KM_SOLID
 62
   255
100
AcDbLine
 10
217.685623
 20
172.878837
 30
0.0
 11
217.545623
 21
172.759688
 31
0.0
  0
LINE
  5
3BA
100
AcDbEntity
  8
0095COMPONENTS
390
0
  6
KM_SOLID
 62
   255
100
AcDbLine
 10
219.395623
 20
220.4309
 30
0.0
 11
201.595623
 21
220.4309
 31
0.0
  0
LINE
  5
3BB
100
AcDbEntity
  8
0095COMPONENTS
390
0
  6
KM_SOLID
 62
   255
100
AcDbLine
 10
203.550623
 20
227.84905
 30
0.0
 11
203.375623
 21
227.968199
 31
0.0
  0
LINE
  5
3BC
100
AcDbEntity
  8
0095COMPONENTS
390
0
  6
KM_SOLID
 62
   255
100
AcDbLine
 10
217.720623
 20
172.580965
 30
0.0
 11
217.895623
 21
172.640539
 31
0.0
  0
LINE
  5
3BD
100
AcDbEntity
  8
0095COMPONENTS
390
0
  6
KM_SOLID
 62
   255
100
AcDbLine
 10
219.395623
 20
222.238412
 30
0.0
 11
201.595623
 21
222.238412
 31
0.0
  0
LINE
  5
3BE
100
AcDbEntity
  8
0095COMPONENTS
390
0
  6
KM_SOLID
 62
   255
100
AcDbLine
 10
202.920623
 20
226.836284
 30
0.0
 11
202.745623
 21
226.895858
 31
0.0
  0
LINE
  5
3BF
100
AcDbEntity
  8
0095COMPONENTS
390
0
  6
KM_SOLID
 62
   255
100
AcDbLine
 10
202.745623
 20
226.597986
 30
0.0
 11
202.885623
 21
226.538412
 31
0.0
  0
LINE
  5
3C0
100
AcDbEntity
  8
0095COMPONENTS
390
0
  6
KM_SOLID
 62
   255
100
AcDbLine
 10
202.885623
 20
226.538412
 30
0.0
 11
203.165623
 21
226.538412
 31
0.0
  0
LINE
  5
3C1
100
AcDbEntity
  8
0095COMPONENTS
390
0
  6
KM_SOLID
 62
   255
100
AcDbLine
 10
218.035623
 20
226.538412
 30
0.0
 11
218.245623
 21
226.538412
 31
0.0
  0
LINE
  5
3C2
100
AcDbEntity
  8
0095COMPONENTS
390
0
  6
KM_SOLID
 62
   255
100
AcDbLine
 10
203.130623
 20
226.836284
 30
0.0
 11
202.920623
 21
226.836284
 31
0.0
  0
LINE
  5
3C3
100
AcDbEntity
  8
0095COMPONENTS
390
0
  6
KM_SOLID
 62
   255
100
AcDbLine
 10
203.305623
 20
229.278837
 30
0.0
 11
203.060623
 21
229.338412
 31
0.0
  0
LINE
  5
3C4
100
AcDbEntity
  8
0095COMPONENTS
390
0
  6
KM_SOLID
 62
   255
100
AcDbLine
 10
203.095623
 20
227.84905
 30
0.0
 11
203.305623
 21
227.789476
 31
0.0
  0
LINE
  5
3C5
100
AcDbEntity
  8
0095COMPONENTS
390
0
  6
KM_SOLID
 62
   255
100
AcDbLine
 10
203.095623
 20
229.040539
 30
0.0
 11
203.270623
 21
228.980965
 31
0.0
  0
LINE
  5
3C6
100
AcDbEntity
  8
0095COMPONENTS
390
0
  6
KM_SOLID
 62
   255
100
AcDbLine
 10
202.570623
 20
227.193731
 30
0.0
 11
202.395623
 21
227.193731
 31
0.0
  0
LINE
  5
3C7
100
AcDbEntity
  8
0095COMPONENTS
390
0
  6
KM_SOLID
 62
   255
100
AcDbLine
 10
217.195623
 20
227.372454
 30
0.0
 11
218.035623
 21
227.372454
 31
0.0
  0
LINE
  5
3C8
100
AcDbEntity
  8
0095COMPONENTS
390
0
  6
KM_SOLID
 62
   255
100
AcDbLine
 10
218.245623
 20
227.372454
 30
0.0
 11
218.595623
 21
227.372454
 31
0.0
  0
LINE
  5
3C9
100
AcDbEntity
  8
0095COMPONENTS
390
0
  6
KM_SOLID
 62
   255
100
AcDbLine
 10
218.595623
 20
227.729901
 30
0.0
 11
218.245623
 21
227.729901
 31
0.0
  0
LINE
  5
3CA
100
AcDbEntity
  8
0095COMPONENTS
390
0
  6
KM_SOLID
 62
   255
100
AcDbLine
 10
218.035623
 20
227.729901
 30
0.0
 11
217.440623
 21
227.729901
 31
0.0
  0
LINE
  5
3CB
100
AcDbEntity
  8
0095COMPONENTS
390
0
  6
KM_SOLID
 62
   255
100
AcDbLine
 10
202.955623
 20
227.84905
 30
0.0
 11
203.095623
 21
227.84905
 31
0.0
  0
LINE
  5
3CC
100
AcDbEntity
  8
0095COMPONENTS
390
0
  6
KM_SOLID
 62
   255
100
AcDbLine
 10
203.095623
 20
228.087348
 30
0.0
 11
202.955623
 21
228.087348
 31
0.0
  0
LINE
  5
3CD
100
AcDbEntity
  8
0095COMPONENTS
390
0
  6
KM_SOLID
 62
   255
100
AcDbLine
 10
202.430623
 20
228.683093
 30
0.0
 11
202.605623
 21
228.683093
 31
0.0
  0
LINE
  5
3CE
100
AcDbEntity
  8
0095COMPONENTS
390
0
  6
KM_SOLID
 62
   255
100
AcDbLine
 10
202.955623
 20
229.040539
 30
0.0
 11
203.095623
 21
229.040539
 31
0.0
  0
LINE
  5
3CF
100
AcDbEntity
  8
0095COMPONENTS
390
0
  6
KM_SOLID
 62
   255
100
AcDbLine
 10
218.245623
 20
229.338412
 30
0.0
 11
218.035623
 21
229.338412
 31
0.0
  0
LINE
  5
3D0
100
AcDbEntity
  8
0095COMPONENTS
390
0
  6
KM_SOLID
 62
   255
100
AcDbLine
 10
203.060623
 20
229.338412
 30
0.0
 11
202.990623
 21
229.338412
 31
0.0
  0
LINE
  5
3D1
100
AcDbEntity
  8
0095COMPONENTS
390
0
  6
KM_SOLID
 62
   255
100
AcDbLine
 10
202.990623
 20
229.338412
 30
0.0
 11
202.745623
 21
229.278837
 31
0.0
  0
LINE
  5
3D2
100
AcDbEntity
  8
0095COMPONENTS
390
0
  6
KM_SOLID
 62
   255
100
AcDbLine
 10
201.595623
 20
230.238412
 30
0.0
 11
219.395623
 21
230.238412
 31
0.0
  0
LINE
  5
3D3
100
AcDbEntity
  8
0095COMPONENTS
390
0
  6
KM_SOLID
 62
   255
100
AcDbLine
 10
201.595623
 20
231.238412
 30
0.0
 11
219.395623
 21
231.238412
 31
0.0
  0
LINE
  5
3D4
100
AcDbEntity
  8
0095COMPONENTS
390
0
  6
KM_SOLID
 62
   255
100
AcDbLine
 10
201.595623
 20
239.238412
 30
0.0
 11
219.395623
 21
239.238412
 31
0.0
  0
LINE
  5
3D5
100
AcDbEntity
  8
0095COMPONENTS
390
0
  6
KM_SOLID
 62
   255
100
AcDbLine
 10
201.595623
 20
240.238412
 30
0.0
 11
219.395623
 21
240.238412
 31
0.0
  0
ARC
  5
3D6
100
AcDbEntity
  8
0095COMPONENTS
390
0
  6
KM_SOLID
 62
   255
100
AcDbCircle
 10
75.433977
 20
166.073377
 30
0.0
 40
5.0
100
AcDbArc
 50
54.940573
 51
90.0
  0
ARC
  5
3D7
100
AcDbEntity
  8
0095COMPONENTS
390
0
  6
KM_SOLID
 62
   255
100
AcDbCircle
 10
84.292667
 20
172.073377
 30
0.0
 40
5.0
100
AcDbArc
 50
234.940573
 51
270.0
  0
CIRCLE
  5
3D8
100
AcDbEntity
  8
0095COMPONENTS
390
0
  6
KM_SOLID
 62
   255
100
AcDbCircle
 10
84.713322
 20
199.073377
 30
0.0
 40
2.0
  0
CIRCLE
  5
3D9
100
AcDbEntity
  8
0095COMPONENTS
390
0
  6
KM_SOLID
 62
   255
100
AcDbCircle
 10
76.713322
 20
166.073377
 30
0.0
 40
2.0
  0
ARC
  5
3DA
100
AcDbEntity
  8
0095COMPONENTS
390
0
  6
KM_SOLID
 62
   255
100
AcDbCircle
 10
84.213322
 20
220.784579
 30
0.0
 40
2.0
100
AcDbArc
 50
95.522931
 51
180.0
  0
ARC
  5
3DB
100
AcDbEntity
  8
0095COMPONENTS
390
0
  6
KM_SOLID
 62
   255
100
AcDbCircle
 10
86.713322
 20
187.073377
 30
0.0
 40
2.0
100
AcDbArc
 50
270.0
 51
0.0
  0
ARC
  5
3DC
100
AcDbEntity
  8
0095COMPONENTS
390
0
  6
KM_SOLID
 62
   255
100
AcDbCircle
 10
90.713322
 20
210.073377
 30
0.0
 40
2.0
100
AcDbArc
 50
90.0
 51
180.0
  0
CIRCLE
  5
3DD
100
AcDbEntity
  8
0095COMPONENTS
390
0
  6
KM_SOLID
 62
   255
100
AcDbCircle
 10
84.713322
 20
199.073377
 30
0.0
 40
1.1
  0
CIRCLE
  5
3DE
100
AcDbEntity
  8
0095COMPONENTS
390
0
  6
KM_SOLID
 62
   255
100
AcDbCircle
 10
76.713322
 20
166.073377
 30
0.0
 40
1.1
  0
ARC
  5
3DF
100
AcDbEntity
  8
0095COMPONENTS
390
0
  6
KM_SOLID
 62
   255
100
AcDbCircle
 10
104.713322
 20
8.773377
 30
0.0
 40
215.0
100
AcDbArc
 50
84.477069
 51
95.522931
  0
ARC
  5
3E0
100
AcDbEntity
  8
0095COMPONENTS
390
0
  6
KM_SOLID
 62
     4
100
AcDbCircle
 10
111.206996
 20
180.56628
 30
0.0
 40
7.186849
100
AcDbArc
 50
50.749466
 51
99.055625
  0
ARC
  5
3E1
100
AcDbEntity
  8
0095COMPONENTS
390
0
  6
KM_SOLID
 62
     4
100
AcDbCircle
 10
117.206085
 20
178.668273
 30
0.0
 40
0.5
100
AcDbArc
 50
0.0
 51
90.0
  0
ARC
  5
3E2
100
AcDbEntity
  8
0095COMPONENTS
390
0
  6
KM_SOLID
 62
     4
100
AcDbCircle
 10
116.267892
 20
187.619668
 30
0.0
 40
0.395062
100
AcDbArc
 50
100.0
 51
190.0
  0
ARC
  5
3E3
100
AcDbEntity
  8
0095COMPONENTS
390
0
  6
KM_SOLID
 62
     4
100
AcDbCircle
 10
116.656951
 20
187.68827
 30
0.0
 40
0.395062
100
AcDbArc
 50
10.0
 51
100.0
  0
ARC
  5
3E4
100
AcDbEntity
  8
0095COMPONENTS
390
0
  6
KM_SOLID
 62
     4
100
AcDbCircle
 10
104.618418
 20
177.788742
 30
0.0
 40
0.395062
100
AcDbArc
 50
105.0
 51
195.0
  0
ARC
  5
3E5
100
AcDbEntity
  8
0095COMPONENTS
390
0
  6
KM_SOLID
 62
     4
100
AcDbCircle
 10
106.580723
 20
180.768528
 30
0.0
 40
0.395062
100
AcDbArc
 50
105.0
 51
195.0
  0
ARC
  5
3E6
100
AcDbEntity
  8
0095COMPONENTS
390
0
  6
KM_SOLID
 62
     4
100
AcDbCircle
 10
115.446327
 20
180.690071
 30
0.0
 40
0.395062
100
AcDbArc
 50
15.0
 51
105.0
  0
ARC
  5
3E7
100
AcDbEntity
  8
0095COMPONENTS
390
0
  6
KM_SOLID
 62
     4
100
AcDbCircle
 10
112.257028
 20
182.289489
 30
0.0
 40
0.395062
100
AcDbArc
 50
15.0
 51
105.0
  0
ARC
  5
3E8
100
AcDbEntity
  8
0095COMPONENTS
390
0
  6
KM_SOLID
 62
     4
100
AcDbCircle
 10
108.767813
 20
181.143582
 30
0.0
 40
0.395062
100
AcDbArc
 50
90.0
 51
180.0
  0
ARC
  5
3E9
100
AcDbEntity
  8
0095COMPONENTS
390
0
  6
KM_SOLID
 62
     4
100
AcDbCircle
 10
114.644356
 20
181.143582
 30
0.0
 40
0.395062
100
AcDbArc
 50
0.0
 51
90.0
  0
ARC
  5
3EA
100
AcDbEntity
  8
0095COMPONENTS
390
0
  6
KM_SOLID
 62
     4
100
AcDbCircle
 10
106.101147
 20
178.773212
 30
0.0
 40
0.395062
100
AcDbArc
 50
90.0
 51
180.0
  0
ARC
  5
3EB
100
AcDbEntity
  8
0095COMPONENTS
390
0
  6
KM_SOLID
 62
     4
100
AcDbCircle
 10
113.755468
 20
172.452224
 30
0.0
 40
0.197531
100
AcDbArc
 50
90.0
 51
180.0
  0
ARC
  5
3EC
100
AcDbEntity
  8
0095COMPONENTS
390
0
  6
KM_SOLID
 62
     4
100
AcDbCircle
 10
113.360406
 20
171.884323
 30
0.0
 40
0.197531
100
AcDbArc
 50
270.0
 51
0.0
  0
ARC
  5
3ED
100
AcDbEntity
  8
0095COMPONENTS
390
0
  6
KM_SOLID
 62
     4
100
AcDbCircle
 10
110.051764
 20
171.884323
 30
0.0
 40
0.197531
100
AcDbArc
 50
180.0
 51
270.0
  0
ARC
  5
3EE
100
AcDbEntity
  8
0095COMPONENTS
390
0
  6
KM_SOLID
 62
     4
100
AcDbCircle
 10
109.656702
 20
172.452224
 30
0.0
 40
0.197531
100
AcDbArc
 50
0.0
 51
90.0
  0
ARC
  5
3EF
100
AcDbEntity
  8
0095COMPONENTS
390
0
  6
KM_SOLID
 62
     4
100
AcDbCircle
 10
113.903616
 20
172.304076
 30
0.0
 40
0.197531
100
AcDbArc
 50
90.0
 51
180.0
  0
ARC
  5
3F0
100
AcDbEntity
  8
0095COMPONENTS
390
0
  6
KM_SOLID
 62
     4
100
AcDbCircle
 10
113.508554
 20
171.736175
 30
0.0
 40
0.197531
100
AcDbArc
 50
270.0
 51
0.0
  0
ARC
  5
3F1
100
AcDbEntity
  8
0095COMPONENTS
390
0
  6
KM_SOLID
 62
     4
100
AcDbCircle
 10
109.903616
 20
171.736175
 30
0.0
 40
0.197531
100
AcDbArc
 50
180.0
 51
270.0
  0
ARC
  5
3F2
100
AcDbEntity
  8
0095COMPONENTS
390
0
  6
KM_SOLID
 62
     4
100
AcDbCircle
 10
109.508554
 20
172.304076
 30
0.0
 40
0.197531
100
AcDbArc
 50
0.0
 51
90.0
  0
ARC
  5
3F3
100
AcDbEntity
  8
0095COMPONENTS
390
0
  6
KM_SOLID
 62
   255
100
AcDbCircle
 10
117.213322
 20
216.507752
 30
0.0
 40
10.765625
100
AcDbArc
 50
54.510657
 51
125.489343
  0
ARC
  5
3F4
100
AcDbEntity
  8
0095COMPONENTS
390
0
  6
KM_SOLID
 62
   255
100
AcDbCircle
 10
108.858787
 20
226.622796
 30
0.0
 40
2.5
100
AcDbArc
 50
296.840717
 51
327.33218
  0
CIRCLE
  5
3F5
100
AcDbEntity
  8
0095COMPONENTS
390
0
  6
KM_SOLID
 62
   255
100
AcDbCircle
 10
108.063322
 20
216.073377
 30
0.0
 40
2.0
  0
ARC
  5
3F6
100
AcDbEntity
  8
0095COMPONENTS
390
0
  6
KM_SOLID
 62
   255
100
AcDbCircle
 10
109.675163
 20
210.073377
 30
0.0
 40
2.0
100
AcDbArc
 50
35.134193
 51
90.0
  0
CIRCLE
  5
3F7
100
AcDbEntity
  8
0095COMPONENTS
390
0
  6
KM_SOLID
 62
   255
100
AcDbCircle
 10
114.714875
 20
201.593101
 30
0.0
 40
1.5
  0
CIRCLE
  5
3F8
100
AcDbEntity
  8
0095COMPONENTS
390
0
  6
KM_SOLID
 62
   255
100
AcDbCircle
 10
114.714875
 20
201.593101
 30
0.0
 40
1.2
  0
ARC
  5
3F9
100
AcDbEntity
  8
0095COMPONENTS
390
0
  6
KM_SOLID
 62
   255
100
AcDbCircle
 10
110.213322
 20
223.946
 30
0.0
 40
0.5
100
AcDbArc
 50
116.840717
 51
180.0
  0
ARC
  5
3FA
100
AcDbEntity
  8
0095COMPONENTS
390
0
  6
KM_SOLID
 62
   255
100
AcDbCircle
 10
131.992667
 20
166.073377
 30
0.0
 40
5.0
100
AcDbArc
 50
90.0
 51
125.059427
  0
ARC
  5
3FB
100
AcDbEntity
  8
0095COMPONENTS
390
0
  6
KM_SOLID
 62
   255
100
AcDbCircle
 10
123.133977
 20
172.073377
 30
0.0
 40
5.0
100
AcDbArc
 50
270.0
 51
305.059427
  0
CIRCLE
  5
3FC
100
AcDbEntity
  8
0095COMPONENTS
390
0
  6
KM_SOLID
 62
   255
100
AcDbCircle
 10
132.713322
 20
166.073377
 30
0.0
 40
2.0
  0
ARC
  5
3FD
100
AcDbEntity
  8
0095COMPONENTS
390
0
  6
KM_SOLID
 62
   255
100
AcDbCircle
 10
130.751481
 20
187.073377
 30
0.0
 40
2.0
100
AcDbArc
 50
215.134193
 51
270.0
  0
CIRCLE
  5
3FE
100
AcDbEntity
  8
0095COMPONENTS
390
0
  6
KM_SOLID
 62
   255
100
AcDbCircle
 10
132.713322
 20
166.073377
 30
0.0
 40
1.1
  0
ARC
  5
3FF
100
AcDbEntity
  8
0095COMPONENTS
390
0
  6
KM_SOLID
 62
   255
100
AcDbCircle
 10
125.567857
 20
226.622796
 30
0.0
 40
2.5
100
AcDbArc
 50
212.66782
 51
243.159283
  0
CIRCLE
  5
400
100
AcDbEntity
  8
0095COMPONENTS
390
0
  6
KM_SOLID
 62
   255
100
AcDbCircle
 10
124.713322
 20
199.073377
 30
0.0
 40
2.0
  0
ARC
  5
401
100
AcDbEntity
  8
0095COMPONENTS
390
0
  6
KM_SOLID
 62
   255
100
AcDbCircle
 10
125.213322
 20
220.784579
 30
0.0
 40
2.0
100
AcDbArc
 50
0.0
 51
84.477069
  0
CIRCLE
  5
402
100
AcDbEntity
  8
0095COMPONENTS
390
0
  6
KM_SOLID
 62
   255
100
AcDbCircle
 10
124.713322
 20
199.073377
 30
0.0
 40
1.1
  0
ARC
  5
403
100
AcDbEntity
  8
0095COMPONENTS
390
0
  6
KM_SOLID
 62
   255
100
AcDbCircle
 10
124.213322
 20
223.946
 30
0.0
 40
0.5
100
AcDbArc
 50
0.0
 51
63.159283
  0
ARC
  5
404
100
AcDbEntity
  8
0095COMPONENTS
390
0
  6
KM_SOLID
 62
   255
100
AcDbCircle
 10
210.495623
 20
187.238412
 30
0.0
 40
7.75
100
AcDbArc
 50
321.398511
 51
218.601489
  0
CIRCLE
  5
405
100
AcDbEntity
  8
0095COMPONENTS
390
0
  6
KM_SOLID
 62
   255
100
AcDbCircle
 10
210.495623
 20
187.238412
 30
0.0
 40
7.5
  0
CIRCLE
  5
406
100
AcDbEntity
  8
0095COMPONENTS
390
0
  6
KM_SOLID
 62
   255
100
AcDbCircle
 10
210.495623
 20
187.238412
 30
0.0
 40
7.225756
  0
CIRCLE
  5
407
100
AcDbEntity
  8
0095COMPONENTS
390
0
  6
KM_SOLID
 62
   255
100
AcDbCircle
 10
210.495623
 20
187.238412
 30
0.0
 40
6.25
  0
CIRCLE
  5
408
100
AcDbEntity
  8
0095COMPONENTS
390
0
  6
KM_SOLID
 62
   255
100
AcDbCircle
 10
214.595623
 20
225.738412
 30
0.0
 40
2.25
  0
CIRCLE
  5
409
100
AcDbEntity
  8
0095COMPONENTS
390
0
  6
KM_SOLID
 62
   255
100
AcDbCircle
 10
214.595623
 20
173.738412
 30
0.0
 40
2.25
  0
CIRCLE
  5
40A
100
AcDbEntity
  8
0095COMPONENTS
390
0
  6
KM_SOLID
 62
   255
100
AcDbCircle
 10
206.395623
 20
225.738412
 30
0.0
 40
2.25
  0
CIRCLE
  5
40B
100
AcDbEntity
  8
0095COMPONENTS
390
0
  6
KM_SOLID
 62
   255
100
AcDbCircle
 10
206.395623
 20
173.738412
 30
0.0
 40
2.25
  0
ARC
  5
40C
100
AcDbEntity
  8
0095COMPONENTS
390
0
  6
KM_SOLID
 62
   255
100
AcDbCircle
 10
210.595623
 20
157.638412
 30
0.0
 40
1.8
100
AcDbArc
 50
192.839588
 51
347.160412
  0
ARC
  5
40D
100
AcDbEntity
  8
0095COMPONENTS
390
0
  6
KM_SOLID
 62
   255
100
AcDbCircle
 10
207.845623
 20
158.238412
 30
0.0
 40
1.0
100
AcDbArc
 50
90.0
 51
270.0
  0
ARC
  5
40E
100
AcDbEntity
  8
0095COMPONENTS
390
0
  6
KM_SOLID
 62
   255
100
AcDbCircle
 10
213.345623
 20
158.238412
 30
0.0
 40
1.0
100
AcDbArc
 50
270.0
 51
90.0
  0
ARC
  5
40F
100
AcDbEntity
  8
0095COMPONENTS
390
0
  6
KM_SOLID
 62
   255
100
AcDbCircle
 10
205.902623
 20
155.238412
 30
0.0
 40
1.0
100
AcDbArc
 50
180.0
 51
270.0
  0
ARC
  5
410
100
AcDbEntity
  8
0095COMPONENTS
390
0
  6
KM_SOLID
 62
   255
100
AcDbCircle
 10
215.288623
 20
155.238412
 30
0.0
 40
1.0
100
AcDbArc
 50
270.0
 51
0.0
  0
DIMENSION
  5
41B
100
AcDbEntity
  8
图层0352
370
    35
390
0
  6
KM_SOLID
100
AcDbDimension
  2
KmSimpleDim1
 10
21.213322
 20
147.0
 30
0.0
 11
107.213322
 21
147.0
 31
0.0
 70
   128
 71
     5
 72
     1
 41
1.0
 42
0.0
  1
86
  3
DS045GB
100
AcDbAlignedDimension
 13
64.213322
 23
159.273377
 33
0.0
 14
150.213322
 24
157.573377
 34
0.0
 50
180.0
100
AcDbRotatedDimension
1001
ACAD
1000
DSTYLE
1002
{
1070
   288
1070
     1
1070
   176
1070
     1
1070
   177
1070
     1
1070
   178
1070
     2
1070
   174
1070
     1
1002
}
  0
DIMENSION
  5
426
100
AcDbEntity
  8
图层0352
370
    35
390
0
  6
KM_SOLID
100
AcDbDimension
  2
KmSimpleDim2
 10
49.0
 20
262.123377
 30
0.0
 11
49.0
 21
192.423377
 31
0.0
 70
   128
 71
     5
 72
     1
 41
1.0
 42
0.0
 53
90.0
  1
71
  3
DS045GB
100
AcDbAlignedDimension
 13
117.213322
 23
227.273377
 33
0.0
 14
74.213322
 24
157.573377
 34
0.0
 50
90.0
100
AcDbRotatedDimension
1001
ACAD
1000
DSTYLE
1002
{
1070
   288
1070
     1
1070
   176
1070
     1
1070
   177
1070
     1
1070
   178
1070
     2
1002
}
  0
DIMENSION
  5
431
100
AcDbEntity
  8
图层0352
370
    35
390
0
  6
KM_SOLID
100
AcDbDimension
  2
KmSimpleDim3
 10
59.713322
 20
244.0
 30
0.0
 11
104.713322
 21
244.0
 31
0.0
 70
   128
 71
     5
 72
     1
 41
1.0
 42
0.0
  1
45
  3
DS045GB
100
AcDbAlignedDimension
 13
82.213322
 23
220.784579
 33
0.0
 14
127.213322
 24
220.784579
 34
0.0
 50
180.0
100
AcDbRotatedDimension
1001
ACAD
1000
DSTYLE
1002
{
1070
   288
1070
     1
1070
   176
1070
     1
1070
   177
1070
     1
1070
   178
1070
     2
1070
   174
1070
     1
1002
}
  0
DIMENSION
  5
43C
100
AcDbEntity
  8
图层0352
370
    35
390
0
  6
KM_SOLID
100
AcDbDimension
  2
KmSimpleDim4
 10
192.695623
 20
250.0
 30
0.0
 11
210.495623
 21
250.0
 31
0.0
 70
   128
 71
     5
 72
     1
 41
1.0
 42
0.0
  1
18
  3
DS045GB
100
AcDbAlignedDimension
 13
201.595623
 23
240.238412
 33
0.0
 14
219.395623
 24
240.238412
 34
0.0
 50
180.0
100
AcDbRotatedDimension
1001
ACAD
1000
DSTYLE
1002
{
1070
   288
1070
     1
1070
     3
1000
<>
1070
   176
1070
     1
1070
   177
1070
     1
1070
   178
1070
     2
1002
}
  0
DIMENSION
  5
447
100
AcDbEntity
  8
图层0352
370
    35
390
0
  6
KM_SOLID
100
AcDbDimension
  2
KmSimpleDim5
 10
69.213322
 20
153.0
 30
0.0
 11
105.213322
 21
153.0
 31
0.0
 70
   128
 71
     5
 72
     1
 41
1.0
 42
0.0
  1
34.5
  3
DS045GB
100
AcDbAlignedDimension
 13
87.213322
 23
162.373377
 33
0.0
 14
123.213322
 24
161.373377
 34
0.0
 50
180.0
100
AcDbRotatedDimension
1001
ACAD
1000
DSTYLE
1002
{
1070
   176
1070
     1
1070
   177
1070
     1
1070
   178
1070
     2
1070
   289
1070
     2
1070
   174
1070
     1
1002
}
  0
INSERT
  5
448
100
AcDbEntity
  8
0
390
0
100
AcDbBlockReference
  2
KmLegend
 10
0.0
 20
0.0
 30
0.0
  0
INSERT
  5
449
100
AcDbEntity
  8
0
390
0
100
AcDbBlockReference
  2
KmLegend
 10
0.0
 20
0.0
 30
0.0
  0
SPLINE
  5
44A
100
AcDbEntity
  8
0095COMPONENTS
390
0
  6
KM_SOLID
 62
   255
100
AcDbSpline
210
0.0
220
0.0
230
1.0
 70
     0
 71
     3
 72
     8
 73
     4
 74
     0
 42
0.000001
 43
0.0000001
 40
0.0
 40
0.0
 40
0.0
 40
0.0
 40
1.0
 40
1.0
 40
1.0
 40
1.0
 10
94.892027192800001
 20
201.26087683750001
 30
0.0
 10
94.892027192800001
 20
202.0525436433
 30
0.0
 10
94.778175359800002
 20
202.56087678980001
 30
0.0
 10
94.553548984599999
 20
202.7858768733
 30
0.0
  0
SPLINE
  5
44B
100
AcDbEntity
  8
0095COMPONENTS
390
0
  6
KM_SOLID
 62
   255
100
AcDbSpline
210
0.0
220
0.0
230
1.0
 70
     0
 71
     3
 72
     8
 73
     4
 74
     0
 42
0.000001
 43
0.0000001
 40
0.0
 40
0.0
 40
0.0
 40
0.0
 40
1.0
 40
1.0
 40
1.0
 40
1.0
 10
94.553548984599999
 20
202.7858768733
 30
0.0
 10
94.328922609399996
 20
203.0108769567
 30
0.0
 10
93.685814190000002
 20
203.1275438102
 30
0.0
 10
92.627301017099995
 20
203.1275438102
 30
0.0
  0
SPLINE
  5
44C
100
AcDbEntity
  8
0095COMPONENTS
390
0
  6
KM_SOLID
 62
   255
100
AcDbSpline
210
0.0
220
0.0
230
1.0
 70
     0
 71
     3
 72
     8
 73
     4
 74
     0
 42
0.000001
 43
0.0000001
 40
0.0
 40
0.0
 40
0.0
 40
0.0
 40
1.0
 40
1.0
 40
1.0
 40
1.0
 10
92.627301017099995
 20
203.1275438102
 30
0.0
 10
91.445704689400003
 20
203.1275438102
 30
0.0
 10
90.747208998800005
 20
202.9608770044
 30
0.0
 10
90.534792080200006
 20
202.6359956087
 30
0.0
  0
SPLINE
  5
44D
100
AcDbEntity
  8
0095COMPONENTS
390
0
  6
KM_SOLID
 62
   255
100
AcDbSpline
210
0.0
220
0.0
230
1.0
 70
     0
 71
     3
 72
     8
 73
     4
 74
     0
 42
0.000001
 43
0.0000001
 40
0.0
 40
0.0
 40
0.0
 40
0.0
 40
1.0
 40
1.0
 40
1.0
 40
1.0
 10
90.534792080200006
 20
202.6359956087
 30
0.0
 10
90.319495797800002
 20
202.3067103656
 30
0.0
 10
90.214875286700007
 20
201.57754350019999
 30
0.0
 10
90.214875286700007
 20
200.45254353000001
 30
0.0
  0
SPLINE
  5
44E
100
AcDbEntity
  8
0095COMPONENTS
390
0
  6
KM_SOLID
 62
   255
100
AcDbSpline
210
0.0
220
0.0
230
1.0
 70
     0
 71
     3
 72
     8
 73
     4
 74
     0
 42
0.000001
 43
0.0000001
 40
0.0
 40
0.0
 40
0.0
 40
0.0
 40
1.0
 40
1.0
 40
1.0
 40
1.0
 10
90.214875286700007
 20
200.45254353000001
 30
0.0
 10
90.214875286700007
 20
199.30254358369999
 30
0.0
 10
90.347189460899997
 20
198.6108769061
 30
0.0
 10
90.611817781400006
 20
198.37337688989999
 30
0.0
  0
SPLINE
  5
44F
100
AcDbEntity
  8
0095COMPONENTS
390
0
  6
KM_SOLID
 62
   255
100
AcDbSpline
210
0.0
220
0.0
230
1.0
 70
     0
 71
     3
 72
     8
 73
     4
 74
     0
 42
0.000001
 43
0.0000001
 40
0.0
 40
0.0
 40
0.0
 40
0.0
 40
1.0
 40
1.0
 40
1.0
 40
1.0
 10
90.611817781400006
 20
198.37337688989999
 30
0.0
 10
90.8764460748
 20
198.13587689810001
 30
0.0
 10
91.522631564899996
 20
198.0192102309
 30
0.0
 10
92.5534511022
 20
198.0192102309
 30
0.0
  0
SPLINE
  5
450
100
AcDbEntity
  8
0095COMPONENTS
390
0
  6
KM_SOLID
 62
   255
100
AcDbSpline
210
0.0
220
0.0
230
1.0
 70
     0
 71
     3
 72
     8
 73
     4
 74
     0
 42
0.000001
 43
0.0000001
 40
0.0
 40
0.0
 40
0.0
 40
0.0
 40
1.0
 40
1.0
 40
1.0
 40
1.0
 10
92.5534511022
 20
198.0192102309
 30
0.0
 10
93.531960659099994
 20
198.0192102309
 30
0.0
 10
94.165837646599996
 20
198.10671023130001
 30
0.0
 10
94.455666308100007
 20
198.28832605810001
 30
0.0
  0
SPLINE
  5
451
100
AcDbEntity
  8
0095COMPONENTS
390
0
  6
KM_SOLID
 62
   255
100
AcDbSpline
210
0.0
220
0.0
230
1.0
 70
     0
 71
     3
 72
     8
 73
     4
 74
     0
 42
0.000001
 43
0.0000001
 40
0.0
 40
0.0
 40
0.0
 40
0.0
 40
1.0
 40
1.0
 40
1.0
 40
1.0
 10
94.455666308100007
 20
198.28832605810001
 30
0.0
 10
94.744327362999996
 20
198.46921022550001
 30
0.0
 10
94.892027192800001
 20
199.02337688520001
 30
0.0
 10
94.892027192800001
 20
199.95254355980001
 30
0.0
  0
SPLINE
  5
452
100
AcDbEntity
  8
0095COMPONENTS
390
0
  6
KM_SOLID
 62
   255
100
AcDbSpline
210
0.0
220
0.0
230
1.0
 70
     0
 71
     3
 72
     8
 73
     4
 74
     0
 42
0.000001
 43
0.0000001
 40
0.0
 40
0.0
 40
0.0
 40
0.0
 40
1.0
 40
1.0
 40
1.0
 40
1.0
 10
93.778126308599994
 20
199.95254355980001
 30
0.0
 10
93.778126308599994
 20
199.70671016290001
 30
0.0
 10
93.731970469399997
 20
199.53587684350001
 30
0.0
 10
93.6396583386
 20
199.44421028689999
 30
0.0
  0
SPLINE
  5
453
100
AcDbEntity
  8
0095COMPONENTS
390
0
  6
KM_SOLID
 62
   255
100
AcDbSpline
210
0.0
220
0.0
230
1.0
 70
     0
 71
     3
 72
     8
 73
     4
 74
     0
 42
0.000001
 43
0.0000001
 40
0.0
 40
0.0
 40
0.0
 40
0.0
 40
1.0
 40
1.0
 40
1.0
 40
1.0
 10
93.6396583386
 20
199.44421028689999
 30
0.0
 10
93.547346012199995
 20
199.35254353600001
 30
0.0
 10
93.193482450999994
 20
199.3067102464
 30
0.0
 10
92.581144957899994
 20
199.3067102464
 30
0.0
  0
SPLINE
  5
454
100
AcDbEntity
  8
0095COMPONENTS
390
0
  6
KM_SOLID
 62
   255
100
AcDbSpline
210
0.0
220
0.0
230
1.0
 70
     0
 71
     3
 72
     8
 73
     4
 74
     0
 42
0.000001
 43
0.0000001
 40
0.0
 40
0.0
 40
0.0
 40
0.0
 40
1.0
 40
1.0
 40
1.0
 40
1.0
 10
92.581144957899994
 20
199.3067102464
 30
0.0
 10
92.014963303900004
 20
199.3067102464
 30
0.0
 10
91.670331064600006
 20
199.3650435241
 30
0.0
 10
91.541093988599997
 20
199.49004355389999
 30
0.0
  0
SPLINE
  5
455
100
AcDbEntity
  8
0095COMPONENTS
390
0
  6
KM_SOLID
 62
   255
100
AcDbSpline
210
0.0
220
0.0
230
1.0
 70
     0
 71
     3
 72
     8
 73
     4
 74
     0
 42
0.000001
 43
0.0000001
 40
0.0
 40
0.0
 40
0.0
 40
0.0
 40
1.0
 40
1.0
 40
1.0
 40
1.0
 10
91.541093988599997
 20
199.49004355389999
 30
0.0
 10
91.411856912600001
 20
199.61504358369999
 30
0.0
 10
91.347238319499994
 20
199.95671022249999
 30
0.0
 10
91.347238319499994
 20
200.51504361939999
 30
0.0
  0
SPLINE
  5
456
100
AcDbEntity
  8
0095COMPONENTS
390
0
  6
KM_SOLID
 62
   255
100
AcDbSpline
210
0.0
220
0.0
230
1.0
 70
     0
 71
     3
 72
     8
 73
     4
 74
     0
 42
0.000001
 43
0.0000001
 40
0.0
 40
0.0
 40
0.0
 40
0.0
 40
1.0
 40
1.0
 40
1.0
 40
1.0
 10
91.347238319499994
 20
200.51504361939999
 30
0.0
 10
91.347238319499994
 20
201.1442102821
 30
0.0
 10
91.411856912600001
 20
201.52337688520001
 30
0.0
 10
91.544171007499997
 20
201.64837686620001
 30
0.0
  0
SPLINE
  5
457
100
AcDbEntity
  8
0095COMPONENTS
390
0
  6
KM_SOLID
 62
   255
100
AcDbSpline
210
0.0
220
0.0
230
1.0
 70
     0
 71
     3
 72
     8
 73
     4
 74
     0
 42
0.000001
 43
0.0000001
 40
0.0
 40
0.0
 40
0.0
 40
0.0
 40
1.0
 40
1.0
 40
1.0
 40
1.0
 10
91.544171007499997
 20
201.64837686620001
 30
0.0
 10
91.676485205800006
 20
201.77337694479999
 30
0.0
 10
92.054965221900005
 20
201.8400435479
 30
0.0
 10
92.676534146999998
 20
201.8400435479
 30
0.0
  0
SPLINE
  5
458
100
AcDbEntity
  8
0095COMPONENTS
390
0
  6
KM_SOLID
 62
   255
100
AcDbSpline
210
0.0
220
0.0
230
1.0
 70
     0
 71
     3
 72
     8
 73
     4
 74
     0
 42
0.000001
 43
0.0000001
 40
0.0
 40
0.0
 40
0.0
 40
0.0
 40
1.0
 40
1.0
 40
1.0
 40
1.0
 10
92.676534146999998
 20
201.8400435479
 30
0.0
 10
93.002703852600007
 20
201.8400435479
 30
0.0
 10
93.267332365900003
 20
201.82337689709999
 30
0.0
 10
93.4704190283
 20
201.7900436134
 30
0.0
  0
SPLINE
  5
459
100
AcDbEntity
  8
0095COMPONENTS
390
0
  6
KM_SOLID
 62
   255
100
AcDbSpline
210
0.0
220
0.0
230
1.0
 70
     0
 71
     3
 72
     8
 73
     4
 74
     0
 42
0.000001
 43
0.0000001
 40
0.0
 40
0.0
 40
0.0
 40
0.0
 40
1.0
 40
1.0
 40
1.0
 40
1.0
 10
93.4704190283
 20
201.7900436134
 30
0.0
 10
93.673505907600003
 20
201.75671029399999
 30
0.0
 10
93.778126308599994
 20
201.57754350019999
 30
0.0
 10
93.778126308599994
 20
201.26087683750001
 30
0.0
  0
INSERT
  5
465
100
AcDbEntity
  8
0
390
0
100
AcDbBlockReference
  2
KmLegend
 10
0.0
 20
0.0
 30
0.0
  0
ENDSEC
  0
SECTION
  2
OBJECTS
  0
DICTIONARY
  5
19
100
AcDbDictionary
280
     0
281
     1
  3
ACAD_GROUP
350
1A
  3
ACAD_MLINESTYLE
350
1B
  3
ACAD_LAYOUT
350
1E
  3
ACAD_PLOTSETTINGS
350
22
  3
ACAD_PLOTSTYLENAME
350
1F
  3
ACAD_WIPEOUT_VARS
350
23
  0
DICTIONARY
  5
1A
102
{ACAD_REACTORS
330
19
102
}
100
AcDbDictionary
280
     0
281
     1
  0
DICTIONARY
  5
1B
102
{ACAD_REACTORS
330
19
102
}
100
AcDbDictionary
280
     0
281
     1
  3
Standard
350
1C
  0
MLINESTYLE
  5
1C
102
{ACAD_REACTORS
330
1B
102
}
100
AcDbMlineStyle
  2
Standard
 70
     0
  3

 62
     0
 51
90.0
 52
90.0
 71
     2
 49
0.5
 62
   256
  6
ByLayer
 49
-0.5
 62
   256
  6
ByLayer
  0
ACDBDICTIONARYWDFLT
  5
1F
102
{ACAD_REACTORS
330
19
102
}
100
AcDbDictionary
281
     1
  3
Normal
350
1D
100
AcDbDictionaryWithDefault
340
1D
  0
ACDBPLACEHOLDER
  5
1D
102
{ACAD_REACTORS
330
1F
102
}
  0
LAYOUT
  5
20
102
{ACAD_REACTORS
330
1E
102
}
100
AcDbPlotSettings
  1

  2

  4

  6

 40
0.0
 41
0.0
 42
0.0
 43
0.0
 44
0.0
 45
0.0
 46
0.0
 47
0.0
 48
0.0
 49
0.0
140
0.0
141
0.0
142
1.0
143
1.0
 70
  1024
 72
     0
 73
     0
 74
     0
  7

 75
     0
147
1.0
148
0.0
149
0.0
100
AcDbLayout
  1
Model
 70
     0
 71
     0
 10
0.0
 20
0.0
 11
0.0
 21
0.0
 12
0.0
 22
0.0
 32
0.0
 14
0.0
 24
0.0
 34
0.0
 15
0.0
 25
0.0
 35
0.0
146
0.0
 13
0.0
 23
0.0
 33
0.0
 16
0.0
 26
0.0
 36
0.0
 17
0.0
 27
0.0
 37
0.0
 76
     0
330
A
331
0
345
0
346
0
  0
LAYOUT
  5
21
102
{ACAD_REACTORS
330
1E
102
}
100
AcDbPlotSettings
  1

  2

  4

  6

 40
0.0
 41
0.0
 42
0.0
 43
0.0
 44
0.0
 45
0.0
 46
0.0
 47
0.0
 48
0.0
 49
0.0
140
0.0
141
0.0
142
1.0
143
1.0
 70
     0
 72
     0
 73
     0
 74
     0
  7

 75
     0
147
1.0
148
0.0
149
0.0
100
AcDbLayout
  1
Layout1
 70
     0
 71
     0
 10
0.0
 20
0.0
 11
0.0
 21
0.0
 12
0.0
 22
0.0
 32
0.0
 14
0.0
 24
0.0
 34
0.0
 15
0.0
 25
0.0
 35
0.0
146
0.0
 13
0.0
 23
0.0
 33
0.0
 16
0.0
 26
0.0
 36
0.0
 17
0.0
 27
0.0
 37
0.0
 76
     0
330
B
331
0
345
0
346
0
  0
DICTIONARY
  5
1E
102
{ACAD_REACTORS
330
19
102
}
100
AcDbDictionary
280
     0
281
     1
  3
Layout1
350
21
  3
Model
350
20
  0
DICTIONARY
  5
22
102
{ACAD_REACTORS
330
19
102
}
100
AcDbDictionary
280
     0
281
     1
  0
WIPEOUTVARIABLES
  5
23
100
AcDbWipeoutVariables
 70
     1
  0
ENDSEC
  0
EOF
